  0
SECTION
  2
HEADER
  9
$ACADVER
  1
AC1021
  9
$ACADMAINTVER
 70
    25
  9
$DWGCODEPAGE
  3
ANSI_1252
  9
$INSBASE
 10
0.0
 20
0.0
 30
0.0
  9
$EXTMIN
 10
0.0
 20
0.0
 30
0.0
  9
$EXTMAX
 10
210.0
 20
297.0
 30
0.0
  9
$LIMMIN
 10
0.0
 20
0.0
  9
$LIMMAX
 10
210.0
 20
297.0
  9
$ORTHOMODE
 70
     0
  9
$REGENMODE
 70
     1
  9
$FILLMODE
 70
     1
  9
$QTEXTMODE
 70
     0
  9
$MIRRTEXT
 70
     1
  9
$LTSCALE
 40
1.0
  9
$ATTMODE
 70
     1
  9
$TEXTSIZE
 40
2.2
  9
$TRACEWID
 40
1.0
  9
$TEXTSTYLE
  7
Standard
  9
$CLAYER
  8
0
  9
$CELTYPE
  6
ByLayer
  9
$CECOLOR
 62
   256
  9
$CELTSCALE
 40
1.0
  9
$DISPSILH
 70
     0
  9
$DIMSCALE
 40
1.0
  9
$DIMASZ
 40
2.5
  9
$DIMEXO
 40
0.625
  9
$DIMDLI
 40
3.75
  9
$DIMRND
 40
0.0
  9
$DIMDLE
 40
0.0
  9
$DIMEXE
 40
1.25
  9
$DIMTP
 40
0.0
  9
$DIMTM
 40
0.0
  9
$DIMTXT
 40
2.5
  9
$DIMCEN
 40
2.5
  9
$DIMTSZ
 40
0.0
  9
$DIMTOL
 70
     0
  9
$DIMLIM
 70
     0
  9
$DIMTIH
 70
     0
  9
$DIMTOH
 70
     0
  9
$DIMSE1
 70
     0
  9
$DIMSE2
 70
     0
  9
$DIMTAD
 70
     1
  9
$DIMZIN
 70
     8
  9
$DIMBLK
  1

  9
$DIMASO
 70
     1
  9
$DIMSHO
 70
     1
  9
$DIMPOST
  1

  9
$DIMAPOST
  1

  9
$DIMALT
 70
     0
  9
$DIMALTD
 70
     3
  9
$DIMALTF
 40
0.0393700787
  9
$DIMLFAC
 40
1.0
  9
$DIMTOFL
 70
     1
  9
$DIMTVP
 40
0.0
  9
$DIMTIX
 70
     0
  9
$DIMSOXD
 70
     0
  9
$DIMSAH
 70
     0
  9
$DIMBLK1
  1

  9
$DIMBLK2
  1

  9
$DIMSTYLE
  2
ISO-25
  9
$DIMCLRD
 70
     0
  9
$DIMCLRE
 70
     0
  9
$DIMCLRT
 70
     0
  9
$DIMTFAC
 40
1.0
  9
$DIMGAP
 40
0.625
  9
$DIMJUST
 70
     0
  9
$DIMSD1
 70
     0
  9
$DIMSD2
 70
     0
  9
$DIMTOLJ
 70
     0
  9
$DIMTZIN
 70
     8
  9
$DIMALTZ
 70
     0
  9
$DIMALTTZ
 70
     0
  9
$DIMUPT
 70
     0
  9
$DIMDEC
 70
     2
  9
$DIMTDEC
 70
     2
  9
$DIMALTU
 70
     2
  9
$DIMALTTD
 70
     3
  9
$DIMTXSTY
  7
Standard
  9
$DIMAUNIT
 70
     0
  9
$DIMADEC
 70
     0
  9
$DIMALTRND
 40
0.0
  9
$DIMAZIN
 70
     0
  9
$DIMDSEP
 70
    44
  9
$DIMATFIT
 70
     3
  9
$DIMFRAC
 70
     0
  9
$DIMLDRBLK
  1

  9
$DIMLUNIT
 70
     2
  9
$DIMLWD
 70
    -2
  9
$DIMLWE
 70
    -2
  9
$DIMTMOVE
 70
     0
  9
$DIMFXL
 40
1.0
  9
$DIMFXLON
 70
     0
  9
$DIMJOGANG
 40
0.7853981634
  9
$DIMTFILL
 70
     0
  9
$DIMTFILLCLR
 70
     0
  9
$DIMARCSYM
 70
     0
  9
$DIMLTYPE
  6

  9
$DIMLTEX1
  6

  9
$DIMLTEX2
  6

  9
$LUNITS
 70
     2
  9
$LUPREC
 70
     4
  9
$SKETCHINC
 40
1.0
  9
$FILLETRAD
 40
10.0
  9
$AUNITS
 70
     0
  9
$AUPREC
 70
     0
  9
$MENU
  1
.
  9
$ELEVATION
 40
0.0
  9
$PELEVATION
 40
0.0
  9
$THICKNESS
 40
0.0
  9
$LIMCHECK
 70
     0
  9
$CHAMFERA
 40
0.0
  9
$CHAMFERB
 40
0.0
  9
$CHAMFERC
 40
0.0
  9
$CHAMFERD
 40
0.0
  9
$SKPOLY
 70
     0
  9
$TDCREATE
 40
2460160.379170104
  9
$TDUCREATE
 40
2460160.295836771
  9
$TDUPDATE
 40
2460160.379178148
  9
$TDUUPDATE
 40
2460160.295844815
  9
$TDINDWG
 40
0.0000000116
  9
$TDUSRTIMER
 40
0.0000000116
  9
$USRTIMER
 70
     1
  9
$ANGBASE
 50
0.0
  9
$ANGDIR
 70
     0
  9
$PDMODE
 70
     0
  9
$PDSIZE
 40
0.0
  9
$PLINEWID
 40
0.0
  9
$SPLFRAME
 70
     0
  9
$SPLINETYPE
 70
     6
  9
$SPLINESEGS
 70
     8
  9
$HANDSEED
  5
223
  9
$SURFTAB1
 70
     6
  9
$SURFTAB2
 70
     6
  9
$SURFTYPE
 70
     6
  9
$SURFU
 70
     6
  9
$SURFV
 70
     6
  9
$UCSBASE
  2

  9
$UCSNAME
  2

  9
$UCSORG
 10
0.0
 20
0.0
 30
0.0
  9
$UCSXDIR
 10
1.0
 20
0.0
 30
0.0
  9
$UCSYDIR
 10
0.0
 20
1.0
 30
0.0
  9
$UCSORTHOREF
  2

  9
$UCSORTHOVIEW
 70
     0
  9
$UCSORGTOP
 10
0.0
 20
0.0
 30
0.0
  9
$UCSORGBOTTOM
 10
0.0
 20
0.0
 30
0.0
  9
$UCSORGLEFT
 10
0.0
 20
0.0
 30
0.0
  9
$UCSORGRIGHT
 10
0.0
 20
0.0
 30
0.0
  9
$UCSORGFRONT
 10
0.0
 20
0.0
 30
0.0
  9
$UCSORGBACK
 10
0.0
 20
0.0
 30
0.0
  9
$PUCSBASE
  2

  9
$PUCSNAME
  2

  9
$PUCSORG
 10
0.0
 20
0.0
 30
0.0
  9
$PUCSXDIR
 10
1.0
 20
0.0
 30
0.0
  9
$PUCSYDIR
 10
0.0
 20
1.0
 30
0.0
  9
$PUCSORTHOREF
  2

  9
$PUCSORTHOVIEW
 70
     0
  9
$PUCSORGTOP
 10
0.0
 20
0.0
 30
0.0
  9
$PUCSORGBOTTOM
 10
0.0
 20
0.0
 30
0.0
  9
$PUCSORGLEFT
 10
0.0
 20
0.0
 30
0.0
  9
$PUCSORGRIGHT
 10
0.0
 20
0.0
 30
0.0
  9
$PUCSORGFRONT
 10
0.0
 20
0.0
 30
0.0
  9
$PUCSORGBACK
 10
0.0
 20
0.0
 30
0.0
  9
$USERI1
 70
     0
  9
$USERI2
 70
     0
  9
$USERI3
 70
     0
  9
$USERI4
 70
     0
  9
$USERI5
 70
     0
  9
$USERR1
 40
0.0
  9
$USERR2
 40
0.0
  9
$USERR3
 40
0.0
  9
$USERR4
 40
0.0
  9
$USERR5
 40
0.0
  9
$WORLDVIEW
 70
     1
  9
$SHADEDGE
 70
     3
  9
$SHADEDIF
 70
    70
  9
$TILEMODE
 70
     1
  9
$MAXACTVP
 70
    64
  9
$PINSBASE
 10
0.0
 20
0.0
 30
0.0
  9
$PLIMCHECK
 70
     0
  9
$PEXTMIN
 10
0.0
 20
0.0
 30
0.0
  9
$PEXTMAX
 10
210.0
 20
297.0
 30
0.0
  9
$PLIMMIN
 10
0.0
 20
0.0
  9
$PLIMMAX
 10
210.0
 20
297.0
  9
$UNITMODE
 70
     0
  9
$VISRETAIN
 70
     1
  9
$PLINEGEN
 70
     0
  9
$PSLTSCALE
 70
     1
  9
$TREEDEPTH
 70
  3020
  9
$CMLSTYLE
  2
Standard
  9
$CMLJUST
 70
     0
  9
$CMLSCALE
 40
20.0
  9
$PROXYGRAPHICS
 70
     1
  9
$MEASUREMENT
 70
     1
  9
$CELWEIGHT
370
    -1
  9
$ENDCAPS
280
     0
  9
$JOINSTYLE
280
     0
  9
$LWDISPLAY
290
     0
  9
$INSUNITS
 70
     4
  9
$HYPERLINKBASE
  1

  9
$STYLESHEET
  1

  9
$XEDIT
290
     1
  9
$CEPSNTYPE
380
     0
  9
$PSTYLEMODE
290
     1
  9
$FINGERPRINTGUID
  2
{f1aa5a16-ef36-4bca-86e6-7af272f2d9cd}
  9
$VERSIONGUID
  2
{FAEB1C32-E019-11D5-929B-00C0DF256EC4}
  9
$EXTNAMES
290
     1
  9
$PSVPSCALE
 40
0.0
  9
$OLESTARTUP
290
     0
  9
$SORTENTS
280
   127
  9
$INDEXCTL
280
     0
  9
$HIDETEXT
280
     1
  9
$XCLIPFRAME
290
     0
  9
$HALOGAP
280
     0
  9
$OBSCOLOR
 70
   257
  9
$OBSLTYPE
280
     0
  9
$INTERSECTIONDISPLAY
280
     0
  9
$INTERSECTIONCOLOR
 70
   257
  9
$DIMASSOC
280
     2
  9
$PROJECTNAME
  1

  9
$CAMERADISPLAY
290
     0
  9
$LENSLENGTH
 40
50.0
  9
$CAMERAHEIGHT
 40
0.0
  9
$STEPSPERSEC
 40
2.0
  9
$STEPSIZE
 40
6.0
  9
$3DDWFPREC
 40
2.0
  9
$PSOLWIDTH
 40
5.0
  9
$PSOLHEIGHT
 40
80.0
  9
$LOFTANG1
 40
1.5707963268
  9
$LOFTANG2
 40
1.5707963268
  9
$LOFTMAG1
 40
0.0
  9
$LOFTMAG2
 40
0.0
  9
$LOFTPARAM
 70
     7
  9
$LOFTNORMALS
280
     1
  9
$LATITUDE
 40
37.795
  9
$LONGITUDE
 40
-122.394
  9
$NORTHDIRECTION
 40
0.0
  9
$TIMEZONE
 70
 -8000
  9
$LIGHTGLYPHDISPLAY
280
     1
  9
$TILEMODELIGHTSYNCH
280
     1
  9
$CMATERIAL
347
44
  9
$SOLIDHIST
280
     0
  9
$SHOWHIST
280
     1
  9
$DWFFRAME
280
     2
  9
$DGNFRAME
280
     2
  9
$REALWORLDSCALE
290
     1
  9
$INTERFERECOLOR
 62
   256
  9
$CSHADOW
280
     0
  9
$SHADOWPLANELOCATION
 40
0.0
  0
ENDSEC
  0
SECTION
  2
CLASSES
  0
CLASS
  1
ACDBDICTIONARYWDFLT
  2
AcDbDictionaryWithDefault
  3
ObjectDBX Classes
 90
        0
 91
        3
280
     0
281
     0
  0
CLASS
  1
VISUALSTYLE
  2
AcDbVisualStyle
  3
ObjectDBX Classes
 90
     4095
 91
        3
280
     0
281
     0
  0
CLASS
  1
MATERIAL
  2
AcDbMaterial
  3
ObjectDBX Classes
 90
     1153
 91
        3
280
     0
281
     0
  0
CLASS
  1
SCALE
  2
AcDbScale
  3
ObjectDBX Classes
 90
     1153
 91
        3
280
     0
281
     0
  0
CLASS
  1
TABLESTYLE
  2
AcDbTableStyle
  3
ObjectDBX Classes
 90
     4095
 91
        3
280
     0
281
     0
  0
CLASS
  1
MLEADERSTYLE
  2
AcDbMLeaderStyle
  3
ACDB_MLEADERSTYLE_CLASS
 90
     4095
 91
        3
280
     0
281
     0
  0
CLASS
  1
SUN
  2
AcDbSun
  3
SCENEOE
 90
     1153
 91
        3
280
     0
281
     0
  0
CLASS
  1
MULTILEADER
  2
AcDbMLeader
  3
ACDB_MLEADER_CLASS
 90
     1025
 91
        3
280
     0
281
     1
  0
CLASS
  1
RASTERVARIABLES
  2
AcDbRasterVariables
  3
ISM
 90
        0
 91
        3
280
     0
281
     0
  0
CLASS
  1
IMAGEDEF
  2
AcDbRasterImageDef
  3
ISM
 90
        0
 91
        3
280
     0
281
     0
  0
CLASS
  1
IMAGE
  2
AcDbRasterImage
  3
ISM
 90
      127
 91
        4
280
     0
281
     1
  0
CLASS
  1
IMAGEDEF_REACTOR
  2
AcDbRasterImageDefReactor
  3
ISM
 90
        1
 91
        3
280
     0
281
     0
  0
CLASS
  1
DICTIONARYVAR
  2
AcDbDictionaryVar
  3
ObjectDBX Classes
 90
        0
 91
        3
280
     0
281
     0
  0
CLASS
  1
CELLSTYLEMAP
  2
AcDbCellStyleMap
  3
ObjectDBX Classes
 90
     1152
 91
        3
280
     0
281
     0
  0
ENDSEC
  0
SECTION
  2
TABLES
  0
TABLE
  2
VPORT
  5
8
330
0
100
AcDbSymbolTable
 70
     1
  0
VPORT
  5
29
330
8
100
AcDbSymbolTableRecord
100
AcDbViewportTableRecord
  2
*Active
 70
     0
 10
0.0
 20
0.0
 11
1.0
 21
1.0
 12
344.1869158879
 22
148.5
 13
0.0
 23
0.0
 14
10.0
 24
10.0
 15
10.0
 25
10.0
 16
0.0
 26
0.0
 36
1.0
 17
0.0
 27
0.0
 37
0.0
 40
297.0
 41
1.9729729729
 42
50.0
 43
0.0
 44
0.0
 50
0.0
 51
0.0
 71
     0
 72
   100
 73
     1
 74
     3
 75
     0
 76
     0
 77
     0
 78
     0
281
     0
 65
     1
110
0.0
120
0.0
130
0.0
111
1.0
121
0.0
131
0.0
112
0.0
122
1.0
132
0.0
 79
     0
146
0.0
348
2F
 60
     3
 61
     5
292
     1
282
     1
141
0.0
142
0.0
 63
   250
361
6D
  0
ENDTAB
  0
TABLE
  2
LTYPE
  5
5
330
0
100
AcDbSymbolTable
 70
     1
  0
LTYPE
  5
14
330
5
100
AcDbSymbolTableRecord
100
AcDbLinetypeTableRecord
  2
ByBlock
 70
     0
  3

 72
    65
 73
     0
 40
0.0
  0
LTYPE
  5
15
330
5
100
AcDbSymbolTableRecord
100
AcDbLinetypeTableRecord
  2
ByLayer
 70
     0
  3

 72
    65
 73
     0
 40
0.0
  0
LTYPE
  5
16
330
5
100
AcDbSymbolTableRecord
100
AcDbLinetypeTableRecord
  2
Continuous
 70
     0
  3
Solid line
 72
    65
 73
     0
 40
0.0
  0
ENDTAB
  0
TABLE
  2
LAYER
  5
2
330
0
100
AcDbSymbolTable
 70
    15
  0
LAYER
  5
10
330
2
100
AcDbSymbolTableRecord
100
AcDbLayerTableRecord
  2
0
 70
     0
 62
     7
  6
Continuous
370
    -3
390
F
347
46
  0
LAYER
  5
6E
330
2
100
AcDbSymbolTableRecord
100
AcDbLayerTableRecord
  2
Standard
 70
     0
 62
     7
  6
Continuous
370
    -3
390
F
347
46
  0
LAYER
  5
71
330
2
100
AcDbSymbolTableRecord
100
AcDbLayerTableRecord
  2
DV1_Füllung
 70
     1
 62
    -7
  6
Continuous
370
    -3
390
F
347
46
  0
LAYER
  5
7A
330
2
100
AcDbSymbolTableRecord
100
AcDbLayerTableRecord
  2
DV1_Auto_-_Hide
 70
     1
 62
    -7
  6
Continuous
370
    -3
390
F
347
46
  0
LAYER
  5
7F
330
2
100
AcDbSymbolTableRecord
100
AcDbLayerTableRecord
  2
10450_SCHIEBER_0
 70
     0
 62
     7
  6
Continuous
370
    -3
390
F
347
46
  0
LAYER
  5
89
330
2
100
AcDbSymbolTableRecord
100
AcDbLayerTableRecord
  2
20867_LINSENSENK
 70
     0
 62
     7
  6
Continuous
370
    -3
390
F
347
46
  0
LAYER
  5
97
330
2
100
AcDbSymbolTableRecord
100
AcDbLayerTableRecord
  2
20869_LINSENSENK
 70
     0
 62
     7
  6
Continuous
370
    -3
390
F
347
46
  0
LAYER
  5
B0
330
2
100
AcDbSymbolTableRecord
100
AcDbLayerTableRecord
  2
37471__DICHTPROFI
 70
     0
 62
     7
  6
Continuous
370
    -3
390
F
347
46
  0
LAYER
  5
DE
330
2
100
AcDbSymbolTableRecord
100
AcDbLayerTableRecord
  2
37469__HALTEPROFI
 70
     0
 62
     7
  6
Continuous
370
    -3
390
F
347
46
  0
LAYER
  5
10A
330
2
100
AcDbSymbolTableRecord
100
AcDbLayerTableRecord
  2
DV2_Füllung
 70
     1
 62
    -7
  6
Continuous
370
    -3
390
F
347
46
  0
LAYER
  5
113
330
2
100
AcDbSymbolTableRecord
100
AcDbLayerTableRecord
  2
DV2_Auto_-_Hide
 70
     1
 62
    -7
  6
Continuous
370
    -3
390
F
347
46
  0
LAYER
  5
157
330
2
100
AcDbSymbolTableRecord
100
AcDbLayerTableRecord
  2
DV3_Auto_-_Hide
 70
     1
 62
    -7
  6
Continuous
370
    -3
390
F
347
46
  0
LAYER
  5
159
330
2
100
AcDbSymbolTableRecord
100
AcDbLayerTableRecord
  2
DV3_Füllung
 70
     1
 62
    -7
  6
Continuous
370
    -3
390
F
347
46
  0
LAYER
  5
1BB
330
2
100
AcDbSymbolTableRecord
100
AcDbLayerTableRecord
  2
Default
 70
     0
 62
     7
  6
Continuous
370
    -3
390
F
347
46
  0
LAYER
  5
1DA
330
2
100
AcDbSymbolTableRecord
100
AcDbLayerTableRecord
  2
Skizziergeometrie(DIN)
 70
     0
 62
     7
  6
Continuous
370
    -3
390
F
347
46
  0
ENDTAB
  0
TABLE
  2
STYLE
  5
3
330
0
100
AcDbSymbolTable
 70
     2
  0
STYLE
  5
11
330
3
100
AcDbSymbolTableRecord
100
AcDbTextStyleTableRecord
  2
Standard
 70
     0
 40
0.0
 41
1.0
 50
0.0
 71
     0
 42
2.2
  3
txt
  4

  0
STYLE
  5
1B5
330
3
100
AcDbSymbolTableRecord
100
AcDbTextStyleTableRecord
  2
SEACAD_Arial
 70
     0
 40
0.0
 41
1.0
 50
0.0
 71
     0
 42
2.5
  3

  4

1001
ACAD
1000
Arial
1071
        0
  0
ENDTAB
  0
TABLE
  2
VIEW
  5
6
330
0
100
AcDbSymbolTable
 70
     0
  0
ENDTAB
  0
TABLE
  2
UCS
  5
7
330
0
100
AcDbSymbolTable
 70
     0
  0
ENDTAB
  0
TABLE
  2
APPID
  5
9
330
0
100
AcDbSymbolTable
 70
     2
  0
APPID
  5
12
330
9
100
AcDbSymbolTableRecord
100
AcDbRegAppTableRecord
  2
ACAD
 70
     0
  0
APPID
  5
1E4
330
9
100
AcDbSymbolTableRecord
100
AcDbRegAppTableRecord
  2
ACAD_MLEADERVER
 70
     0
  0
ENDTAB
  0
TABLE
  2
DIMSTYLE
  5
A
330
0
100
AcDbSymbolTable
 70
     3
100
AcDbDimStyleTable
  0
DIMSTYLE
105
27
330
A
100
AcDbSymbolTableRecord
100
AcDbDimStyleTableRecord
  2
ISO-25
 70
     0
 41
2.5
 42
0.625
 43
3.75
 44
1.25
 73
     0
 74
     0
 77
     1
 78
     8
140
2.5
141
2.5
143
0.0393700787
147
0.625
171
     3
172
     1
178
     0
271
     2
272
     2
274
     3
278
    44
283
     0
284
     8
340
11
  0
DIMSTYLE
105
1A5
330
A
100
AcDbSymbolTableRecord
100
AcDbDimStyleTableRecord
  2
Standard
 70
     0
178
     0
340
11
  0
DIMSTYLE
105
1B6
102
{ACAD_REACTORS
330
1B7
330
1B8
330
1B9
330
1BA
102
}
330
A
100
AcDbSymbolTableRecord
100
AcDbDimStyleTableRecord
  2
E-Katalog
 70
     0
 41
3.75
 42
0.75
 44
1.25
 73
     0
 74
     0
 77
     1
 78
     8
140
2.5
141
1.25
143
0.0393700787
146
0.7
147
0.625
172
     1
173
     1
178
     0
271
     2
272
     3
278
    44
283
     0
284
     8
340
1B5
343
1AF
344
1AF
  0
ENDTAB
  0
TABLE
  2
BLOCK_RECORD
  5
1
330
0
100
AcDbSymbolTable
 70
     8
  0
BLOCK_RECORD
  5
1F
330
1
100
AcDbSymbolTableRecord
100
AcDbBlockTableRecord
  2
*Model_Space
340
22
 70
     0
280
     1
281
     0
  0
BLOCK_RECORD
  5
1B
330
1
100
AcDbSymbolTableRecord
100
AcDbBlockTableRecord
  2
*Paper_Space
340
1E
 70
     0
280
     1
281
     0
  0
BLOCK_RECORD
  5
6F
330
1
100
AcDbSymbolTableRecord
100
AcDbBlockTableRecord
  2
SE
340
0
102
{BLKREFS
331
70
102
}
 70
     0
280
     1
281
     0
  0
BLOCK_RECORD
  5
108
330
1
100
AcDbSymbolTableRecord
100
AcDbBlockTableRecord
  2
SE1
340
0
102
{BLKREFS
331
109
102
}
 70
     0
280
     1
281
     0
  0
BLOCK_RECORD
  5
155
330
1
100
AcDbSymbolTableRecord
100
AcDbBlockTableRecord
  2
SE2
340
0
102
{BLKREFS
331
156
102
}
 70
     0
280
     1
281
     0
  0
BLOCK_RECORD
  5
1A6
330
1
100
AcDbSymbolTableRecord
100
AcDbBlockTableRecord
  2
_Oblique
340
0
 70
     0
280
     1
281
     0
  0
BLOCK_RECORD
  5
1AA
330
1
100
AcDbSymbolTableRecord
100
AcDbBlockTableRecord
  2
_Dot
340
0
 70
     0
280
     1
281
     0
  0
BLOCK_RECORD
  5
1AF
330
1
100
AcDbSymbolTableRecord
100
AcDbBlockTableRecord
  2
_SE_OPEN
340
0
 70
     0
280
     1
281
     0
  0
BLOCK_RECORD
  5
1C3
330
1
100
AcDbSymbolTableRecord
100
AcDbBlockTableRecord
  2
SEANNOT_GROUP
340
0
102
{BLKREFS
331
1C4
102
}
 70
     0
280
     1
281
     0
  0
BLOCK_RECORD
  5
1C7
330
1
100
AcDbSymbolTableRecord
100
AcDbBlockTableRecord
  2
_NONE
340
0
 70
     0
280
     1
281
     0
  0
ENDTAB
  0
ENDSEC
  0
SECTION
  2
BLOCKS
  0
BLOCK
  5
20
330
1F
100
AcDbEntity
  8
0
100
AcDbBlockBegin
  2
*Model_Space
 70
     0
 10
0.0
 20
0.0
 30
0.0
  3
*Model_Space
  1

  0
ENDBLK
  5
21
330
1F
100
AcDbEntity
  8
0
100
AcDbBlockEnd
  0
BLOCK
  5
1C
330
1B
100
AcDbEntity
 67
     1
  8
0
100
AcDbBlockBegin
  2
*Paper_Space
 70
     0
 10
0.0
 20
0.0
 30
0.0
  3
*Paper_Space
  1

  0
ENDBLK
  5
1D
330
1B
100
AcDbEntity
 67
     1
  8
0
100
AcDbBlockEnd
  0
BLOCK
  5
106
330
6F
100
AcDbEntity
  8
0
100
AcDbBlockBegin
  2
SE
 70
     0
 10
0.0
 20
0.0
 30
0.0
  3
SE
  1

  0
HATCH
  5
72
330
6F
100
AcDbEntity
  8
DV1_Füllung
  6
Continuous
 62
     7
100
AcDbHatch
 10
0.0
 20
0.0
 30
0.0
210
0.0
220
0.0
230
1.0
  2
SOLID
 70
     1
 71
     0
 91
        1
 92
        1
 93
       22
 72
     1
 10
53.40957317209418
 20
164.9071358288339
 11
43.44541759455721
 21
164.9071358288339
 72
     2
 10
43.44541759455721
 20
164.7071358288339
 40
0.1999999999999988
 50
90.0
 51
180.0
 73
     1
 72
     1
 10
43.24541759455722
 20
164.7071358288339
 11
43.24541759455722
 21
163.9071358288339
 72
     2
 10
43.44541759455721
 20
163.9071358288339
 40
0.2000000000000001
 50
180.0
 51
270.000000000002
 73
     1
 72
     1
 10
43.44541759455721
 20
163.7071358288339
 11
47.04541759455721
 21
163.7071358288339
 72
     1
 10
47.04541759455721
 20
163.7071358288339
 11
47.44541759455721
 21
163.7071358288339
 72
     1
 10
47.44541759455721
 20
163.7071358288339
 11
52.91251689724444
 21
163.7071358288339
 72
     2
 10
52.91251689724444
 20
163.5071358288339
 40
0.2000000000000001
 50
270.0
 51
315.0000000000072
 73
     0
 72
     1
 10
53.05393825348177
 20
163.6485571850712
 11
53.89263945566011
 21
162.8098559828929
 72
     2
 10
53.7512180994228
 20
162.6684346266556
 40
0.1999999999999988
 50
315.0000000000057
 51
360.0
 73
     0
 72
     1
 10
53.9512180994228
 20
162.6684346266556
 11
53.95121809942281
 21
160.9202874667753
 72
     2
 10
54.15121809942281
 20
160.9202874667753
 40
0.1999999999999997
 50
180.0
 51
270.0
 73
     1
 72
     1
 10
54.15121809942281
 20
160.7202874667753
 11
54.75121809942281
 21
160.7202874667753
 72
     2
 10
54.75121809942281
 20
160.9202874667753
 40
0.2000000000000005
 50
270.0
 51
360.0
 73
     1
 72
     1
 10
54.9512180994228
 20
160.9202874667753
 11
54.95121809942281
 21
162.039211401216
 72
     2
 10
55.15121809942281
 20
162.039211401216
 40
0.2000000000000005
 50
180.0
 51
270.0
 73
     0
 72
     1
 10
55.15121809942281
 20
162.239211401216
 11
58.48681971792334
 21
162.239211401216
 72
     2
 10
61.20895123568659
 20
160.039211401216
 40
3.5
 50
218.9448035940958
 51
256.2708673245872
 73
     0
 72
     1
 10
60.37828884939478
 20
163.439211401216
 11
55.04318302466132
 21
163.439211401216
 72
     2
 10
55.04318302466132
 20
163.639211401216
 40
0.2
 50
90.0
 51
134.9999999999986
 73
     0
 72
     1
 10
54.90176166842401
 20
163.4977900449787
 11
53.55099452833148
 21
164.8485571850712
 72
     2
 10
53.40957317209418
 20
164.7071358288339
 40
0.2000000000000001
 50
45.00000000001008
 51
90.0
 73
     1
 97
        0
 75
     0
 76
     1
 98
        0
  0
HATCH
  5
73
330
6F
100
AcDbEntity
  8
DV1_Füllung
  6
Continuous
 62
     7
100
AcDbHatch
 10
0.0
 20
0.0
 30
0.0
210
0.0
220
0.0
230
1.0
  2
SOLID
 70
     1
 71
     0
 91
        1
 92
        1
 93
       19
 72
     1
 10
63.93108275344983
 20
162.239211401216
 11
66.58744259455722
 21
162.239211401216
 72
     2
 10
66.5874425945572
 20
162.039211401216
 40
0.1999999999999988
 50
270.0
 51
360.0
 73
     0
 72
     1
 10
66.7874425945572
 20
162.039211401216
 11
66.7874425945572
 21
160.8295888258887
 72
     2
 10
66.98744259455722
 20
160.8295888258887
 40
0.1999999999999997
 50
180.0
 51
270.0
 73
     1
 72
     1
 10
66.98744259455722
 20
160.6295888258887
 11
67.072963758826
 21
160.629588474448
 72
     2
 10
67.07296375882599
 20
160.8295888258887
 40
0.1999999999999998
 50
270.0
 51
321.501540454667
 73
     1
 72
     2
 10
68.82100419858061
 20
159.4392114088887
 40
2.033561000000001
 50
218.4984595453361
 51
487.7395450993282
 73
     0
 72
     2
 10
67.45390183720443
 20
157.6729085259605
 40
0.2
 50
52.26045490066465
 51
125.0000000000072
 73
     1
 72
     1
 10
67.33918654993421
 20
157.8367389348183
 11
66.91502813505616
 21
157.5397400153256
 72
     2
 10
67.02974342232638
 20
157.3759096064678
 40
0.1999999999999976
 50
125.0000000000072
 51
189.4261102053799
 73
     1
 72
     2
 10
69.66369209455722
 20
157.8131902852695
 40
2.870000000000001
 50
189.4261102053767
 51
359.9152711822268
 73
     1
 72
     1
 10
72.53368895644226
 20
157.8089461398814
 11
72.53992904210422
 21
162.0286475473395
 72
     2
 10
69.66994159455722
 20
162.0371358288339
 40
2.87
 50
359.8305423644657
 51
450.0
 73
     1
 72
     1
 10
69.66994159455722
 20
164.9071358288339
 11
69.2874425945572
 21
164.9071358288339
 72
     2
 10
69.28744259455722
 20
164.7071358288339
 40
0.1999999999999988
 50
90.0
 51
180.0
 73
     1
 72
     1
 10
69.0874425945572
 20
164.7071358288339
 11
69.0874425945572
 21
163.639211401216
 72
     2
 10
68.88744259455721
 20
163.639211401216
 40
0.2000000000000003
 50
0.0
 51
90.0
 73
     0
 72
     1
 10
68.88744259455721
 20
163.439211401216
 11
62.0396136219784
 21
163.439211401216
 72
     2
 10
61.20895123568659
 20
160.039211401216
 40
3.5
 50
283.7291326754127
 51
321.0551964059042
 73
     0
 97
        0
 75
     0
 76
     1
 98
        0
  0
HATCH
  5
74
330
6F
100
AcDbEntity
  8
DV1_Füllung
  6
Continuous
 62
     7
100
AcDbHatch
 10
0.0
 20
0.0
 30
0.0
210
0.0
220
0.0
230
1.0
  2
SOLID
 70
     1
 71
     0
 91
        1
 92
        1
 93
       10
 72
     1
 10
65.55895123568659
 20
164.439211401216
 11
62.20895123568659
 21
164.439211401216
 72
     1
 10
62.20895123568658
 20
164.439211401216
 11
62.20895123568659
 21
164.739211401216
 72
     1
 10
62.20895123568659
 20
164.739211401216
 11
60.20895123568659
 21
164.739211401216
 72
     1
 10
60.20895123568659
 20
164.739211401216
 11
60.20895123568659
 21
164.439211401216
 72
     1
 10
60.20895123568659
 20
164.439211401216
 11
56.85895123568659
 21
164.439211401216
 72
     1
 10
56.85895123568659
 20
164.439211401216
 11
56.85895123568659
 21
163.439211401216
 72
     1
 10
56.85895123568659
 20
163.439211401216
 11
60.37828884939477
 21
163.439211401216
 72
     2
 10
61.20895123568659
 20
160.039211401216
 40
3.5
 50
256.2708673245872
 51
283.7291326754127
 73
     0
 72
     1
 10
62.0396136219784
 20
163.439211401216
 11
65.55895123568658
 21
163.439211401216
 72
     1
 10
65.55895123568659
 20
163.439211401216
 11
65.55895123568659
 21
164.439211401216
 97
        0
 75
     0
 76
     1
 98
        0
  0
HATCH
  5
75
330
6F
100
AcDbEntity
  8
DV1_Füllung
  6
Continuous
 62
     7
100
AcDbHatch
 10
0.0
 20
0.0
 30
0.0
210
0.0
220
0.0
230
1.0
  2
SOLID
 70
     1
 71
     0
 91
        1
 92
        1
 93
       12
 72
     3
 10
61.26021189747
 20
160.1899964062852
 11
7.631686419459711
 21
-2.594457560159784
 40
0.1736481776667988
 50
297.4400307100029
 51
335.5191861774458
 73
     1
 72
     2
 10
25.95732373187735
 20
183.2805362325576
 40
45.29453135256246
 50
326.114506570239
 51
327.0919298214774
 73
     1
 72
     3
 10
61.09056509824224
 20
159.9326820828984
 11
5.391771890600282
 21
-5.991881467132967
 40
0.173648177666801
 50
24.48081382255453
 51
62.5599692899967
 73
     1
 72
     3
 10
61.05816623061727
 20
160.0904720629993
 11
2.594457560159867
 21
7.631686419459933
 40
0.1736481776668087
 50
297.4400307100054
 51
334.130299163667
 73
     1
 72
     1
 10
63.18048745866886
 20
162.239211401216
 11
61.86195702851632
 21
162.239211401216
 72
     3
 10
61.31548055400401
 20
159.920825263771
 11
5.9918814671336
 21
5.391771890601001
 40
0.1736481776668221
 50
34.75433308719103
 51
62.55996928998331
 73
     1
 72
     3
 10
61.15769057390433
 20
159.888426396145
 11
-7.631686419463317
 21
2.59445756016129
 40
0.1736481776668683
 50
297.4400307100372
 51
335.5191861774393
 73
     1
 72
     2
 10
96.46057873949293
 20
136.7978865698763
 40
45.29453135255901
 50
146.1145065702389
 51
147.0919298214773
 73
     1
 72
     3
 10
61.32733737313299
 20
160.1457407195332
 11
-5.391771890602952
 21
5.991881467135512
 40
0.1736481776668754
 50
24.4808138225599
 51
62.55996928996025
 73
     1
 72
     3
 10
61.35973624075586
 20
159.9879507394326
 11
-2.594457560159755
 21
-7.631686419459693
 40
0.1736481776668152
 50
297.4400307100022
 51
335.5191861774454
 73
     1
 72
     2
 10
84.45027606702901
 20
195.2908389050265
 40
45.29453135256396
 50
236.114506570239
 51
237.0919298214772
 73
     1
 72
     3
 10
61.10242191736898
 20
160.1575975386604
 11
-5.991881467132955
 21
-5.39177189060034
 40
0.1736481776668049
 50
24.48081382255498
 51
62.55996928999582
 73
     1
 97
        0
 75
     0
 76
     1
 98
        0
  0
HATCH
  5
76
330
6F
100
AcDbEntity
  8
DV1_Füllung
  6
Continuous
 62
     7
100
AcDbHatch
 10
0.0
 20
0.0
 30
0.0
210
0.0
220
0.0
230
1.0
  2
SOLID
 70
     1
 71
     0
 91
        1
 92
        1
 93
        4
 72
     3
 10
61.31548055400401
 20
159.920825263771
 11
5.9918814671336
 21
5.391771890601001
 40
0.1736481776668221
 50
24.48081382255496
 51
34.75433308719103
 73
     1
 72
     1
 10
61.86195702851634
 20
162.239211401216
 11
63.18048745866886
 21
162.239211401216
 72
     3
 10
61.05816623061727
 20
160.0904720629993
 11
2.594457560159867
 21
7.631686419459933
 40
0.1736481776668087
 50
334.130299163667
 51
335.5191861774457
 73
     1
 72
     2
 10
37.96762640434102
 20
124.7875838974007
 40
45.29453135256971
 50
56.1145065702391
 51
57.09192982147723
 73
     1
 97
        0
 75
     0
 76
     1
 98
        0
  0
HATCH
  5
77
330
6F
100
AcDbEntity
  8
DV1_Füllung
  6
Continuous
 62
     7
100
AcDbHatch
 10
0.0
 20
0.0
 30
0.0
210
0.0
220
0.0
230
1.0
  2
SOLID
 70
     1
 71
     0
 91
        1
 92
        1
 93
        5
 72
     2
 10
61.20895123568659
 20
160.039211401216
 40
3.5
 50
76.2708673245873
 51
103.7291326754128
 73
     1
 72
     2
 10
61.20895123568659
 20
160.039211401216
 40
3.5
 50
103.7291326754128
 51
141.0551964059042
 73
     1
 72
     2
 10
61.20895123568659
 20
160.039211401216
 40
3.5
 50
141.0551964059042
 51
360.0
 73
     1
 72
     2
 10
61.20895123568659
 20
160.039211401216
 40
3.5
 50
0.0
 51
38.94480359409584
 73
     1
 72
     2
 10
61.20895123568659
 20
160.039211401216
 40
3.5
 50
38.94480359409584
 51
76.2708673245873
 73
     1
 97
        0
 75
     0
 76
     1
 98
        0
  0
HATCH
  5
78
330
6F
100
AcDbEntity
  8
DV1_Füllung
  6
Continuous
 62
     7
100
AcDbHatch
 10
0.0
 20
0.0
 30
0.0
210
0.0
220
0.0
230
1.0
  2
SOLID
 70
     1
 71
     0
 91
        1
 92
        1
 93
        3
 72
     2
 10
61.20895123568659
 20
160.039211401216
 40
3.5
 50
76.2708673245873
 51
103.7291326754128
 73
     1
 72
     2
 10
61.20895123568659
 20
160.039211401216
 40
3.5
 50
103.7291326754128
 51
360.0
 73
     1
 72
     2
 10
61.20895123568659
 20
160.039211401216
 40
3.5
 50
0.0
 51
76.2708673245873
 73
     1
 97
        0
 75
     0
 76
     1
 98
        0
  0
HATCH
  5
79
330
6F
100
AcDbEntity
  8
DV1_Füllung
  6
Continuous
 62
     7
100
AcDbHatch
 10
0.0
 20
0.0
 30
0.0
210
0.0
220
0.0
230
1.0
  2
SOLID
 70
     1
 71
     0
 91
        1
 92
        1
 93
        6
 72
     2
 10
61.20895123568659
 20
160.039211401216
 40
3.5
 50
0.0
 51
38.94480359409584
 73
     1
 72
     2
 10
61.20895123568659
 20
160.039211401216
 40
3.5
 50
38.94480359409584
 51
141.0551964059042
 73
     1
 72
     2
 10
61.20895123568659
 20
160.039211401216
 40
3.5
 50
141.0551964059042
 51
146.6032181958576
 73
     1
 72
     2
 10
61.20895123568659
 20
160.039211401216
 40
3.5
 50
146.6032181958576
 51
236.6032181958579
 73
     1
 72
     2
 10
61.20895123568659
 20
160.039211401216
 40
3.5
 50
236.6032181958579
 51
326.6032181958581
 73
     1
 72
     2
 10
61.20895123568659
 20
160.039211401216
 40
3.5
 50
326.6032181958581
 51
360.0
 73
     1
 97
        0
 75
     0
 76
     1
 98
        0
  0
LINE
  5
7B
330
6F
100
AcDbEntity
  8
DV1_Auto_-_Hide
  6
Continuous
 62
     7
100
AcDbLine
 10
62.6690131042
 20
156.8571462094
 30
0.0
 11
62.6721135663
 21
156.8597215059
 31
0.0
  0
LINE
  5
7C
330
6F
100
AcDbEntity
  8
DV1_Auto_-_Hide
  6
Continuous
 62
     7
100
AcDbLine
 10
57.6612181112
 20
159.2702874744
 30
0.0
 11
57.7944591805
 21
159.2702874744
 31
0.0
  0
HATCH
  5
7D
330
6F
100
AcDbEntity
  8
DV1_Füllung
  6
Continuous
 62
     7
100
AcDbHatch
 10
0.0
 20
0.0
 30
0.0
210
0.0
220
0.0
230
1.0
  2
SOLID
 70
     1
 71
     0
 91
        2
 92
        1
 93
       21
 72
     2
 10
53.64871811117444
 20
158.783287474451
 40
0.1999999999999997
 50
90.0000000000977
 51
180.0
 73
     0
 72
     1
 10
53.44871811117444
 20
158.783287474451
 11
53.44871811117444
 21
159.7592243718569
 72
     2
 10
51.94871811117444
 20
159.7592243718569
 40
1.500000000000001
 50
0.0
 51
90.0
 73
     1
 72
     1
 10
51.94871811117444
 20
161.2592243718569
 11
44.86540534746369
 21
161.2592243718569
 72
     2
 10
44.86540534746369
 20
159.7592243718569
 40
1.5
 50
90.0
 51
180.0
 73
     1
 72
     1
 10
43.36540534746369
 20
159.7592243718569
 11
43.36540534746369
 21
158.2133772940982
 72
     2
 10
47.07134212379086
 20
158.5185699734147
 40
3.718482212091726
 50
184.7078197805276
 51
271.9876200961328
 73
     1
 72
     2
 10
47.09715653892496
 20
181.8754784593648
 40
27.07334997699044
 50
270.2183108080846
 51
283.5726553939202
 73
     1
 72
     2
 10
53.27467331487538
 20
156.2872577221979
 40
0.750000000000001
 50
283.57265539392
 51
426.8131240211554
 73
     1
 72
     2
 10
53.64871811117444
 20
157.1605219951197
 40
0.1999999999999988
 50
113.1868759788447
 51
180.0
 73
     0
 72
     1
 10
53.44871811117444
 20
157.1605219951197
 11
53.44871811117444
 21
157.2962874744613
 72
     2
 10
53.64871811117444
 20
157.2962874744613
 40
0.1999999999999997
 50
180.0
 51
270.0
 73
     0
 72
     1
 10
53.64871811117444
 20
157.4962874744613
 11
55.20670585232924
 21
157.4962874744613
 72
     1
 10
55.20670585232923
 20
157.4962874744613
 11
55.20670585232923
 21
157.0398761368785
 72
     2
 10
55.40670585232924
 20
157.0398761368785
 40
0.1999999999999987
 50
180.0
 51
313.7500944589701
 73
     1
 72
     1
 10
55.54500870166623
 20
156.8954035724752
 11
56.51416012633474
 21
157.8231672902736
 72
     2
 10
56.30670585232923
 20
158.0398761368785
 40
0.3000000000000005
 50
313.7500944589702
 51
406.2499055410279
 73
     1
 72
     1
 10
56.51416012633475
 20
158.2565849834835
 11
55.54500870166623
 21
159.1843487012818
 72
     2
 10
55.40670585232924
 20
159.0398761368785
 40
0.2000000000000005
 50
46.24990554102696
 51
180.0
 73
     1
 72
     1
 10
55.20670585232924
 20
159.0398761368785
 11
55.20670585232923
 21
158.5832874744483
 72
     1
 10
55.20670585232923
 20
158.5832874744483
 11
53.64871811117409
 21
158.5832874744509
 97
        0
 92
        1
 93
       24
 72
     2
 10
51.9528353989818
 20
159.7592243718569
 40
0.6999999999999975
 50
0.0
 51
90.0
 73
     1
 72
     1
 10
51.9528353989818
 20
160.4592243718569
 11
44.89093542230348
 21
160.4592243718569
 72
     2
 10
44.89093542230348
 20
159.7592243718569
 40
0.700000000000001
 50
90.0
 51
180.0
 73
     1
 72
     1
 10
44.19093542230348
 20
159.7592243718569
 11
44.19093542230348
 21
158.2249382515797
 72
     2
 10
43.69100162231734
 20
158.2155985052472
 40
0.500021034787666
 50
358.9297266886863
 51
403.8898578654099
 73
     0
 72
     2
 10
44.12342108672281
 20
157.7996193603482
 40
0.1000000000000008
 50
136.1101421345975
 51
255.9750729934256
 73
     1
 72
     2
 10
43.97800958430599
 20
157.2174847220105
 40
0.5000210347876689
 50
284.0249270065728
 51
394.1972174163564
 73
     0
 72
     2
 10
44.47429170495456
 20
156.8802469736605
 40
0.100000000000001
 50
145.8027825836447
 51
269.3309687282042
 73
     1
 72
     2
 10
44.46728553945551
 20
156.2802668441289
 40
0.5000210347876611
 50
270.6690312717907
 51
368.2102565270574
 73
     0
 72
     2
 10
45.06115676846307
 20
156.1945801733761
 40
0.0999999999999992
 50
171.7897434729436
 51
289.7508893462768
 73
     1
 72
     2
 10
45.26392267292658
 20
155.6298579140532
 40
0.5000210347876651
 50
250.2491106537155
 51
354.8975689164095
 73
     0
 72
     2
 10
45.8615660021687
 20
155.6832217205429
 40
0.1000000022024414
 50
185.1024310836017
 51
302.8588835136575
 73
     1
 72
     2
 10
46.18712048650216
 20
155.179198385209
 40
0.500021034787664
 50
237.141116486339
 51
331.1701056899865
 73
     0
 72
     2
 10
46.76540789177247
 20
155.4975076032289
 40
0.1600828065666558
 50
208.8298943100006
 51
315.0392187366197
 73
     1
 72
     2
 10
47.23249118297154
 20
155.0310633081053
 40
0.5000210347876448
 50
224.9607812633865
 51
320.6401898852052
 73
     0
 72
     2
 10
47.69641461407468
 20
155.4115896439365
 40
0.1000000000000009
 50
219.3598101147873
 51
332.0079044293923
 73
     1
 72
     2
 10
48.22624059923017
 20
155.129969922252
 40
0.500021034787645
 50
207.9920955706204
 51
326.1543212710513
 73
     0
 72
     2
 10
48.7317248013342
 20
155.4516417696824
 40
0.1000000002525354
 50
205.5825862453584
 51
332.0079044293455
 73
     1
 72
     2
 10
49.26155078671255
 20
155.1700220478791
 40
0.5000210347876474
 50
207.9920955706398
 51
326.0637963298773
 73
     0
 72
     2
 10
49.76673169455826
 20
155.4920618676358
 40
0.1000000000580374
 50
205.3998942250927
 51
332.0079044293466
 73
     1
 72
     2
 10
50.29655767976487
 20
155.2104421459238
 40
0.5000210347876474
 50
207.9920955706426
 51
258.6687679010292
 73
     0
 72
     1
 10
50.19831322130762
 20
155.7007166217152
 11
52.08728725184766
 21
156.0792417945189
 72
     2
 10
51.9528353989818
 20
156.7662080959202
 40
0.6999999999999976
 50
281.0738496810351
 51
360.0
 73
     1
 72
     1
 10
52.65283539898179
 20
156.7662080959202
 11
52.65283539898179
 21
159.7592243718569
 97
        0
 75
     0
 76
     1
 98
        0
  0
HATCH
  5
7E
330
6F
100
AcDbEntity
  8
DV1_Füllung
  6
Continuous
 62
     7
100
AcDbHatch
 10
0.0
 20
0.0
 30
0.0
210
0.0
220
0.0
230
1.0
  2
SOLID
 70
     1
 71
     0
 91
        1
 92
        1
 93
       31
 72
     1
 10
56.42371811116817
 20
157.7365876102563
 11
56.42371811116817
 21
156.6616654744481
 72
     1
 10
56.42371811116817
 20
156.661665474448
 11
55.13671811116816
 21
156.659089474448
 72
     1
 10
55.13671811116816
 20
156.659089474448
 11
55.13671811116816
 21
157.352287474448
 72
     1
 10
55.13671811116816
 20
157.352287474448
 11
53.94871811116816
 21
157.352287474448
 72
     1
 10
53.94871811116816
 20
157.352287474448
 11
53.94871811116816
 21
156.6161400911243
 72
     2
 10
53.27467331487538
 20
156.2872577221979
 40
0.750000000000001
 50
333.9911592775589
 51
386.0088407224436
 73
     0
 72
     1
 10
53.94871811116816
 20
155.9583753532716
 11
53.94871811116816
 21
155.471288474448
 72
     1
 10
53.94871811116816
 20
155.471288474448
 11
61.13318296730895
 21
155.471288474448
 72
     2
 10
61.13318296730895
 20
159.8856034744481
 40
4.414315000000001
 50
270.0
 51
354.1961165579995
 73
     1
 72
     1
 10
65.52486955765458
 20
159.4392114814606
 11
66.8370421985806
 21
159.4392114814606
 72
     2
 10
68.82100419858061
 20
159.4392114088887
 40
1.983962000000004
 50
179.9999979041631
 51
315.000020420879
 73
     1
 72
     1
 10
70.22387768239712
 20
158.0363389250726
 11
68.82100419858061
 21
159.4392114088888
 72
     1
 10
68.82100419858061
 20
159.4392114088888
 11
70.22387668239678
 21
160.8420848927052
 72
     2
 10
68.82100419858061
 20
159.4392114088887
 40
1.983962000000008
 50
45.00002042087871
 51
143.1301072073761
 73
     1
 72
     1
 10
67.23383449775011
 20
160.629588474448
 11
65.08520611116843
 21
160.629588474448
 72
     2
 10
65.08520611116843
 20
159.901471474448
 40
0.7281169999999935
 50
90.0
 51
124.02124743768
 73
     1
 72
     2
 10
61.20895123568659
 20
160.039211401216
 40
3.5
 50
352.3529614035734
 51
360.0
 73
     0
 72
     2
 10
61.20895123568659
 20
160.039211401216
 40
3.5
 50
0.0
 51
105.2007369779932
 73
     0
 72
     1
 10
60.291245666033
 20
156.661665474448
 11
57.66121811116817
 21
156.661665474448
 72
     1
 10
57.66121811116817
 20
156.661665474448
 11
57.66121811116817
 21
160.520287474448
 72
     1
 10
57.66121811116817
 20
160.5202874744481
 11
53.94871811116818
 21
160.5202874744481
 72
     1
 10
53.94871811116817
 20
160.5202874744481
 11
53.94871811116816
 21
158.6392874744481
 72
     1
 10
53.94871811116816
 20
158.6392874744481
 11
55.13671811116816
 21
158.6392874744481
 72
     1
 10
55.13671811116816
 20
158.6392874744481
 11
55.13671811116816
 21
159.2332874744481
 72
     1
 10
55.13671811116816
 20
159.2332874744481
 11
55.35579362885031
 21
159.233287474448
 72
     2
 10
55.40670585232924
 20
159.0398761368785
 40
0.2000000000000005
 50
255.252419140646
 51
284.74758085935
 73
     0
 72
     1
 10
55.45761807580815
 20
159.2332874744481
 11
56.42371811116816
 21
159.233287474448
 72
     1
 10
56.42371811116816
 20
159.233287474448
 11
56.42371811116817
 21
158.3431646635008
 72
     1
 10
56.42371811116817
 20
158.3431646635008
 11
56.51416012633474
 21
158.2565849834835
 72
     2
 10
56.30670585232923
 20
158.0398761368785
 40
0.3000000000000005
 50
313.7500944589721
 51
406.2499055410299
 73
     0
 72
     1
 10
56.51416012633474
 20
157.8231672902736
 11
56.42371811116816
 21
157.7365876102563
 97
        0
 75
     0
 76
     1
 98
        0
  0
LINE
  5
80
330
6F
100
AcDbEntity
  8
10450_SCHIEBER_0
  6
Continuous
 62
     7
100
AcDbLine
 10
64.3089512357
 20
162.2392114012
 30
0.0
 11
64.3089512357
 21
161.6640190821
 31
0.0
  0
LINE
  5
81
330
6F
100
AcDbEntity
  8
10450_SCHIEBER_0
  6
Continuous
 62
     7
100
AcDbLine
 10
58.1089512357
 20
161.6640190821
 30
0.0
 11
58.1089512357
 21
162.2392114012
 31
0.0
  0
LINE
  5
82
330
6F
100
AcDbEntity
  8
10450_SCHIEBER_0
  6
Continuous
 62
     7
100
AcDbLine
 10
56.8589512357
 20
163.4392114012
 30
0.0
 11
56.8589512357
 21
164.4392114012
 31
0.0
  0
LINE
  5
83
330
6F
100
AcDbEntity
  8
10450_SCHIEBER_0
  6
Continuous
 62
     7
100
AcDbLine
 10
56.8589512357
 20
164.4392114012
 30
0.0
 11
60.2089512357
 21
164.4392114012
 31
0.0
  0
LINE
  5
84
330
6F
100
AcDbEntity
  8
10450_SCHIEBER_0
  6
Continuous
 62
     7
100
AcDbLine
 10
60.2089512357
 20
164.4392114012
 30
0.0
 11
60.2089512357
 21
164.7392114012
 31
0.0
  0
LINE
  5
85
330
6F
100
AcDbEntity
  8
10450_SCHIEBER_0
  6
Continuous
 62
     7
100
AcDbLine
 10
60.2089512357
 20
164.7392114012
 30
0.0
 11
62.2089512357
 21
164.7392114012
 31
0.0
  0
LINE
  5
86
330
6F
100
AcDbEntity
  8
10450_SCHIEBER_0
  6
Continuous
 62
     7
100
AcDbLine
 10
62.2089512357
 20
164.7392114012
 30
0.0
 11
62.2089512357
 21
164.4392114012
 31
0.0
  0
LINE
  5
87
330
6F
100
AcDbEntity
  8
10450_SCHIEBER_0
  6
Continuous
 62
     7
100
AcDbLine
 10
62.2089512357
 20
164.4392114012
 30
0.0
 11
65.5589512357
 21
164.4392114012
 31
0.0
  0
LINE
  5
88
330
6F
100
AcDbEntity
  8
10450_SCHIEBER_0
  6
Continuous
 62
     7
100
AcDbLine
 10
65.5589512357
 20
164.4392114012
 30
0.0
 11
65.5589512357
 21
163.4392114012
 31
0.0
  0
CIRCLE
  5
8A
330
6F
100
AcDbEntity
  8
20867_LINSENSENK
  6
Continuous
 62
     7
100
AcDbCircle
 10
61.2089512357
 20
160.0392114012
 30
0.0
 40
3.5
  0
ARC
  5
8B
330
6F
100
AcDbEntity
  8
20867_LINSENSENK
  6
Continuous
 62
     7
100
AcDbCircle
 10
37.9676264043
 20
124.7875838974
 30
0.0
 40
45.29453135256971
100
AcDbArc
 50
56.1145065702
 51
57.0919298215
  0
ELLIPSE
  5
8C
330
6F
100
AcDbEntity
  8
20867_LINSENSENK
  6
Continuous
 62
     7
100
AcDbEllipse
 10
61.315480554
 20
159.9208252638
 30
0.0
 11
5.9918814671336
 21
5.391771890601001
 31
0.0
210
0.0
220
0.0
230
1.0
 40
0.1736481777
 41
1.20644877571622
 42
1.480874836048953
  0
ELLIPSE
  5
8D
330
6F
100
AcDbEntity
  8
20867_LINSENSENK
  6
Continuous
 62
     7
100
AcDbEllipse
 10
61.1576905739
 20
159.8884263961
 30
0.0
 11
-7.631686419463317
 21
2.59445756016129
 31
0.0
210
0.0
220
0.0
230
1.0
 40
0.1736481777
 41
-1.480874836048851
 42
-1.206448775716218
  0
ARC
  5
8E
330
6F
100
AcDbEntity
  8
20867_LINSENSENK
  6
Continuous
 62
     7
100
AcDbCircle
 10
96.4605787395
 20
136.7978865699
 30
0.0
 40
45.29453135255901
100
AcDbArc
 50
146.1145065702
 51
147.0919298215
  0
ELLIPSE
  5
8F
330
6F
100
AcDbEntity
  8
20867_LINSENSENK
  6
Continuous
 62
     7
100
AcDbEllipse
 10
61.3273373731
 20
160.1457407195
 30
0.0
 11
-5.391771890602953
 21
5.991881467135515
 31
0.0
210
0.0
220
0.0
230
1.0
 40
0.1736481777
 41
1.206448775716193
 42
1.480874836048838
  0
ELLIPSE
  5
90
330
6F
100
AcDbEntity
  8
20867_LINSENSENK
  6
Continuous
 62
     7
100
AcDbEllipse
 10
61.3597362408
 20
159.9879507394
 30
0.0
 11
-2.594457560159755
 21
-7.631686419459693
 31
0.0
210
0.0
220
0.0
230
1.0
 40
0.1736481777
 41
-1.480874836049011
 42
-1.206448775716227
  0
ARC
  5
91
330
6F
100
AcDbEntity
  8
20867_LINSENSENK
  6
Continuous
 62
     7
100
AcDbCircle
 10
84.450276067
 20
195.290838905
 30
0.0
 40
45.29453135256396
100
AcDbArc
 50
236.1145065702
 51
237.0919298215
  0
ELLIPSE
  5
92
330
6F
100
AcDbEntity
  8
20867_LINSENSENK
  6
Continuous
 62
     7
100
AcDbEllipse
 10
61.1024219174
 20
160.1575975387
 30
0.0
 11
-5.991881467132955
 21
-5.39177189060034
 31
0.0
210
0.0
220
0.0
230
1.0
 40
0.1736481777
 41
1.206448775716253
 42
1.48087483604901
  0
ELLIPSE
  5
93
330
6F
100
AcDbEntity
  8
20867_LINSENSENK
  6
Continuous
 62
     7
100
AcDbEllipse
 10
61.2602118975
 20
160.1899964063
 30
0.0
 11
7.631686419459712
 21
-2.594457560159784
 31
0.0
210
0.0
220
0.0
230
1.0
 40
0.1736481777
 41
-1.480874836049018
 42
-1.206448775716252
  0
ARC
  5
94
330
6F
100
AcDbEntity
  8
20867_LINSENSENK
  6
Continuous
 62
     7
100
AcDbCircle
 10
25.9573237319
 20
183.2805362326
 30
0.0
 40
45.29453135256246
100
AcDbArc
 50
326.1145065702
 51
327.0919298215
  0
ELLIPSE
  5
95
330
6F
100
AcDbEntity
  8
20867_LINSENSENK
  6
Continuous
 62
     7
100
AcDbEllipse
 10
61.0905650982
 20
159.9326820829
 30
0.0
 11
5.391771890600284
 21
-5.99188146713297
 31
0.0
210
0.0
220
0.0
230
1.0
 40
0.1736481777
 41
1.206448775716254
 42
1.480874836049015
  0
ELLIPSE
  5
96
330
6F
100
AcDbEntity
  8
20867_LINSENSENK
  6
Continuous
 62
     7
100
AcDbEllipse
 10
61.0581662306
 20
160.090472063
 30
0.0
 11
2.594457560159866
 21
7.631686419459932
 31
0.0
210
0.0
220
0.0
230
1.0
 40
0.1736481777
 41
-1.480874836049002
 42
-1.206448775716234
  0
LINE
  5
98
330
6F
100
AcDbEntity
  8
20869_LINSENSENK
  6
Continuous
 62
     7
100
AcDbLine
 10
56.4237181112
 20
159.2332874744
 30
0.0
 11
56.4237181112
 21
158.3431646635
 31
0.0
  0
LINE
  5
99
330
6F
100
AcDbEntity
  8
20869_LINSENSENK
  6
Continuous
 62
     7
100
AcDbLine
 10
56.4237181112
 20
157.7365876103
 30
0.0
 11
56.4237181112
 21
156.6616654744
 31
0.0
  0
LINE
  5
9A
330
6F
100
AcDbEntity
  8
20869_LINSENSENK
  6
Continuous
 62
     7
100
AcDbLine
 10
55.1367181112
 20
159.2332874744
 30
0.0
 11
55.3557936289
 21
159.2332874744
 31
0.0
  0
LINE
  5
9B
330
6F
100
AcDbEntity
  8
20869_LINSENSENK
  6
Continuous
 62
     7
100
AcDbLine
 10
55.4576180758
 20
159.2332874744
 30
0.0
 11
56.4237181112
 21
159.2332874744
 31
0.0
  0
LINE
  5
9C
330
6F
100
AcDbEntity
  8
20869_LINSENSENK
  6
Continuous
 62
     7
100
AcDbLine
 10
55.1367181112
 20
158.6392874744
 30
0.0
 11
55.1367181112
 21
159.2332874744
 31
0.0
  0
LINE
  5
9D
330
6F
100
AcDbEntity
  8
20869_LINSENSENK
  6
Continuous
 62
     7
100
AcDbLine
 10
53.9487181112
 20
158.6392874744
 30
0.0
 11
55.1367181112
 21
158.6392874744
 31
0.0
  0
LINE
  5
9E
330
6F
100
AcDbEntity
  8
20869_LINSENSENK
  6
Continuous
 62
     7
100
AcDbLine
 10
53.9487181112
 20
160.5202874744
 30
0.0
 11
53.9487181112
 21
158.6392874744
 31
0.0
  0
LINE
  5
9F
330
6F
100
AcDbEntity
  8
20869_LINSENSENK
  6
Continuous
 62
     7
100
AcDbLine
 10
57.6612181112
 20
160.5202874744
 30
0.0
 11
53.9487181112
 21
160.5202874744
 31
0.0
  0
LINE
  5
A0
330
6F
100
AcDbEntity
  8
20869_LINSENSENK
  6
Continuous
 62
     7
100
AcDbLine
 10
57.6612181112
 20
156.6616654744
 30
0.0
 11
57.6612181112
 21
160.5202874744
 31
0.0
  0
LINE
  5
A1
330
6F
100
AcDbEntity
  8
20869_LINSENSENK
  6
Continuous
 62
     7
100
AcDbLine
 10
60.291245666
 20
156.6616654744
 30
0.0
 11
57.6612181112
 21
156.6616654744
 31
0.0
  0
ARC
  5
A2
330
6F
100
AcDbEntity
  8
20869_LINSENSENK
  6
Continuous
 62
     7
100
AcDbCircle
 10
65.0852061112
 20
159.9014714744
 30
0.0
 40
0.7281169999999935
100
AcDbArc
 50
90.0
 51
124.0212474377
  0
LINE
  5
A3
330
6F
100
AcDbEntity
  8
20869_LINSENSENK
  6
Continuous
 62
     7
100
AcDbLine
 10
67.2338344978
 20
160.6295884744
 30
0.0
 11
65.0852061112
 21
160.6295884744
 31
0.0
  0
ARC
  5
A4
330
6F
100
AcDbEntity
  8
20869_LINSENSENK
  6
Continuous
 62
     7
100
AcDbCircle
 10
68.8210041986
 20
159.4392114089
 30
0.0
 40
1.983962000000008
100
AcDbArc
 50
45.0000204209
 51
143.1301072074
  0
LINE
  5
A5
330
6F
100
AcDbEntity
  8
20869_LINSENSENK
  6
Continuous
 62
     7
100
AcDbLine
 10
68.8210041986
 20
159.4392114089
 30
0.0
 11
70.2238766824
 21
160.8420848927
 31
0.0
  0
LINE
  5
A6
330
6F
100
AcDbEntity
  8
20869_LINSENSENK
  6
Continuous
 62
     7
100
AcDbLine
 10
70.2238776824
 20
158.0363389251
 30
0.0
 11
68.8210041986
 21
159.4392114089
 31
0.0
  0
ARC
  5
A7
330
6F
100
AcDbEntity
  8
20869_LINSENSENK
  6
Continuous
 62
     7
100
AcDbCircle
 10
68.8210041986
 20
159.4392114089
 30
0.0
 40
1.983962000000004
100
AcDbArc
 50
179.9999979042
 51
315.0000204209
  0
LINE
  5
A8
330
6F
100
AcDbEntity
  8
20869_LINSENSENK
  6
Continuous
 62
     7
100
AcDbLine
 10
65.5248695577
 20
159.4392114815
 30
0.0
 11
66.8370421986
 21
159.4392114815
 31
0.0
  0
ARC
  5
A9
330
6F
100
AcDbEntity
  8
20869_LINSENSENK
  6
Continuous
 62
     7
100
AcDbCircle
 10
61.1331829673
 20
159.8856034744
 30
0.0
 40
4.414315000000001
100
AcDbArc
 50
270.0
 51
354.196116558
  0
LINE
  5
AA
330
6F
100
AcDbEntity
  8
20869_LINSENSENK
  6
Continuous
 62
     7
100
AcDbLine
 10
53.9487181112
 20
155.4712884744
 30
0.0
 11
61.1331829673
 21
155.4712884744
 31
0.0
  0
LINE
  5
AB
330
6F
100
AcDbEntity
  8
20869_LINSENSENK
  6
Continuous
 62
     7
100
AcDbLine
 10
53.9487181112
 20
157.3522874744
 30
0.0
 11
53.9487181112
 21
156.6161400911
 31
0.0
  0
LINE
  5
AC
330
6F
100
AcDbEntity
  8
20869_LINSENSENK
  6
Continuous
 62
     7
100
AcDbLine
 10
53.9487181112
 20
155.9583753533
 30
0.0
 11
53.9487181112
 21
155.4712884744
 31
0.0
  0
LINE
  5
AD
330
6F
100
AcDbEntity
  8
20869_LINSENSENK
  6
Continuous
 62
     7
100
AcDbLine
 10
55.1367181112
 20
157.3522874744
 30
0.0
 11
53.9487181112
 21
157.3522874744
 31
0.0
  0
LINE
  5
AE
330
6F
100
AcDbEntity
  8
20869_LINSENSENK
  6
Continuous
 62
     7
100
AcDbLine
 10
55.1367181112
 20
156.6590894744
 30
0.0
 11
55.1367181112
 21
157.3522874744
 31
0.0
  0
LINE
  5
AF
330
6F
100
AcDbEntity
  8
20869_LINSENSENK
  6
Continuous
 62
     7
100
AcDbLine
 10
56.4237181112
 20
156.6616654744
 30
0.0
 11
55.1367181112
 21
156.6590894744
 31
0.0
  0
LINE
  5
B1
330
6F
100
AcDbEntity
  8
37471__DICHTPROFI
  6
Continuous
 62
     7
100
AcDbLine
 10
50.1983132213
 20
155.7007166217
 30
0.0
 11
52.0872872518
 21
156.0792417945
 31
0.0
  0
ARC
  5
B2
330
6F
100
AcDbEntity
  8
37471__DICHTPROFI
  6
Continuous
 62
     7
100
AcDbCircle
 10
51.952835399
 20
156.7662080959
 30
0.0
 40
0.6999999999999976
100
AcDbArc
 50
281.073849681
 51
0.0
  0
LINE
  5
B3
330
6F
100
AcDbEntity
  8
37471__DICHTPROFI
  6
Continuous
 62
     7
100
AcDbLine
 10
52.652835399
 20
156.7662080959
 30
0.0
 11
52.652835399
 21
159.7592243719
 31
0.0
  0
ARC
  5
B4
330
6F
100
AcDbEntity
  8
37471__DICHTPROFI
  6
Continuous
 62
     7
100
AcDbCircle
 10
51.952835399
 20
159.7592243719
 30
0.0
 40
0.6999999999999975
100
AcDbArc
 50
0.0
 51
90.0
  0
LINE
  5
B5
330
6F
100
AcDbEntity
  8
37471__DICHTPROFI
  6
Continuous
 62
     7
100
AcDbLine
 10
51.952835399
 20
160.4592243719
 30
0.0
 11
44.8909354223
 21
160.4592243719
 31
0.0
  0
ARC
  5
B6
330
6F
100
AcDbEntity
  8
37471__DICHTPROFI
  6
Continuous
 62
     7
100
AcDbCircle
 10
44.8909354223
 20
159.7592243719
 30
0.0
 40
0.700000000000001
100
AcDbArc
 50
90.0
 51
180.0
  0
LINE
  5
B7
330
6F
100
AcDbEntity
  8
37471__DICHTPROFI
  6
Continuous
 62
     7
100
AcDbLine
 10
44.1909354223
 20
159.7592243719
 30
0.0
 11
44.1909354223
 21
158.2249382516
 31
0.0
  0
ARC
  5
B8
330
6F
100
AcDbEntity
  8
37471__DICHTPROFI
  6
Continuous
 62
     7
100
AcDbCircle
 10
43.6910016223
 20
158.2155985052
 30
0.0
 40
0.500021034787666
100
AcDbArc
 50
316.1101421346
 51
1.0702733113
  0
ARC
  5
B9
330
6F
100
AcDbEntity
  8
37471__DICHTPROFI
  6
Continuous
 62
     7
100
AcDbCircle
 10
44.1234210867
 20
157.7996193603
 30
0.0
 40
0.1000000000000008
100
AcDbArc
 50
136.1101421346
 51
255.9750729934
  0
ARC
  5
BA
330
6F
100
AcDbEntity
  8
37471__DICHTPROFI
  6
Continuous
 62
     7
100
AcDbCircle
 10
43.9780095843
 20
157.217484722
 30
0.0
 40
0.5000210347876689
100
AcDbArc
 50
325.8027825836
 51
75.9750729934
  0
ARC
  5
BB
330
6F
100
AcDbEntity
  8
37471__DICHTPROFI
  6
Continuous
 62
     7
100
AcDbCircle
 10
44.474291705
 20
156.8802469737
 30
0.0
 40
0.100000000000001
100
AcDbArc
 50
145.8027825836
 51
269.3309687282
  0
ARC
  5
BC
330
6F
100
AcDbEntity
  8
37471__DICHTPROFI
  6
Continuous
 62
     7
100
AcDbCircle
 10
44.4672855395
 20
156.2802668441
 30
0.0
 40
0.5000210347876611
100
AcDbArc
 50
351.7897434729
 51
89.3309687282
  0
ARC
  5
BD
330
6F
100
AcDbEntity
  8
37471__DICHTPROFI
  6
Continuous
 62
     7
100
AcDbCircle
 10
45.0611567685
 20
156.1945801734
 30
0.0
 40
0.0999999999999992
100
AcDbArc
 50
171.7897434729
 51
289.7508893463
  0
ARC
  5
BE
330
6F
100
AcDbEntity
  8
37471__DICHTPROFI
  6
Continuous
 62
     7
100
AcDbCircle
 10
45.2639226729
 20
155.6298579141
 30
0.0
 40
0.5000210347876651
100
AcDbArc
 50
5.1024310836
 51
109.7508893463
  0
ARC
  5
BF
330
6F
100
AcDbEntity
  8
37471__DICHTPROFI
  6
Continuous
 62
     7
100
AcDbCircle
 10
45.8615660022
 20
155.6832217205
 30
0.0
 40
0.1000000022024414
100
AcDbArc
 50
185.1024310836
 51
302.8588835137
  0
ARC
  5
C0
330
6F
100
AcDbEntity
  8
37471__DICHTPROFI
  6
Continuous
 62
     7
100
AcDbCircle
 10
46.1871204865
 20
155.1791983852
 30
0.0
 40
0.500021034787664
100
AcDbArc
 50
28.82989431
 51
122.8588835137
  0
ARC
  5
C1
330
6F
100
AcDbEntity
  8
37471__DICHTPROFI
  6
Continuous
 62
     7
100
AcDbCircle
 10
46.7654078918
 20
155.4975076032
 30
0.0
 40
0.1600828065666558
100
AcDbArc
 50
208.82989431
 51
315.0392187366
  0
ARC
  5
C2
330
6F
100
AcDbEntity
  8
37471__DICHTPROFI
  6
Continuous
 62
     7
100
AcDbCircle
 10
47.232491183
 20
155.0310633081
 30
0.0
 40
0.5000210347876448
100
AcDbArc
 50
39.3598101148
 51
135.0392187366
  0
ARC
  5
C3
330
6F
100
AcDbEntity
  8
37471__DICHTPROFI
  6
Continuous
 62
     7
100
AcDbCircle
 10
47.6964146141
 20
155.4115896439
 30
0.0
 40
0.1000000000000009
100
AcDbArc
 50
219.3598101148
 51
332.0079044294
  0
ARC
  5
C4
330
6F
100
AcDbEntity
  8
37471__DICHTPROFI
  6
Continuous
 62
     7
100
AcDbCircle
 10
48.2262405992
 20
155.1299699223
 30
0.0
 40
0.500021034787645
100
AcDbArc
 50
33.8456787289
 51
152.0079044294
  0
ARC
  5
C5
330
6F
100
AcDbEntity
  8
37471__DICHTPROFI
  6
Continuous
 62
     7
100
AcDbCircle
 10
48.7317248013
 20
155.4516417697
 30
0.0
 40
0.1000000002525354
100
AcDbArc
 50
205.5825862454
 51
332.0079044293
  0
ARC
  5
C6
330
6F
100
AcDbEntity
  8
37471__DICHTPROFI
  6
Continuous
 62
     7
100
AcDbCircle
 10
49.2615507867
 20
155.1700220479
 30
0.0
 40
0.5000210347876474
100
AcDbArc
 50
33.9362036701
 51
152.0079044294
  0
ARC
  5
C7
330
6F
100
AcDbEntity
  8
37471__DICHTPROFI
  6
Continuous
 62
     7
100
AcDbCircle
 10
49.7667316946
 20
155.4920618676
 30
0.0
 40
0.1000000000580374
100
AcDbArc
 50
205.3998942251
 51
332.0079044293
  0
ARC
  5
C8
330
6F
100
AcDbEntity
  8
37471__DICHTPROFI
  6
Continuous
 62
     7
100
AcDbCircle
 10
50.2965576798
 20
155.2104421459
 30
0.0
 40
0.5000210347876474
100
AcDbArc
 50
101.331232099
 51
152.0079044294
  0
ARC
  5
C9
330
6F
100
AcDbEntity
  8
37471__DICHTPROFI
  6
Continuous
 62
     7
100
AcDbCircle
 10
53.2746733149
 20
156.2872577222
 30
0.0
 40
0.750000000000001
100
AcDbArc
 50
283.5726553939
 51
66.8131240212
  0
ARC
  5
CA
330
6F
100
AcDbEntity
  8
37471__DICHTPROFI
  6
Continuous
 62
     7
100
AcDbCircle
 10
53.6487181112
 20
157.1605219951
 30
0.0
 40
0.1999999999999988
100
AcDbArc
 50
180.0
 51
246.8131240212
  0
LINE
  5
CB
330
6F
100
AcDbEntity
  8
37471__DICHTPROFI
  6
Continuous
 62
     7
100
AcDbLine
 10
53.4487181112
 20
157.2962874745
 30
0.0
 11
53.4487181112
 21
157.1605219951
 31
0.0
  0
ARC
  5
CC
330
6F
100
AcDbEntity
  8
37471__DICHTPROFI
  6
Continuous
 62
     7
100
AcDbCircle
 10
53.6487181112
 20
157.2962874745
 30
0.0
 40
0.1999999999999997
100
AcDbArc
 50
90.0
 51
180.0
  0
LINE
  5
CD
330
6F
100
AcDbEntity
  8
37471__DICHTPROFI
  6
Continuous
 62
     7
100
AcDbLine
 10
55.2067058523
 20
157.4962874745
 30
0.0
 11
53.6487181112
 21
157.4962874745
 31
0.0
  0
LINE
  5
CE
330
6F
100
AcDbEntity
  8
37471__DICHTPROFI
  6
Continuous
 62
     7
100
AcDbLine
 10
55.2067058523
 20
157.0398761369
 30
0.0
 11
55.2067058523
 21
157.4962874745
 31
0.0
  0
ARC
  5
CF
330
6F
100
AcDbEntity
  8
37471__DICHTPROFI
  6
Continuous
 62
     7
100
AcDbCircle
 10
55.4067058523
 20
157.0398761369
 30
0.0
 40
0.1999999999999987
100
AcDbArc
 50
180.0
 51
313.750094459
  0
LINE
  5
D0
330
6F
100
AcDbEntity
  8
37471__DICHTPROFI
  6
Continuous
 62
     7
100
AcDbLine
 10
56.5141601263
 20
157.8231672903
 30
0.0
 11
55.5450087017
 21
156.8954035725
 31
0.0
  0
ARC
  5
D1
330
6F
100
AcDbEntity
  8
37471__DICHTPROFI
  6
Continuous
 62
     7
100
AcDbCircle
 10
56.3067058523
 20
158.0398761369
 30
0.0
 40
0.3000000000000005
100
AcDbArc
 50
313.750094459
 51
46.249905541
  0
LINE
  5
D2
330
6F
100
AcDbEntity
  8
37471__DICHTPROFI
  6
Continuous
 62
     7
100
AcDbLine
 10
55.5450087017
 20
159.1843487013
 30
0.0
 11
56.5141601263
 21
158.2565849835
 31
0.0
  0
ARC
  5
D3
330
6F
100
AcDbEntity
  8
37471__DICHTPROFI
  6
Continuous
 62
     7
100
AcDbCircle
 10
55.4067058523
 20
159.0398761369
 30
0.0
 40
0.2000000000000005
100
AcDbArc
 50
46.249905541
 51
180.0
  0
LINE
  5
D4
330
6F
100
AcDbEntity
  8
37471__DICHTPROFI
  6
Continuous
 62
     7
100
AcDbLine
 10
55.2067058523
 20
158.5832874744
 30
0.0
 11
55.2067058523
 21
159.0398761369
 31
0.0
  0
LINE
  5
D5
330
6F
100
AcDbEntity
  8
37471__DICHTPROFI
  6
Continuous
 62
     7
100
AcDbLine
 10
53.6487181112
 20
158.5832874745
 30
0.0
 11
55.2067058523
 21
158.5832874744
 31
0.0
  0
ARC
  5
D6
330
6F
100
AcDbEntity
  8
37471__DICHTPROFI
  6
Continuous
 62
     7
100
AcDbCircle
 10
53.6487181112
 20
158.7832874745
 30
0.0
 40
0.1999999999999997
100
AcDbArc
 50
180.0
 51
269.9999999999
  0
LINE
  5
D7
330
6F
100
AcDbEntity
  8
37471__DICHTPROFI
  6
Continuous
 62
     7
100
AcDbLine
 10
53.4487181112
 20
159.7592243719
 30
0.0
 11
53.4487181112
 21
158.7832874745
 31
0.0
  0
ARC
  5
D8
330
6F
100
AcDbEntity
  8
37471__DICHTPROFI
  6
Continuous
 62
     7
100
AcDbCircle
 10
51.9487181112
 20
159.7592243719
 30
0.0
 40
1.500000000000001
100
AcDbArc
 50
0.0
 51
90.0
  0
LINE
  5
D9
330
6F
100
AcDbEntity
  8
37471__DICHTPROFI
  6
Continuous
 62
     7
100
AcDbLine
 10
44.8654053475
 20
161.2592243719
 30
0.0
 11
51.9487181112
 21
161.2592243719
 31
0.0
  0
ARC
  5
DA
330
6F
100
AcDbEntity
  8
37471__DICHTPROFI
  6
Continuous
 62
     7
100
AcDbCircle
 10
44.8654053475
 20
159.7592243719
 30
0.0
 40
1.5
100
AcDbArc
 50
90.0
 51
180.0
  0
LINE
  5
DB
330
6F
100
AcDbEntity
  8
37471__DICHTPROFI
  6
Continuous
 62
     7
100
AcDbLine
 10
43.3654053475
 20
158.2133772941
 30
0.0
 11
43.3654053475
 21
159.7592243719
 31
0.0
  0
ARC
  5
DC
330
6F
100
AcDbEntity
  8
37471__DICHTPROFI
  6
Continuous
 62
     7
100
AcDbCircle
 10
47.0713421238
 20
158.5185699734
 30
0.0
 40
3.718482212091726
100
AcDbArc
 50
184.7078197805
 51
271.9876200961
  0
ARC
  5
DD
330
6F
100
AcDbEntity
  8
37471__DICHTPROFI
  6
Continuous
 62
     7
100
AcDbCircle
 10
47.0971565389
 20
181.8754784594
 30
0.0
 40
27.07334997699044
100
AcDbArc
 50
270.2183108081
 51
283.5726553939
  0
LINE
  5
DF
330
6F
100
AcDbEntity
  8
37469__HALTEPROFI
  6
Continuous
 62
     7
100
AcDbLine
 10
66.7874425946
 20
160.8295888259
 30
0.0
 11
66.7874425946
 21
162.0392114012
 31
0.0
  0
ARC
  5
E0
330
6F
100
AcDbEntity
  8
37469__HALTEPROFI
  6
Continuous
 62
     7
100
AcDbCircle
 10
66.9874425946
 20
160.8295888259
 30
0.0
 40
0.1999999999999997
100
AcDbArc
 50
180.0
 51
270.0
  0
LINE
  5
E1
330
6F
100
AcDbEntity
  8
37469__HALTEPROFI
  6
Continuous
 62
     7
100
AcDbLine
 10
67.0729637588
 20
160.6295888259
 30
0.0
 11
66.9874425946
 21
160.6295888259
 31
0.0
  0
ARC
  5
E2
330
6F
100
AcDbEntity
  8
37469__HALTEPROFI
  6
Continuous
 62
     7
100
AcDbCircle
 10
67.0729637588
 20
160.8295888259
 30
0.0
 40
0.1999999999999998
100
AcDbArc
 50
270.0
 51
321.5015404547
  0
ARC
  5
E3
330
6F
100
AcDbEntity
  8
37469__HALTEPROFI
  6
Continuous
 62
     7
100
AcDbCircle
 10
68.8210041986
 20
159.4392114089
 30
0.0
 40
2.033561000000001
100
AcDbArc
 50
232.2604549007
 51
141.5015404547
  0
ARC
  5
E4
330
6F
100
AcDbEntity
  8
37469__HALTEPROFI
  6
Continuous
 62
     7
100
AcDbCircle
 10
67.4539018372
 20
157.672908526
 30
0.0
 40
0.2
100
AcDbArc
 50
52.2604549007
 51
125.0
  0
LINE
  5
E5
330
6F
100
AcDbEntity
  8
37469__HALTEPROFI
  6
Continuous
 62
     7
100
AcDbLine
 10
66.9150281351
 20
157.5397400153
 30
0.0
 11
67.3391865499
 21
157.8367389348
 31
0.0
  0
ARC
  5
E6
330
6F
100
AcDbEntity
  8
37469__HALTEPROFI
  6
Continuous
 62
     7
100
AcDbCircle
 10
67.0297434223
 20
157.3759096065
 30
0.0
 40
0.1999999999999976
100
AcDbArc
 50
125.0
 51
189.4261102054
  0
ARC
  5
E7
330
6F
100
AcDbEntity
  8
37469__HALTEPROFI
  6
Continuous
 62
     7
100
AcDbCircle
 10
69.6636920946
 20
157.8131902853
 30
0.0
 40
2.870000000000001
100
AcDbArc
 50
189.4261102054
 51
359.9152711822
  0
LINE
  5
E8
330
6F
100
AcDbEntity
  8
37469__HALTEPROFI
  6
Continuous
 62
     7
100
AcDbLine
 10
72.5399290421
 20
162.0286475473
 30
0.0
 11
72.5336889564
 21
157.8089461399
 31
0.0
  0
ARC
  5
E9
330
6F
100
AcDbEntity
  8
37469__HALTEPROFI
  6
Continuous
 62
     7
100
AcDbCircle
 10
69.6699415946
 20
162.0371358288
 30
0.0
 40
2.87
100
AcDbArc
 50
359.8305423645
 51
90.0
  0
LINE
  5
EA
330
6F
100
AcDbEntity
  8
37469__HALTEPROFI
  6
Continuous
 62
     7
100
AcDbLine
 10
69.2874425946
 20
164.9071358288
 30
0.0
 11
69.6699415946
 21
164.9071358288
 31
0.0
  0
ARC
  5
EB
330
6F
100
AcDbEntity
  8
37469__HALTEPROFI
  6
Continuous
 62
     7
100
AcDbCircle
 10
69.2874425946
 20
164.7071358288
 30
0.0
 40
0.1999999999999988
100
AcDbArc
 50
90.0
 51
180.0
  0
LINE
  5
EC
330
6F
100
AcDbEntity
  8
37469__HALTEPROFI
  6
Continuous
 62
     7
100
AcDbLine
 10
69.0874425946
 20
163.6392114012
 30
0.0
 11
69.0874425946
 21
164.7071358288
 31
0.0
  0
ARC
  5
ED
330
6F
100
AcDbEntity
  8
37469__HALTEPROFI
  6
Continuous
 62
     7
100
AcDbCircle
 10
68.8874425946
 20
163.6392114012
 30
0.0
 40
0.2000000000000003
100
AcDbArc
 50
270.0
 51
0.0
  0
LINE
  5
EE
330
6F
100
AcDbEntity
  8
37469__HALTEPROFI
  6
Continuous
 62
     7
100
AcDbLine
 10
55.0431830247
 20
163.4392114012
 30
0.0
 11
60.3782888494
 21
163.4392114012
 31
0.0
  0
LINE
  5
EF
330
6F
100
AcDbEntity
  8
37469__HALTEPROFI
  6
Continuous
 62
     7
100
AcDbLine
 10
62.039613622
 20
163.4392114012
 30
0.0
 11
68.8874425946
 21
163.4392114012
 31
0.0
  0
ARC
  5
F0
330
6F
100
AcDbEntity
  8
37469__HALTEPROFI
  6
Continuous
 62
     7
100
AcDbCircle
 10
55.0431830247
 20
163.6392114012
 30
0.0
 40
0.2
100
AcDbArc
 50
225.0
 51
270.0
  0
LINE
  5
F1
330
6F
100
AcDbEntity
  8
37469__HALTEPROFI
  6
Continuous
 62
     7
100
AcDbLine
 10
53.5509945283
 20
164.8485571851
 30
0.0
 11
54.9017616684
 21
163.497790045
 31
0.0
  0
ARC
  5
F2
330
6F
100
AcDbEntity
  8
37469__HALTEPROFI
  6
Continuous
 62
     7
100
AcDbCircle
 10
53.4095731721
 20
164.7071358288
 30
0.0
 40
0.2000000000000001
100
AcDbArc
 50
45.0
 51
90.0
  0
LINE
  5
F3
330
6F
100
AcDbEntity
  8
37469__HALTEPROFI
  6
Continuous
 62
     7
100
AcDbLine
 10
43.4454175946
 20
164.9071358288
 30
0.0
 11
53.4095731721
 21
164.9071358288
 31
0.0
  0
ARC
  5
F4
330
6F
100
AcDbEntity
  8
37469__HALTEPROFI
  6
Continuous
 62
     7
100
AcDbCircle
 10
43.4454175946
 20
164.7071358288
 30
0.0
 40
0.1999999999999988
100
AcDbArc
 50
90.0
 51
180.0
  0
LINE
  5
F5
330
6F
100
AcDbEntity
  8
37469__HALTEPROFI
  6
Continuous
 62
     7
100
AcDbLine
 10
43.2454175946
 20
163.9071358288
 30
0.0
 11
43.2454175946
 21
164.7071358288
 31
0.0
  0
ARC
  5
F6
330
6F
100
AcDbEntity
  8
37469__HALTEPROFI
  6
Continuous
 62
     7
100
AcDbCircle
 10
43.4454175946
 20
163.9071358288
 30
0.0
 40
0.2000000000000001
100
AcDbArc
 50
180.0
 51
270.0
  0
LINE
  5
F7
330
6F
100
AcDbEntity
  8
37469__HALTEPROFI
  6
Continuous
 62
     7
100
AcDbLine
 10
52.9125168972
 20
163.7071358288
 30
0.0
 11
47.4454175946
 21
163.7071358288
 31
0.0
  0
ARC
  5
F8
330
6F
100
AcDbEntity
  8
37469__HALTEPROFI
  6
Continuous
 62
     7
100
AcDbCircle
 10
52.9125168972
 20
163.5071358288
 30
0.0
 40
0.2000000000000001
100
AcDbArc
 50
45.0
 51
90.0
  0
LINE
  5
F9
330
6F
100
AcDbEntity
  8
37469__HALTEPROFI
  6
Continuous
 62
     7
100
AcDbLine
 10
53.8926394557
 20
162.8098559829
 30
0.0
 11
53.0539382535
 21
163.6485571851
 31
0.0
  0
ARC
  5
FA
330
6F
100
AcDbEntity
  8
37469__HALTEPROFI
  6
Continuous
 62
     7
100
AcDbCircle
 10
53.7512180994
 20
162.6684346267
 30
0.0
 40
0.1999999999999988
100
AcDbArc
 50
0.0
 51
45.0
  0
LINE
  5
FB
330
6F
100
AcDbEntity
  8
37469__HALTEPROFI
  6
Continuous
 62
     7
100
AcDbLine
 10
53.9512180994
 20
160.9202874668
 30
0.0
 11
53.9512180994
 21
162.6684346267
 31
0.0
  0
ARC
  5
FC
330
6F
100
AcDbEntity
  8
37469__HALTEPROFI
  6
Continuous
 62
     7
100
AcDbCircle
 10
54.1512180994
 20
160.9202874668
 30
0.0
 40
0.1999999999999997
100
AcDbArc
 50
180.0
 51
270.0
  0
LINE
  5
FD
330
6F
100
AcDbEntity
  8
37469__HALTEPROFI
  6
Continuous
 62
     7
100
AcDbLine
 10
54.7512180994
 20
160.7202874668
 30
0.0
 11
54.1512180994
 21
160.7202874668
 31
0.0
  0
ARC
  5
FE
330
6F
100
AcDbEntity
  8
37469__HALTEPROFI
  6
Continuous
 62
     7
100
AcDbCircle
 10
54.7512180994
 20
160.9202874668
 30
0.0
 40
0.2000000000000005
100
AcDbArc
 50
270.0
 51
0.0
  0
LINE
  5
FF
330
6F
100
AcDbEntity
  8
37469__HALTEPROFI
  6
Continuous
 62
     7
100
AcDbLine
 10
54.9512180994
 20
162.0392114012
 30
0.0
 11
54.9512180994
 21
160.9202874668
 31
0.0
  0
ARC
  5
100
330
6F
100
AcDbEntity
  8
37469__HALTEPROFI
  6
Continuous
 62
     7
100
AcDbCircle
 10
55.1512180994
 20
162.0392114012
 30
0.0
 40
0.2000000000000005
100
AcDbArc
 50
90.0
 51
180.0
  0
LINE
  5
101
330
6F
100
AcDbEntity
  8
37469__HALTEPROFI
  6
Continuous
 62
     7
100
AcDbLine
 10
66.5874425946
 20
162.2392114012
 30
0.0
 11
63.9310827534
 21
162.2392114012
 31
0.0
  0
LINE
  5
102
330
6F
100
AcDbEntity
  8
37469__HALTEPROFI
  6
Continuous
 62
     7
100
AcDbLine
 10
58.4868197179
 20
162.2392114012
 30
0.0
 11
55.1512180994
 21
162.2392114012
 31
0.0
  0
ARC
  5
103
330
6F
100
AcDbEntity
  8
37469__HALTEPROFI
  6
Continuous
 62
     7
100
AcDbCircle
 10
66.5874425946
 20
162.0392114012
 30
0.0
 40
0.1999999999999988
100
AcDbArc
 50
0.0
 51
90.0
  0
LINE
  5
104
330
6F
100
AcDbEntity
  8
37469__HALTEPROFI
  6
Continuous
 62
     7
100
AcDbLine
 10
47.0454175946
 20
163.7071358288
 30
0.0
 11
43.4454175946
 21
163.7071358288
 31
0.0
  0
LINE
  5
105
330
6F
100
AcDbEntity
  8
37469__HALTEPROFI
  6
Continuous
 62
     7
100
AcDbLine
 10
47.4454175946
 20
163.7071358288
 30
0.0
 11
47.0454175946
 21
163.7071358288
 31
0.0
  0
ENDBLK
  5
107
330
6F
100
AcDbEntity
  8
0
100
AcDbBlockEnd
  0
BLOCK
  5
153
330
108
100
AcDbEntity
  8
0
100
AcDbBlockBegin
  2
SE1
 70
     0
 10
0.0
 20
0.0
 30
0.0
  3
SE1
  1

  0
HATCH
  5
10B
330
108
100
AcDbEntity
  8
DV2_Füllung
  6
Continuous
 62
     7
100
AcDbHatch
 10
0.0
 20
0.0
 30
0.0
210
0.0
220
0.0
230
1.0
  2
SOLID
 70
     1
 71
     0
 91
        1
 92
        1
 93
       22
 72
     1
 10
118.4137598946858
 20
164.9071358288339
 11
108.4496043171488
 21
164.9071358288339
 72
     2
 10
108.4496043171488
 20
164.7071358288339
 40
0.1999999999999988
 50
90.0
 51
180.0
 73
     1
 72
     1
 10
108.2496043171488
 20
164.7071358288339
 11
108.2496043171488
 21
163.9071358288339
 72
     2
 10
108.4496043171488
 20
163.9071358288339
 40
0.2000000000000001
 50
180.0
 51
270.0000000000041
 73
     1
 72
     1
 10
108.4496043171488
 20
163.7071358288339
 11
112.0496043171488
 21
163.7071358288339
 72
     1
 10
112.0496043171488
 20
163.7071358288339
 11
112.4496043171488
 21
163.7071358288339
 72
     1
 10
112.4496043171488
 20
163.7071358288339
 11
117.9167036198361
 21
163.7071358288339
 72
     2
 10
117.9167036198361
 20
163.5071358288339
 40
0.2000000000000001
 50
270.0
 51
315.0000000000057
 73
     0
 72
     1
 10
118.0581249760734
 20
163.6485571850712
 11
118.8968261782517
 21
162.8098559828929
 72
     2
 10
118.7554048220144
 20
162.6684346266556
 40
0.1999999999999988
 50
315.0000000000057
 51
360.0
 73
     0
 72
     1
 10
118.9554048220144
 20
162.6684346266556
 11
118.9554048220144
 21
160.9202874667753
 72
     2
 10
119.1554048220144
 20
160.9202874667753
 40
0.1999999999999997
 50
180.0
 51
270.0
 73
     1
 72
     1
 10
119.1554048220144
 20
160.7202874667753
 11
119.7554048220144
 21
160.7202874667753
 72
     2
 10
119.7554048220144
 20
160.9202874667753
 40
0.2000000000000005
 50
270.0
 51
360.0
 73
     1
 72
     1
 10
119.9554048220144
 20
160.9202874667753
 11
119.9554048220144
 21
162.039211401216
 72
     2
 10
120.1554048220144
 20
162.039211401216
 40
0.2000000000000005
 50
180.0
 51
270.0
 73
     0
 72
     1
 10
120.1554048220144
 20
162.239211401216
 11
123.491006440515
 21
162.239211401216
 72
     2
 10
126.2131379582782
 20
160.039211401216
 40
3.5
 50
218.9448035940958
 51
256.2708673245871
 73
     0
 72
     1
 10
125.3824755719864
 20
163.439211401216
 11
120.0473697472529
 21
163.439211401216
 72
     2
 10
120.0473697472529
 20
163.639211401216
 40
0.2
 50
90.0
 51
134.9999999999971
 73
     0
 72
     1
 10
119.9059483910156
 20
163.4977900449787
 11
118.5551812509231
 21
164.8485571850712
 72
     2
 10
118.4137598946858
 20
164.7071358288339
 40
0.2000000000000001
 50
45.00000000000864
 51
90.0
 73
     1
 97
        0
 75
     0
 76
     1
 98
        0
  0
HATCH
  5
10C
330
108
100
AcDbEntity
  8
DV2_Füllung
  6
Continuous
 62
     7
100
AcDbHatch
 10
0.0
 20
0.0
 30
0.0
210
0.0
220
0.0
230
1.0
  2
SOLID
 70
     1
 71
     0
 91
        1
 92
        1
 93
       19
 72
     1
 10
128.9352694760414
 20
162.239211401216
 11
131.5916293171488
 21
162.239211401216
 72
     2
 10
131.5916293171488
 20
162.039211401216
 40
0.1999999999999988
 50
270.0
 51
360.0
 73
     0
 72
     1
 10
131.7916293171488
 20
162.039211401216
 11
131.7916293171488
 21
160.8295888258887
 72
     2
 10
131.9916293171488
 20
160.8295888258887
 40
0.1999999999999997
 50
180.0
 51
270.0
 73
     1
 72
     1
 10
131.9916293171488
 20
160.6295888258887
 11
132.0771504814176
 21
160.629588474448
 72
     2
 10
132.0771504814176
 20
160.8295888258887
 40
0.1999999999999998
 50
270.0
 51
321.5015404546695
 73
     1
 72
     2
 10
133.8251909211722
 20
159.4392114088887
 40
2.033561000000001
 50
218.4984595453363
 51
487.7395450993286
 73
     0
 72
     2
 10
132.458088559796
 20
157.6729085259605
 40
0.2
 50
52.26045490066465
 51
125.0000000000106
 73
     1
 72
     1
 10
132.3433732725258
 20
157.8367389348183
 11
131.9192148576477
 21
157.5397400153256
 72
     2
 10
132.033930144918
 20
157.3759096064678
 40
0.1999999999999976
 50
124.9999999999926
 51
189.4261102053806
 73
     1
 72
     2
 10
134.6678788171488
 20
157.8131902852695
 40
2.870000000000001
 50
189.4261102053767
 51
359.9152711822268
 73
     1
 72
     1
 10
137.5378756790339
 20
157.8089461398814
 11
137.5441157646958
 21
162.0286475473395
 72
     2
 10
134.6741283171488
 20
162.0371358288339
 40
2.87
 50
359.8305423644657
 51
450.0
 73
     1
 72
     1
 10
134.6741283171488
 20
164.9071358288339
 11
134.2916293171488
 21
164.9071358288339
 72
     2
 10
134.2916293171488
 20
164.7071358288339
 40
0.1999999999999988
 50
90.0
 51
180.0
 73
     1
 72
     1
 10
134.0916293171488
 20
164.7071358288339
 11
134.0916293171488
 21
163.639211401216
 72
     2
 10
133.8916293171488
 20
163.639211401216
 40
0.2000000000000003
 50
0.0
 51
90.0
 73
     0
 72
     1
 10
133.8916293171488
 20
163.439211401216
 11
127.04380034457
 21
163.439211401216
 72
     2
 10
126.2131379582782
 20
160.039211401216
 40
3.5
 50
283.7291326754129
 51
321.0551964059041
 73
     0
 97
        0
 75
     0
 76
     1
 98
        0
  0
HATCH
  5
10D
330
108
100
AcDbEntity
  8
DV2_Füllung
  6
Continuous
 62
     7
100
AcDbHatch
 10
0.0
 20
0.0
 30
0.0
210
0.0
220
0.0
230
1.0
  2
SOLID
 70
     1
 71
     0
 91
        1
 92
        1
 93
       10
 72
     1
 10
130.5631379582782
 20
164.439211401216
 11
127.2131379582782
 21
164.439211401216
 72
     1
 10
127.2131379582782
 20
164.439211401216
 11
127.2131379582782
 21
164.739211401216
 72
     1
 10
127.2131379582782
 20
164.739211401216
 11
125.2131379582782
 21
164.739211401216
 72
     1
 10
125.2131379582782
 20
164.739211401216
 11
125.2131379582782
 21
164.439211401216
 72
     1
 10
125.2131379582782
 20
164.439211401216
 11
121.8631379582782
 21
164.439211401216
 72
     1
 10
121.8631379582782
 20
164.439211401216
 11
121.8631379582782
 21
163.439211401216
 72
     1
 10
121.8631379582782
 20
163.439211401216
 11
125.3824755719864
 21
163.439211401216
 72
     2
 10
126.2131379582782
 20
160.039211401216
 40
3.5
 50
256.2708673245871
 51
283.7291326754129
 73
     0
 72
     1
 10
127.04380034457
 20
163.439211401216
 11
130.5631379582782
 21
163.439211401216
 72
     1
 10
130.5631379582782
 20
163.439211401216
 11
130.5631379582782
 21
164.439211401216
 97
        0
 75
     0
 76
     1
 98
        0
  0
HATCH
  5
10E
330
108
100
AcDbEntity
  8
DV2_Füllung
  6
Continuous
 62
     7
100
AcDbHatch
 10
0.0
 20
0.0
 30
0.0
210
0.0
220
0.0
230
1.0
  2
SOLID
 70
     1
 71
     0
 91
        1
 92
        1
 93
       12
 72
     3
 10
126.2643986200616
 20
160.1899964062852
 11
7.631686419459711
 21
-2.594457560159784
 40
0.1736481776667988
 50
297.4400307100021
 51
335.5191861774457
 73
     1
 72
     2
 10
90.96151045446896
 20
183.2805362325576
 40
45.29453135256246
 50
326.114506570239
 51
327.0919298214774
 73
     1
 72
     3
 10
126.0947518208338
 20
159.9326820828984
 11
5.391771890600282
 21
-5.991881467132967
 40
0.173648177666801
 50
24.48081382255466
 51
62.5599692899971
 73
     1
 72
     3
 10
126.0623529532089
 20
160.0904720629993
 11
2.594457560159867
 21
7.631686419459933
 40
0.1736481776668087
 50
297.4400307100054
 51
334.130299163667
 73
     1
 72
     1
 10
128.1846741812604
 20
162.239211401216
 11
126.8661437511079
 21
162.239211401216
 72
     3
 10
126.3196672765956
 20
159.920825263771
 11
5.9918814671336
 21
5.391771890601001
 40
0.1736481776668221
 50
34.75433308719126
 51
62.55996928998361
 73
     1
 72
     3
 10
126.1618772964959
 20
159.888426396145
 11
-7.631686419463317
 21
2.59445756016129
 40
0.1736481776668683
 50
297.440030710037
 51
335.5191861774393
 73
     1
 72
     2
 10
161.4647654620846
 20
136.7978865698763
 40
45.29453135255901
 50
146.1145065702389
 51
147.0919298214773
 73
     1
 72
     3
 10
126.3315240957246
 20
160.1457407195332
 11
-5.391771890602952
 21
5.991881467135512
 40
0.1736481776668754
 50
24.48081382255987
 51
62.5599692899599
 73
     1
 72
     3
 10
126.3639229633475
 20
159.9879507394326
 11
-2.594457560159755
 21
-7.631686419459693
 40
0.1736481776668152
 50
297.4400307100025
 51
335.5191861774454
 73
     1
 72
     2
 10
149.4544627896206
 20
195.2908389050265
 40
45.29453135256396
 50
236.114506570239
 51
237.0919298214772
 73
     1
 72
     3
 10
126.1066086399606
 20
160.1575975386604
 11
-5.991881467132955
 21
-5.39177189060034
 40
0.1736481776668049
 50
24.48081382255519
 51
62.55996928999647
 73
     1
 97
        0
 75
     0
 76
     1
 98
        0
  0
HATCH
  5
10F
330
108
100
AcDbEntity
  8
DV2_Füllung
  6
Continuous
 62
     7
100
AcDbHatch
 10
0.0
 20
0.0
 30
0.0
210
0.0
220
0.0
230
1.0
  2
SOLID
 70
     1
 71
     0
 91
        1
 92
        1
 93
        4
 72
     3
 10
126.3196672765956
 20
159.920825263771
 11
5.9918814671336
 21
5.391771890601001
 40
0.1736481776668221
 50
24.48081382255502
 51
34.75433308719126
 73
     1
 72
     1
 10
126.8661437511079
 20
162.239211401216
 11
128.1846741812605
 21
162.239211401216
 72
     3
 10
126.0623529532089
 20
160.0904720629993
 11
2.594457560159867
 21
7.631686419459933
 40
0.1736481776668087
 50
334.130299163667
 51
335.5191861774457
 73
     1
 72
     2
 10
102.9718131269326
 20
124.7875838974007
 40
45.29453135256971
 50
56.11450657023912
 51
57.09192982147723
 73
     1
 97
        0
 75
     0
 76
     1
 98
        0
  0
HATCH
  5
110
330
108
100
AcDbEntity
  8
DV2_Füllung
  6
Continuous
 62
     7
100
AcDbHatch
 10
0.0
 20
0.0
 30
0.0
210
0.0
220
0.0
230
1.0
  2
SOLID
 70
     1
 71
     0
 91
        1
 92
        1
 93
        5
 72
     2
 10
126.2131379582782
 20
160.039211401216
 40
3.5
 50
76.27086732458709
 51
103.7291326754129
 73
     1
 72
     2
 10
126.2131379582782
 20
160.039211401216
 40
3.5
 50
103.7291326754129
 51
141.0551964059042
 73
     1
 72
     2
 10
126.2131379582782
 20
160.039211401216
 40
3.5
 50
141.0551964059042
 51
360.0
 73
     1
 72
     2
 10
126.2131379582782
 20
160.039211401216
 40
3.5
 50
0.0
 51
38.94480359409592
 73
     1
 72
     2
 10
126.2131379582782
 20
160.039211401216
 40
3.5
 50
38.94480359409592
 51
76.27086732458709
 73
     1
 97
        0
 75
     0
 76
     1
 98
        0
  0
HATCH
  5
111
330
108
100
AcDbEntity
  8
DV2_Füllung
  6
Continuous
 62
     7
100
AcDbHatch
 10
0.0
 20
0.0
 30
0.0
210
0.0
220
0.0
230
1.0
  2
SOLID
 70
     1
 71
     0
 91
        1
 92
        1
 93
        3
 72
     2
 10
126.2131379582782
 20
160.039211401216
 40
3.5
 50
76.27086732458709
 51
103.7291326754129
 73
     1
 72
     2
 10
126.2131379582782
 20
160.039211401216
 40
3.5
 50
103.7291326754129
 51
360.0
 73
     1
 72
     2
 10
126.2131379582782
 20
160.039211401216
 40
3.5
 50
0.0
 51
76.27086732458709
 73
     1
 97
        0
 75
     0
 76
     1
 98
        0
  0
HATCH
  5
112
330
108
100
AcDbEntity
  8
DV2_Füllung
  6
Continuous
 62
     7
100
AcDbHatch
 10
0.0
 20
0.0
 30
0.0
210
0.0
220
0.0
230
1.0
  2
SOLID
 70
     1
 71
     0
 91
        1
 92
        1
 93
        6
 72
     2
 10
126.2131379582782
 20
160.039211401216
 40
3.5
 50
0.0
 51
38.94480359409592
 73
     1
 72
     2
 10
126.2131379582782
 20
160.039211401216
 40
3.5
 50
38.94480359409592
 51
141.0551964059042
 73
     1
 72
     2
 10
126.2131379582782
 20
160.039211401216
 40
3.5
 50
141.0551964059042
 51
146.6032181958577
 73
     1
 72
     2
 10
126.2131379582782
 20
160.039211401216
 40
3.5
 50
146.6032181958577
 51
236.6032181958576
 73
     1
 72
     2
 10
126.2131379582782
 20
160.039211401216
 40
3.5
 50
236.6032181958576
 51
326.6032181958582
 73
     1
 72
     2
 10
126.2131379582782
 20
160.039211401216
 40
3.5
 50
326.6032181958582
 51
360.0
 73
     1
 97
        0
 75
     0
 76
     1
 98
        0
  0
LINE
  5
114
330
108
100
AcDbEntity
  8
DV2_Auto_-_Hide
  6
Continuous
 62
     7
100
AcDbLine
 10
127.6731998268
 20
156.8571462094
 30
0.0
 11
127.6763002889
 21
156.8597215059
 31
0.0
  0
LINE
  5
115
330
108
100
AcDbEntity
  8
DV2_Auto_-_Hide
  6
Continuous
 62
     7
100
AcDbLine
 10
122.6654048338
 20
159.2702874744
 30
0.0
 11
122.7986459031
 21
159.2702874744
 31
0.0
  0
LINE
  5
116
330
108
100
AcDbEntity
  8
10450_SCHIEBER_0
  6
Continuous
 62
     7
100
AcDbLine
 10
129.3131379583
 20
162.2392114012
 30
0.0
 11
129.3131379583
 21
161.6640190821
 31
0.0
  0
LINE
  5
117
330
108
100
AcDbEntity
  8
10450_SCHIEBER_0
  6
Continuous
 62
     7
100
AcDbLine
 10
123.1131379583
 20
161.6640190821
 30
0.0
 11
123.1131379583
 21
162.2392114012
 31
0.0
  0
LINE
  5
118
330
108
100
AcDbEntity
  8
10450_SCHIEBER_0
  6
Continuous
 62
     7
100
AcDbLine
 10
121.8631379583
 20
163.4392114012
 30
0.0
 11
121.8631379583
 21
164.4392114012
 31
0.0
  0
LINE
  5
119
330
108
100
AcDbEntity
  8
10450_SCHIEBER_0
  6
Continuous
 62
     7
100
AcDbLine
 10
121.8631379583
 20
164.4392114012
 30
0.0
 11
125.2131379583
 21
164.4392114012
 31
0.0
  0
LINE
  5
11A
330
108
100
AcDbEntity
  8
10450_SCHIEBER_0
  6
Continuous
 62
     7
100
AcDbLine
 10
125.2131379583
 20
164.4392114012
 30
0.0
 11
125.2131379583
 21
164.7392114012
 31
0.0
  0
LINE
  5
11B
330
108
100
AcDbEntity
  8
10450_SCHIEBER_0
  6
Continuous
 62
     7
100
AcDbLine
 10
125.2131379583
 20
164.7392114012
 30
0.0
 11
127.2131379583
 21
164.7392114012
 31
0.0
  0
LINE
  5
11C
330
108
100
AcDbEntity
  8
10450_SCHIEBER_0
  6
Continuous
 62
     7
100
AcDbLine
 10
127.2131379583
 20
164.7392114012
 30
0.0
 11
127.2131379583
 21
164.4392114012
 31
0.0
  0
LINE
  5
11D
330
108
100
AcDbEntity
  8
10450_SCHIEBER_0
  6
Continuous
 62
     7
100
AcDbLine
 10
127.2131379583
 20
164.4392114012
 30
0.0
 11
130.5631379583
 21
164.4392114012
 31
0.0
  0
LINE
  5
11E
330
108
100
AcDbEntity
  8
10450_SCHIEBER_0
  6
Continuous
 62
     7
100
AcDbLine
 10
130.5631379583
 20
164.4392114012
 30
0.0
 11
130.5631379583
 21
163.4392114012
 31
0.0
  0
CIRCLE
  5
11F
330
108
100
AcDbEntity
  8
20867_LINSENSENK
  6
Continuous
 62
     7
100
AcDbCircle
 10
126.2131379583
 20
160.0392114012
 30
0.0
 40
3.5
  0
ARC
  5
120
330
108
100
AcDbEntity
  8
20867_LINSENSENK
  6
Continuous
 62
     7
100
AcDbCircle
 10
102.9718131269
 20
124.7875838974
 30
0.0
 40
45.29453135256971
100
AcDbArc
 50
56.1145065702
 51
57.0919298215
  0
ELLIPSE
  5
121
330
108
100
AcDbEntity
  8
20867_LINSENSENK
  6
Continuous
 62
     7
100
AcDbEllipse
 10
126.3196672766
 20
159.9208252638
 30
0.0
 11
5.9918814671336
 21
5.391771890601001
 31
0.0
210
0.0
220
0.0
230
1.0
 40
0.1736481777
 41
1.20644877571622
 42
1.480874836048954
  0
ELLIPSE
  5
122
330
108
100
AcDbEntity
  8
20867_LINSENSENK
  6
Continuous
 62
     7
100
AcDbEllipse
 10
126.1618772965
 20
159.8884263961
 30
0.0
 11
-7.631686419463317
 21
2.59445756016129
 31
0.0
210
0.0
220
0.0
230
1.0
 40
0.1736481777
 41
-1.480874836048852
 42
-1.206448775716218
  0
ARC
  5
123
330
108
100
AcDbEntity
  8
20867_LINSENSENK
  6
Continuous
 62
     7
100
AcDbCircle
 10
161.4647654621
 20
136.7978865699
 30
0.0
 40
45.29453135255901
100
AcDbArc
 50
146.1145065702
 51
147.0919298215
  0
ELLIPSE
  5
124
330
108
100
AcDbEntity
  8
20867_LINSENSENK
  6
Continuous
 62
     7
100
AcDbEllipse
 10
126.3315240957
 20
160.1457407195
 30
0.0
 11
-5.391771890602953
 21
5.991881467135515
 31
0.0
210
0.0
220
0.0
230
1.0
 40
0.1736481777
 41
1.206448775716193
 42
1.480874836048836
  0
ELLIPSE
  5
125
330
108
100
AcDbEntity
  8
20867_LINSENSENK
  6
Continuous
 62
     7
100
AcDbEllipse
 10
126.3639229633
 20
159.9879507394
 30
0.0
 11
-2.594457560159755
 21
-7.631686419459693
 31
0.0
210
0.0
220
0.0
230
1.0
 40
0.1736481777
 41
-1.48087483604901
 42
-1.206448775716227
  0
ARC
  5
126
330
108
100
AcDbEntity
  8
20867_LINSENSENK
  6
Continuous
 62
     7
100
AcDbCircle
 10
149.4544627896
 20
195.290838905
 30
0.0
 40
45.29453135256396
100
AcDbArc
 50
236.1145065702
 51
237.0919298215
  0
ELLIPSE
  5
127
330
108
100
AcDbEntity
  8
20867_LINSENSENK
  6
Continuous
 62
     7
100
AcDbEllipse
 10
126.10660864
 20
160.1575975387
 30
0.0
 11
-5.991881467132955
 21
-5.39177189060034
 31
0.0
210
0.0
220
0.0
230
1.0
 40
0.1736481777
 41
1.206448775716256
 42
1.480874836049012
  0
ELLIPSE
  5
128
330
108
100
AcDbEntity
  8
20867_LINSENSENK
  6
Continuous
 62
     7
100
AcDbEllipse
 10
126.2643986201
 20
160.1899964063
 30
0.0
 11
7.631686419459712
 21
-2.594457560159784
 31
0.0
210
0.0
220
0.0
230
1.0
 40
0.1736481777
 41
-1.48087483604902
 42
-1.206448775716254
  0
ARC
  5
129
330
108
100
AcDbEntity
  8
20867_LINSENSENK
  6
Continuous
 62
     7
100
AcDbCircle
 10
90.9615104545
 20
183.2805362326
 30
0.0
 40
45.29453135256246
100
AcDbArc
 50
326.1145065702
 51
327.0919298215
  0
ELLIPSE
  5
12A
330
108
100
AcDbEntity
  8
20867_LINSENSENK
  6
Continuous
 62
     7
100
AcDbEllipse
 10
126.0947518208
 20
159.9326820829
 30
0.0
 11
5.391771890600284
 21
-5.99188146713297
 31
0.0
210
0.0
220
0.0
230
1.0
 40
0.1736481777
 41
1.206448775716256
 42
1.480874836049016
  0
ELLIPSE
  5
12B
330
108
100
AcDbEntity
  8
20867_LINSENSENK
  6
Continuous
 62
     7
100
AcDbEllipse
 10
126.0623529532
 20
160.090472063
 30
0.0
 11
2.594457560159866
 21
7.631686419459932
 31
0.0
210
0.0
220
0.0
230
1.0
 40
0.1736481777
 41
-1.480874836049002
 42
-1.206448775716234
  0
LINE
  5
12C
330
108
100
AcDbEntity
  8
37469__HALTEPROFI
  6
Continuous
 62
     7
100
AcDbLine
 10
131.7916293171
 20
160.8295888259
 30
0.0
 11
131.7916293171
 21
162.0392114012
 31
0.0
  0
ARC
  5
12D
330
108
100
AcDbEntity
  8
37469__HALTEPROFI
  6
Continuous
 62
     7
100
AcDbCircle
 10
131.9916293171
 20
160.8295888259
 30
0.0
 40
0.1999999999999997
100
AcDbArc
 50
180.0
 51
270.0
  0
LINE
  5
12E
330
108
100
AcDbEntity
  8
37469__HALTEPROFI
  6
Continuous
 62
     7
100
AcDbLine
 10
132.0771504814
 20
160.6295888259
 30
0.0
 11
131.9916293171
 21
160.6295888259
 31
0.0
  0
ARC
  5
12F
330
108
100
AcDbEntity
  8
37469__HALTEPROFI
  6
Continuous
 62
     7
100
AcDbCircle
 10
132.0771504814
 20
160.8295888259
 30
0.0
 40
0.1999999999999998
100
AcDbArc
 50
270.0
 51
321.5015404547
  0
ARC
  5
130
330
108
100
AcDbEntity
  8
37469__HALTEPROFI
  6
Continuous
 62
     7
100
AcDbCircle
 10
133.8251909212
 20
159.4392114089
 30
0.0
 40
2.033561000000001
100
AcDbArc
 50
232.2604549007
 51
141.5015404547
  0
ARC
  5
131
330
108
100
AcDbEntity
  8
37469__HALTEPROFI
  6
Continuous
 62
     7
100
AcDbCircle
 10
132.4580885598
 20
157.672908526
 30
0.0
 40
0.2
100
AcDbArc
 50
52.2604549007
 51
125.0
  0
LINE
  5
132
330
108
100
AcDbEntity
  8
37469__HALTEPROFI
  6
Continuous
 62
     7
100
AcDbLine
 10
131.9192148576
 20
157.5397400153
 30
0.0
 11
132.3433732725
 21
157.8367389348
 31
0.0
  0
ARC
  5
133
330
108
100
AcDbEntity
  8
37469__HALTEPROFI
  6
Continuous
 62
     7
100
AcDbCircle
 10
132.0339301449
 20
157.3759096065
 30
0.0
 40
0.1999999999999976
100
AcDbArc
 50
125.0
 51
189.4261102054
  0
ARC
  5
134
330
108
100
AcDbEntity
  8
37469__HALTEPROFI
  6
Continuous
 62
     7
100
AcDbCircle
 10
134.6678788171
 20
157.8131902853
 30
0.0
 40
2.870000000000001
100
AcDbArc
 50
189.4261102054
 51
359.9152711822
  0
LINE
  5
135
330
108
100
AcDbEntity
  8
37469__HALTEPROFI
  6
Continuous
 62
     7
100
AcDbLine
 10
137.5441157647
 20
162.0286475473
 30
0.0
 11
137.537875679
 21
157.8089461399
 31
0.0
  0
ARC
  5
136
330
108
100
AcDbEntity
  8
37469__HALTEPROFI
  6
Continuous
 62
     7
100
AcDbCircle
 10
134.6741283171
 20
162.0371358288
 30
0.0
 40
2.87
100
AcDbArc
 50
359.8305423645
 51
90.0
  0
LINE
  5
137
330
108
100
AcDbEntity
  8
37469__HALTEPROFI
  6
Continuous
 62
     7
100
AcDbLine
 10
134.2916293171
 20
164.9071358288
 30
0.0
 11
134.6741283171
 21
164.9071358288
 31
0.0
  0
ARC
  5
138
330
108
100
AcDbEntity
  8
37469__HALTEPROFI
  6
Continuous
 62
     7
100
AcDbCircle
 10
134.2916293171
 20
164.7071358288
 30
0.0
 40
0.1999999999999988
100
AcDbArc
 50
90.0
 51
180.0
  0
LINE
  5
139
330
108
100
AcDbEntity
  8
37469__HALTEPROFI
  6
Continuous
 62
     7
100
AcDbLine
 10
134.0916293171
 20
163.6392114012
 30
0.0
 11
134.0916293171
 21
164.7071358288
 31
0.0
  0
ARC
  5
13A
330
108
100
AcDbEntity
  8
37469__HALTEPROFI
  6
Continuous
 62
     7
100
AcDbCircle
 10
133.8916293171
 20
163.6392114012
 30
0.0
 40
0.2000000000000003
100
AcDbArc
 50
270.0
 51
0.0
  0
LINE
  5
13B
330
108
100
AcDbEntity
  8
37469__HALTEPROFI
  6
Continuous
 62
     7
100
AcDbLine
 10
120.0473697473
 20
163.4392114012
 30
0.0
 11
125.382475572
 21
163.4392114012
 31
0.0
  0
LINE
  5
13C
330
108
100
AcDbEntity
  8
37469__HALTEPROFI
  6
Continuous
 62
     7
100
AcDbLine
 10
127.0438003446
 20
163.4392114012
 30
0.0
 11
133.8916293171
 21
163.4392114012
 31
0.0
  0
ARC
  5
13D
330
108
100
AcDbEntity
  8
37469__HALTEPROFI
  6
Continuous
 62
     7
100
AcDbCircle
 10
120.0473697473
 20
163.6392114012
 30
0.0
 40
0.2
100
AcDbArc
 50
225.0
 51
270.0
  0
LINE
  5
13E
330
108
100
AcDbEntity
  8
37469__HALTEPROFI
  6
Continuous
 62
     7
100
AcDbLine
 10
118.5551812509
 20
164.8485571851
 30
0.0
 11
119.905948391
 21
163.497790045
 31
0.0
  0
ARC
  5
13F
330
108
100
AcDbEntity
  8
37469__HALTEPROFI
  6
Continuous
 62
     7
100
AcDbCircle
 10
118.4137598947
 20
164.7071358288
 30
0.0
 40
0.2000000000000001
100
AcDbArc
 50
45.0
 51
90.0
  0
LINE
  5
140
330
108
100
AcDbEntity
  8
37469__HALTEPROFI
  6
Continuous
 62
     7
100
AcDbLine
 10
108.4496043171
 20
164.9071358288
 30
0.0
 11
118.4137598947
 21
164.9071358288
 31
0.0
  0
ARC
  5
141
330
108
100
AcDbEntity
  8
37469__HALTEPROFI
  6
Continuous
 62
     7
100
AcDbCircle
 10
108.4496043171
 20
164.7071358288
 30
0.0
 40
0.1999999999999988
100
AcDbArc
 50
90.0
 51
180.0
  0
LINE
  5
142
330
108
100
AcDbEntity
  8
37469__HALTEPROFI
  6
Continuous
 62
     7
100
AcDbLine
 10
108.2496043171
 20
163.9071358288
 30
0.0
 11
108.2496043171
 21
164.7071358288
 31
0.0
  0
ARC
  5
143
330
108
100
AcDbEntity
  8
37469__HALTEPROFI
  6
Continuous
 62
     7
100
AcDbCircle
 10
108.4496043171
 20
163.9071358288
 30
0.0
 40
0.2000000000000001
100
AcDbArc
 50
180.0
 51
270.0
  0
LINE
  5
144
330
108
100
AcDbEntity
  8
37469__HALTEPROFI
  6
Continuous
 62
     7
100
AcDbLine
 10
117.9167036198
 20
163.7071358288
 30
0.0
 11
112.4496043171
 21
163.7071358288
 31
0.0
  0
ARC
  5
145
330
108
100
AcDbEntity
  8
37469__HALTEPROFI
  6
Continuous
 62
     7
100
AcDbCircle
 10
117.9167036198
 20
163.5071358288
 30
0.0
 40
0.2000000000000001
100
AcDbArc
 50
45.0
 51
90.0
  0
LINE
  5
146
330
108
100
AcDbEntity
  8
37469__HALTEPROFI
  6
Continuous
 62
     7
100
AcDbLine
 10
118.8968261783
 20
162.8098559829
 30
0.0
 11
118.0581249761
 21
163.6485571851
 31
0.0
  0
ARC
  5
147
330
108
100
AcDbEntity
  8
37469__HALTEPROFI
  6
Continuous
 62
     7
100
AcDbCircle
 10
118.755404822
 20
162.6684346267
 30
0.0
 40
0.1999999999999988
100
AcDbArc
 50
0.0
 51
45.0
  0
LINE
  5
148
330
108
100
AcDbEntity
  8
37469__HALTEPROFI
  6
Continuous
 62
     7
100
AcDbLine
 10
118.955404822
 20
160.9202874668
 30
0.0
 11
118.955404822
 21
162.6684346267
 31
0.0
  0
ARC
  5
149
330
108
100
AcDbEntity
  8
37469__HALTEPROFI
  6
Continuous
 62
     7
100
AcDbCircle
 10
119.155404822
 20
160.9202874668
 30
0.0
 40
0.1999999999999997
100
AcDbArc
 50
180.0
 51
270.0
  0
LINE
  5
14A
330
108
100
AcDbEntity
  8
37469__HALTEPROFI
  6
Continuous
 62
     7
100
AcDbLine
 10
119.755404822
 20
160.7202874668
 30
0.0
 11
119.155404822
 21
160.7202874668
 31
0.0
  0
ARC
  5
14B
330
108
100
AcDbEntity
  8
37469__HALTEPROFI
  6
Continuous
 62
     7
100
AcDbCircle
 10
119.755404822
 20
160.9202874668
 30
0.0
 40
0.2000000000000005
100
AcDbArc
 50
270.0
 51
0.0
  0
LINE
  5
14C
330
108
100
AcDbEntity
  8
37469__HALTEPROFI
  6
Continuous
 62
     7
100
AcDbLine
 10
119.955404822
 20
162.0392114012
 30
0.0
 11
119.955404822
 21
160.9202874668
 31
0.0
  0
ARC
  5
14D
330
108
100
AcDbEntity
  8
37469__HALTEPROFI
  6
Continuous
 62
     7
100
AcDbCircle
 10
120.155404822
 20
162.0392114012
 30
0.0
 40
0.2000000000000005
100
AcDbArc
 50
90.0
 51
180.0
  0
LINE
  5
14E
330
108
100
AcDbEntity
  8
37469__HALTEPROFI
  6
Continuous
 62
     7
100
AcDbLine
 10
131.5916293171
 20
162.2392114012
 30
0.0
 11
128.935269476
 21
162.2392114012
 31
0.0
  0
LINE
  5
14F
330
108
100
AcDbEntity
  8
37469__HALTEPROFI
  6
Continuous
 62
     7
100
AcDbLine
 10
123.4910064405
 20
162.2392114012
 30
0.0
 11
120.155404822
 21
162.2392114012
 31
0.0
  0
ARC
  5
150
330
108
100
AcDbEntity
  8
37469__HALTEPROFI
  6
Continuous
 62
     7
100
AcDbCircle
 10
131.5916293171
 20
162.0392114012
 30
0.0
 40
0.1999999999999988
100
AcDbArc
 50
0.0
 51
90.0
  0
LINE
  5
151
330
108
100
AcDbEntity
  8
37469__HALTEPROFI
  6
Continuous
 62
     7
100
AcDbLine
 10
112.0496043171
 20
163.7071358288
 30
0.0
 11
108.4496043171
 21
163.7071358288
 31
0.0
  0
LINE
  5
152
330
108
100
AcDbEntity
  8
37469__HALTEPROFI
  6
Continuous
 62
     7
100
AcDbLine
 10
112.4496043171
 20
163.7071358288
 30
0.0
 11
112.0496043171
 21
163.7071358288
 31
0.0
  0
ENDBLK
  5
154
330
108
100
AcDbEntity
  8
0
100
AcDbBlockEnd
  0
BLOCK
  5
1A3
330
155
100
AcDbEntity
  8
0
100
AcDbBlockBegin
  2
SE2
 70
     0
 10
0.0
 20
0.0
 30
0.0
  3
SE2
  1

  0
LINE
  5
158
330
155
100
AcDbEntity
  8
DV3_Auto_-_Hide
  6
Continuous
 62
     7
100
AcDbLine
 10
127.8303788673
 20
156.5106821605
 30
0.0
 11
127.8333274975
 21
156.5134299956
 31
0.0
  0
HATCH
  5
15A
330
155
100
AcDbEntity
  8
DV3_Füllung
  6
Continuous
 62
     7
100
AcDbHatch
 10
0.0
 20
0.0
 30
0.0
210
0.0
220
0.0
230
1.0
  2
SOLID
 70
     1
 71
     0
 91
        2
 92
        1
 93
       21
 72
     2
 10
119.1114916842143
 20
151.175828271451
 40
1.500000000000001
 50
30.40565498370886
 51
120.4056549837101
 73
     1
 72
     1
 10
118.3523133490588
 20
152.4695238521154
 11
112.243213069808
 21
148.8845254578891
 72
     2
 10
113.0023914049634
 20
147.5908298772247
 40
1.5
 50
120.4056549837095
 51
210.4056549837089
 73
     1
 72
     1
 10
111.708695824299
 20
146.8316515420693
 11
112.4910782315642
 21
145.4984145201497
 72
     2
 10
115.5328504712782
 20
147.6372767418339
 40
3.718482212091726
 50
215.1134747642373
 51
302.3932750798426
 73
     1
 72
     2
 10
103.7337418686343
 20
167.7948280958077
 40
27.07334997699044
 50
300.6239657917944
 51
313.9783103776301
 73
     1
 72
     2
 10
122.0123078495411
 20
148.8524739735566
 40
0.750000000000001
 50
313.9783103776297
 51
457.2187790048654
 73
     1
 72
     2
 10
121.8929323715912
 20
149.7949438644626
 40
0.1999999999999988
 50
82.78122099513081
 51
149.594345016288
 73
     0
 72
     1
 10
121.7204396275026
 20
149.6937200864418
 11
121.6517261537838
 21
149.8108128868625
 72
     2
 10
121.8242188978724
 20
149.9120366648832
 40
0.1999999999999997
 50
149.594345016286
 51
239.59434501629
 73
     0
 72
     1
 10
121.7229951198517
 20
150.0845294089718
 11
123.0667030234925
 21
150.8730564353202
 72
     1
 10
123.0667030234925
 20
150.8730564353201
 11
123.2977014231006
 21
150.4794182150562
 72
     2
 10
123.4701941671892
 20
150.5806419930769
 40
0.1999999999999987
 50
210.4056549837049
 51
344.1557494426855
 73
     1
 72
     1
 10
123.6625956511225
 20
150.5260373322843
 11
124.0288948513841
 21
151.8167057234243
 72
     2
 10
123.7402926254842
 20
151.8986127146131
 40
0.3000000000000005
 50
344.1557494426751
 51
436.6555605247402
 73
     1
 72
     1
 10
123.8095339695454
 20
152.1905127596159
 11
122.5041172830228
 21
152.5001694639646
 72
     2
 10
122.4579563869819
 20
152.3055694339628
 40
0.2000000000000005
 50
76.65556052474281
 51
210.405654983714
 73
     1
 72
     1
 10
122.2854636428934
 20
152.204345655942
 11
122.5165517899565
 21
151.8105544994304
 72
     1
 10
122.5165517899565
 20
151.8105544994304
 11
121.172843886314
 21
151.0220274730842
 72
     2
 10
121.0716201082935
 20
151.1945202171729
 40
0.1999999999999997
 50
59.59434501638439
 51
149.594345016286
 73
     0
 72
     1
 10
120.899127364205
 20
151.0932964391522
 11
120.4051872648787
 21
151.9350066066065
 97
        0
 92
        1
 93
       24
 72
     2
 10
119.1150426955747
 20
151.1779121085863
 40
0.6999999999999975
 50
30.40565498370929
 51
120.4056549837087
 73
     1
 72
     1
 10
118.7607594725022
 20
151.7816367128964
 11
112.6701269452204
 21
148.207475734677
 72
     2
 10
113.0244101682929
 20
147.6037511303669
 40
0.700000000000001
 50
120.4056549837099
 51
210.4056549837093
 73
     1
 72
     1
 10
112.4206855639829
 20
147.2494679072944
 11
113.197216752279
 21
145.9262017917761
 72
     2
 10
112.7707690092154
 20
145.6651206594319
 40
0.500021034787666
 50
328.5240717049771
 51
373.4842028816989
 73
     0
 72
     2
 10
113.3542500124011
 20
145.5252093978798
 40
0.1000000000000008
 50
166.5157971182988
 51
286.3807279771386
 73
     1
 72
     2
 10
113.5234672040778
 20
144.9495438836888
 40
0.5000210347876689
 50
253.619272022862
 51
363.7915624326452
 73
     0
 72
     2
 10
114.1221749231377
 20
144.909866316654
 40
0.100000000000001
 50
176.2084375673671
 51
299.736623711903
 73
     1
 72
     2
 10
114.4197936368181
 20
144.3888592692402
 40
0.5000210347876611
 50
240.2633762880802
 51
337.8046015433482
 73
     0
 72
     2
 10
114.9753536691501
 20
144.6155270716801
 40
0.0999999999999992
 50
202.1953984566466
 51
320.1565443299968
 73
     1
 72
     2
 10
115.4360485085979
 20
144.2310982654054
 40
0.5000210347876651
 50
219.8434556700079
 51
324.4919139326951
 73
     0
 72
     2
 10
115.9244857673218
 20
144.5796011909614
 40
0.1000000022024414
 50
215.5080860673048
 51
333.2645384973688
 73
     1
 72
     2
 10
116.4603604301524
 20
144.3096686242584
 40
0.500021034787664
 50
206.7354615026274
 51
300.7644507062765
 73
     0
 72
     2
 10
116.7980100290531
 20
144.8768809563995
 40
0.1600828065666558
 50
239.2355492937261
 51
345.4448737203277
 73
     1
 72
     2
 10
117.4369286910805
 20
144.7109893511755
 40
0.5000210347876448
 50
194.5551262796762
 51
290.2345349014967
 73
     0
 72
     2
 10
117.6444542527243
 20
145.2739799225459
 40
0.1000000000000009
 50
249.7654650984989
 51
362.4135594131095
 73
     1
 72
     2
 10
118.2439430040391
 20
145.2992480691868
 40
0.500021034787645
 50
177.5864405869139
 51
295.7486662873415
 73
     0
 72
     2
 10
118.5171005912118
 20
145.8325134708172
 40
0.1000000002525354
 50
235.9882412290707
 51
362.4135594130577
 73
     1
 72
     2
 10
119.1165893427789
 20
145.8577816174684
 40
0.5000210347876474
 50
177.5864405869335
 51
295.6581413461683
 73
     0
 72
     2
 10
119.3892991119119
 20
146.3912108789269
 40
0.1000000000580374
 50
235.805549208827
 51
362.4135594130605
 73
     1
 72
     2
 10
119.9887878632847
 20
146.4164790255699
 40
0.5000210347876474
 50
177.5864405869368
 51
228.2631129173236
 73
     0
 72
     1
 10
119.655918408597
 20
146.789599597726
 11
121.0935112384609
 21
148.0721092663151
 72
     2
 10
120.629864771214
 20
148.5965441558957
 40
0.6999999999999976
 50
311.4795046647462
 51
390.4056549837119
 73
     1
 72
     1
 10
121.233589375524
 20
148.9508273789683
 11
119.7187672998848
 21
151.5321953316588
 97
        0
 75
     0
 76
     1
 98
        0
  0
HATCH
  5
15B
330
155
100
AcDbEntity
  8
DV3_Füllung
  6
Continuous
 62
     7
100
AcDbHatch
 10
0.0
 20
0.0
 30
0.0
210
0.0
220
0.0
230
1.0
  2
SOLID
 70
     1
 71
     0
 91
        1
 92
        1
 93
       31
 72
     1
 10
128.6004924855006
 20
153.1527272596834
 11
125.6060487584263
 21
151.3955002602146
 72
     1
 10
125.6060487584263
 20
151.3955002602146
 11
123.6531272744568
 21
154.7234217461175
 72
     1
 10
123.6531272744568
 20
154.7234217461175
 11
120.4512307123124
 21
152.8444553666077
 72
     1
 10
120.4512307123124
 20
152.8444553666077
 11
121.4032403445974
 21
151.2221611084546
 72
     1
 10
121.4032403445974
 20
151.2221611084546
 11
122.4278472444836
 21
151.8234303498977
 72
     1
 10
122.4278472444836
 20
151.8234303498977
 11
122.127212623762
 21
152.3357337998408
 72
     1
 10
122.127212623762
 20
152.3357337998408
 11
122.3161573098001
 21
152.446612057699
 72
     2
 10
122.4579563869819
 20
152.3055694339628
 40
0.2000000000000005
 50
224.8467641569346
 51
254.341925875645
 73
     0
 72
     1
 10
122.4039772011554
 20
152.4981473337787
 11
123.2372034319721
 21
152.9871088114042
 72
     1
 10
123.2372034319721
 20
152.9871088114042
 11
123.6877114011047
 21
152.2194101802235
 72
     1
 10
123.6877114011046
 20
152.2194101802235
 11
123.8095339695454
 21
152.1905127596158
 72
     2
 10
123.7402926254842
 20
151.8986127146131
 40
0.3000000000000005
 50
283.3444394752598
 51
375.8442505573249
 73
     0
 72
     1
 10
124.0288948513841
 20
151.8167057234242
 11
123.9947115060551
 21
151.6962594781469
 72
     1
 10
123.9947115060551
 20
151.6962594781469
 11
124.5387499043782
 21
150.7691781337113
 72
     1
 10
124.5387499043782
 20
150.7691781337113
 11
123.4300628584291
 21
150.1155814156041
 72
     1
 10
123.430062858429
 20
150.1155814156041
 11
123.079222256047
 21
150.7134395416876
 72
     1
 10
123.079222256047
 20
150.7134395416876
 11
122.0546153561608
 21
150.1121703002445
 72
     1
 10
122.0546153561608
 20
150.1121703002445
 11
122.4271934527613
 21
149.4772698892288
 72
     2
 10
122.0123078495411
 20
148.8524739735566
 40
0.750000000000001
 50
303.5855042938477
 51
355.6031857387338
 73
     0
 72
     1
 10
122.7601006118327
 20
148.9099716662442
 11
123.0066244823269
 21
148.4898769045551
 72
     1
 10
123.0066244823269
 20
148.4898769045551
 11
129.2029647715455
 21
152.1260702835337
 72
     2
 10
126.9687965631776
 20
155.9332568216408
 40
4.414315000000001
 50
300.4056549837101
 51
384.6017715417094
 73
     1
 72
     1
 10
130.9823943389484
 20
157.7709754653816
 11
132.1140956367049
 21
158.4350908260315
 72
     2
 10
133.8251909211723
 20
159.4392114088887
 40
1.983962000000004
 50
210.4056528878733
 51
345.4056754045891
 73
     1
 72
     1
 10
135.7451386698014
 20
158.9393055577747
 11
133.8251909211722
 21
159.4392114088887
 72
     1
 10
133.8251909211722
 20
159.4392114088887
 11
134.3250967722863
 21
161.3591591575178
 72
     2
 10
133.8251909211723
 20
159.4392114088887
 40
1.983962000000008
 50
75.4056754045899
 51
173.5357621910864
 73
     1
 72
     1
 10
131.853842316794
 20
159.6625718741905
 11
130.0007282846534
 21
158.5751104599285
 72
     2
 10
130.369242052559
 20
157.9471359631908
 40
0.7281169999999935
 50
120.4056549837077
 51
210.4056549837107
 73
     1
 72
     1
 10
129.7412675558213
 20
157.5786221952852
 11
129.7493261251349
 21
157.5649527439637
 72
     2
 10
126.9687965631776
 20
155.9332568216408
 40
3.223937999999996
 50
329.5943450162902
 51
419.5943450162901
 73
     0
 97
        0
 75
     0
 76
     1
 98
        0
  0
LINE
  5
15C
330
155
100
AcDbEntity
  8
20869_LINSENSENK
  6
Continuous
 62
     7
100
AcDbLine
 10
123.237203432
 20
152.9871088114
 30
0.0
 11
123.6877114011
 21
152.2194101802
 31
0.0
  0
LINE
  5
15D
330
155
100
AcDbEntity
  8
20869_LINSENSENK
  6
Continuous
 62
     7
100
AcDbLine
 10
123.9947115061
 20
151.6962594781
 30
0.0
 11
124.5387499044
 21
150.7691781337
 31
0.0
  0
LINE
  5
15E
330
155
100
AcDbEntity
  8
20869_LINSENSENK
  6
Continuous
 62
     7
100
AcDbLine
 10
122.1272126238
 20
152.3357337998
 30
0.0
 11
122.3161573098
 21
152.4466120577
 31
0.0
  0
LINE
  5
15F
330
155
100
AcDbEntity
  8
20869_LINSENSENK
  6
Continuous
 62
     7
100
AcDbLine
 10
122.4039772012
 20
152.4981473338
 30
0.0
 11
123.237203432
 21
152.9871088114
 31
0.0
  0
LINE
  5
160
330
155
100
AcDbEntity
  8
20869_LINSENSENK
  6
Continuous
 62
     7
100
AcDbLine
 10
122.4278472445
 20
151.8234303499
 30
0.0
 11
122.1272126238
 21
152.3357337998
 31
0.0
  0
LINE
  5
161
330
155
100
AcDbEntity
  8
20869_LINSENSENK
  6
Continuous
 62
     7
100
AcDbLine
 10
121.4032403446
 20
151.2221611085
 30
0.0
 11
122.4278472445
 21
151.8234303499
 31
0.0
  0
LINE
  5
162
330
155
100
AcDbEntity
  8
20869_LINSENSENK
  6
Continuous
 62
     7
100
AcDbLine
 10
120.4512307123
 20
152.8444553666
 30
0.0
 11
121.4032403446
 21
151.2221611085
 31
0.0
  0
LINE
  5
163
330
155
100
AcDbEntity
  8
20869_LINSENSENK
  6
Continuous
 62
     7
100
AcDbLine
 10
123.6531272745
 20
154.7234217461
 30
0.0
 11
120.4512307123
 21
152.8444553666
 31
0.0
  0
LINE
  5
164
330
155
100
AcDbEntity
  8
20869_LINSENSENK
  6
Continuous
 62
     7
100
AcDbLine
 10
125.6060487584
 20
151.3955002602
 30
0.0
 11
123.6531272745
 21
154.7234217461
 31
0.0
  0
LINE
  5
165
330
155
100
AcDbEntity
  8
20869_LINSENSENK
  6
Continuous
 62
     7
100
AcDbLine
 10
128.6004924855
 20
153.1527272597
 30
0.0
 11
125.6060487584
 21
151.3955002602
 31
0.0
  0
ARC
  5
166
330
155
100
AcDbEntity
  8
20869_LINSENSENK
  6
Continuous
 62
     7
100
AcDbCircle
 10
126.9687965632
 20
155.9332568216
 30
0.0
 40
3.223937999999996
100
AcDbArc
 50
300.4056549837
 51
30.4056549837
  0
LINE
  5
167
330
155
100
AcDbEntity
  8
20869_LINSENSENK
  6
Continuous
 62
     7
100
AcDbLine
 10
129.7412675558
 20
157.5786221953
 30
0.0
 11
129.7493261251
 21
157.564952744
 31
0.0
  0
ARC
  5
168
330
155
100
AcDbEntity
  8
20869_LINSENSENK
  6
Continuous
 62
     7
100
AcDbCircle
 10
130.3692420526
 20
157.9471359632
 30
0.0
 40
0.7281169999999935
100
AcDbArc
 50
120.4056549837
 51
210.4056549837
  0
LINE
  5
169
330
155
100
AcDbEntity
  8
20869_LINSENSENK
  6
Continuous
 62
     7
100
AcDbLine
 10
131.8538423168
 20
159.6625718742
 30
0.0
 11
130.0007282847
 21
158.5751104599
 31
0.0
  0
ARC
  5
16A
330
155
100
AcDbEntity
  8
20869_LINSENSENK
  6
Continuous
 62
     7
100
AcDbCircle
 10
133.8251909212
 20
159.4392114089
 30
0.0
 40
1.983962000000008
100
AcDbArc
 50
75.4056754046
 51
173.5357621911
  0
LINE
  5
16B
330
155
100
AcDbEntity
  8
20869_LINSENSENK
  6
Continuous
 62
     7
100
AcDbLine
 10
133.8251909212
 20
159.4392114089
 30
0.0
 11
134.3250967723
 21
161.3591591575
 31
0.0
  0
LINE
  5
16C
330
155
100
AcDbEntity
  8
20869_LINSENSENK
  6
Continuous
 62
     7
100
AcDbLine
 10
135.7451386698
 20
158.9393055578
 30
0.0
 11
133.8251909212
 21
159.4392114089
 31
0.0
  0
ARC
  5
16D
330
155
100
AcDbEntity
  8
20869_LINSENSENK
  6
Continuous
 62
     7
100
AcDbCircle
 10
133.8251909212
 20
159.4392114089
 30
0.0
 40
1.983962000000004
100
AcDbArc
 50
210.4056528879
 51
345.4056754046
  0
LINE
  5
16E
330
155
100
AcDbEntity
  8
20869_LINSENSENK
  6
Continuous
 62
     7
100
AcDbLine
 10
130.9823943389
 20
157.7709754654
 30
0.0
 11
132.1140956367
 21
158.435090826
 31
0.0
  0
ARC
  5
16F
330
155
100
AcDbEntity
  8
20869_LINSENSENK
  6
Continuous
 62
     7
100
AcDbCircle
 10
126.9687965632
 20
155.9332568216
 30
0.0
 40
4.414315000000001
100
AcDbArc
 50
300.4056549837
 51
24.6017715417
  0
LINE
  5
170
330
155
100
AcDbEntity
  8
20869_LINSENSENK
  6
Continuous
 62
     7
100
AcDbLine
 10
123.0066244823
 20
148.4898769046
 30
0.0
 11
129.2029647715
 21
152.1260702835
 31
0.0
  0
LINE
  5
171
330
155
100
AcDbEntity
  8
20869_LINSENSENK
  6
Continuous
 62
     7
100
AcDbLine
 10
122.0546153562
 20
150.1121703002
 30
0.0
 11
122.4271934528
 21
149.4772698892
 31
0.0
  0
LINE
  5
172
330
155
100
AcDbEntity
  8
20869_LINSENSENK
  6
Continuous
 62
     7
100
AcDbLine
 10
122.7601006118
 20
148.9099716662
 30
0.0
 11
123.0066244823
 21
148.4898769046
 31
0.0
  0
LINE
  5
173
330
155
100
AcDbEntity
  8
20869_LINSENSENK
  6
Continuous
 62
     7
100
AcDbLine
 10
123.079222256
 20
150.7134395417
 30
0.0
 11
122.0546153562
 21
150.1121703002
 31
0.0
  0
LINE
  5
174
330
155
100
AcDbEntity
  8
20869_LINSENSENK
  6
Continuous
 62
     7
100
AcDbLine
 10
123.4300628584
 20
150.1155814156
 30
0.0
 11
123.079222256
 21
150.7134395417
 31
0.0
  0
LINE
  5
175
330
155
100
AcDbEntity
  8
20869_LINSENSENK
  6
Continuous
 62
     7
100
AcDbLine
 10
124.5387499044
 20
150.7691781337
 30
0.0
 11
123.4300628584
 21
150.1155814156
 31
0.0
  0
LINE
  5
176
330
155
100
AcDbEntity
  8
37471__DICHTPROFI
  6
Continuous
 62
     7
100
AcDbLine
 10
119.6559184086
 20
146.7895995977
 30
0.0
 11
121.0935112385
 21
148.0721092663
 31
0.0
  0
ARC
  5
177
330
155
100
AcDbEntity
  8
37471__DICHTPROFI
  6
Continuous
 62
     7
100
AcDbCircle
 10
120.6298647712
 20
148.5965441559
 30
0.0
 40
0.6999999999999976
100
AcDbArc
 50
311.4795046647
 51
30.4056549837
  0
LINE
  5
178
330
155
100
AcDbEntity
  8
37471__DICHTPROFI
  6
Continuous
 62
     7
100
AcDbLine
 10
121.2335893755
 20
148.950827379
 30
0.0
 11
119.7187672999
 21
151.5321953317
 31
0.0
  0
ARC
  5
179
330
155
100
AcDbEntity
  8
37471__DICHTPROFI
  6
Continuous
 62
     7
100
AcDbCircle
 10
119.1150426956
 20
151.1779121086
 30
0.0
 40
0.6999999999999975
100
AcDbArc
 50
30.4056549837
 51
120.4056549837
  0
LINE
  5
17A
330
155
100
AcDbEntity
  8
37471__DICHTPROFI
  6
Continuous
 62
     7
100
AcDbLine
 10
118.7607594725
 20
151.7816367129
 30
0.0
 11
112.6701269452
 21
148.2074757347
 31
0.0
  0
ARC
  5
17B
330
155
100
AcDbEntity
  8
37471__DICHTPROFI
  6
Continuous
 62
     7
100
AcDbCircle
 10
113.0244101683
 20
147.6037511304
 30
0.0
 40
0.700000000000001
100
AcDbArc
 50
120.4056549837
 51
210.4056549837
  0
LINE
  5
17C
330
155
100
AcDbEntity
  8
37471__DICHTPROFI
  6
Continuous
 62
     7
100
AcDbLine
 10
112.420685564
 20
147.2494679073
 30
0.0
 11
113.1972167523
 21
145.9262017918
 31
0.0
  0
ARC
  5
17D
330
155
100
AcDbEntity
  8
37471__DICHTPROFI
  6
Continuous
 62
     7
100
AcDbCircle
 10
112.7707690092
 20
145.6651206594
 30
0.0
 40
0.500021034787666
100
AcDbArc
 50
346.5157971183
 51
31.475928295
  0
ARC
  5
17E
330
155
100
AcDbEntity
  8
37471__DICHTPROFI
  6
Continuous
 62
     7
100
AcDbCircle
 10
113.3542500124
 20
145.5252093979
 30
0.0
 40
0.1000000000000008
100
AcDbArc
 50
166.5157971183
 51
286.3807279771
  0
ARC
  5
17F
330
155
100
AcDbEntity
  8
37471__DICHTPROFI
  6
Continuous
 62
     7
100
AcDbCircle
 10
113.5234672041
 20
144.9495438837
 30
0.0
 40
0.5000210347876689
100
AcDbArc
 50
356.2084375674
 51
106.3807279771
  0
ARC
  5
180
330
155
100
AcDbEntity
  8
37471__DICHTPROFI
  6
Continuous
 62
     7
100
AcDbCircle
 10
114.1221749231
 20
144.9098663167
 30
0.0
 40
0.100000000000001
100
AcDbArc
 50
176.2084375674
 51
299.7366237119
  0
ARC
  5
181
330
155
100
AcDbEntity
  8
37471__DICHTPROFI
  6
Continuous
 62
     7
100
AcDbCircle
 10
114.4197936368
 20
144.3888592692
 30
0.0
 40
0.5000210347876611
100
AcDbArc
 50
22.1953984567
 51
119.7366237119
  0
ARC
  5
182
330
155
100
AcDbEntity
  8
37471__DICHTPROFI
  6
Continuous
 62
     7
100
AcDbCircle
 10
114.9753536692
 20
144.6155270717
 30
0.0
 40
0.0999999999999992
100
AcDbArc
 50
202.1953984566
 51
320.15654433
  0
ARC
  5
183
330
155
100
AcDbEntity
  8
37471__DICHTPROFI
  6
Continuous
 62
     7
100
AcDbCircle
 10
115.4360485086
 20
144.2310982654
 30
0.0
 40
0.5000210347876651
100
AcDbArc
 50
35.5080860673
 51
140.15654433
  0
ARC
  5
184
330
155
100
AcDbEntity
  8
37471__DICHTPROFI
  6
Continuous
 62
     7
100
AcDbCircle
 10
115.9244857673
 20
144.579601191
 30
0.0
 40
0.1000000022024414
100
AcDbArc
 50
215.5080860673
 51
333.2645384974
  0
ARC
  5
185
330
155
100
AcDbEntity
  8
37471__DICHTPROFI
  6
Continuous
 62
     7
100
AcDbCircle
 10
116.4603604302
 20
144.3096686243
 30
0.0
 40
0.500021034787664
100
AcDbArc
 50
59.2355492937
 51
153.2645384974
  0
ARC
  5
186
330
155
100
AcDbEntity
  8
37471__DICHTPROFI
  6
Continuous
 62
     7
100
AcDbCircle
 10
116.7980100291
 20
144.8768809564
 30
0.0
 40
0.1600828065666558
100
AcDbArc
 50
239.2355492937
 51
345.4448737203
  0
ARC
  5
187
330
155
100
AcDbEntity
  8
37471__DICHTPROFI
  6
Continuous
 62
     7
100
AcDbCircle
 10
117.4369286911
 20
144.7109893512
 30
0.0
 40
0.5000210347876448
100
AcDbArc
 50
69.7654650985
 51
165.4448737203
  0
ARC
  5
188
330
155
100
AcDbEntity
  8
37471__DICHTPROFI
  6
Continuous
 62
     7
100
AcDbCircle
 10
117.6444542527
 20
145.2739799225
 30
0.0
 40
0.1000000000000009
100
AcDbArc
 50
249.7654650985
 51
2.4135594131
  0
ARC
  5
189
330
155
100
AcDbEntity
  8
37471__DICHTPROFI
  6
Continuous
 62
     7
100
AcDbCircle
 10
118.243943004
 20
145.2992480692
 30
0.0
 40
0.500021034787645
100
AcDbArc
 50
64.2513337127
 51
182.4135594131
  0
ARC
  5
18A
330
155
100
AcDbEntity
  8
37471__DICHTPROFI
  6
Continuous
 62
     7
100
AcDbCircle
 10
118.5171005912
 20
145.8325134708
 30
0.0
 40
0.1000000002525354
100
AcDbArc
 50
235.9882412291
 51
2.4135594131
  0
ARC
  5
18B
330
155
100
AcDbEntity
  8
37471__DICHTPROFI
  6
Continuous
 62
     7
100
AcDbCircle
 10
119.1165893428
 20
145.8577816175
 30
0.0
 40
0.5000210347876474
100
AcDbArc
 50
64.3418586538
 51
182.4135594131
  0
ARC
  5
18C
330
155
100
AcDbEntity
  8
37471__DICHTPROFI
  6
Continuous
 62
     7
100
AcDbCircle
 10
119.3892991119
 20
146.3912108789
 30
0.0
 40
0.1000000000580374
100
AcDbArc
 50
235.8055492088
 51
2.4135594131
  0
ARC
  5
18D
330
155
100
AcDbEntity
  8
37471__DICHTPROFI
  6
Continuous
 62
     7
100
AcDbCircle
 10
119.9887878633
 20
146.4164790256
 30
0.0
 40
0.5000210347876474
100
AcDbArc
 50
131.7368870827
 51
182.4135594131
  0
ARC
  5
18E
330
155
100
AcDbEntity
  8
37471__DICHTPROFI
  6
Continuous
 62
     7
100
AcDbCircle
 10
122.0123078495
 20
148.8524739736
 30
0.0
 40
0.750000000000001
100
AcDbArc
 50
313.9783103776
 51
97.2187790049
  0
ARC
  5
18F
330
155
100
AcDbEntity
  8
37471__DICHTPROFI
  6
Continuous
 62
     7
100
AcDbCircle
 10
121.8929323716
 20
149.7949438645
 30
0.0
 40
0.1999999999999988
100
AcDbArc
 50
210.4056549837
 51
277.2187790049
  0
LINE
  5
190
330
155
100
AcDbEntity
  8
37471__DICHTPROFI
  6
Continuous
 62
     7
100
AcDbLine
 10
121.6517261538
 20
149.8108128869
 30
0.0
 11
121.7204396275
 21
149.6937200864
 31
0.0
  0
ARC
  5
191
330
155
100
AcDbEntity
  8
37471__DICHTPROFI
  6
Continuous
 62
     7
100
AcDbCircle
 10
121.8242188979
 20
149.9120366649
 30
0.0
 40
0.1999999999999997
100
AcDbArc
 50
120.4056549837
 51
210.4056549837
  0
LINE
  5
192
330
155
100
AcDbEntity
  8
37471__DICHTPROFI
  6
Continuous
 62
     7
100
AcDbLine
 10
123.0667030235
 20
150.8730564353
 30
0.0
 11
121.7229951199
 21
150.084529409
 31
0.0
  0
LINE
  5
193
330
155
100
AcDbEntity
  8
37471__DICHTPROFI
  6
Continuous
 62
     7
100
AcDbLine
 10
123.2977014231
 20
150.4794182151
 30
0.0
 11
123.0667030235
 21
150.8730564353
 31
0.0
  0
ARC
  5
194
330
155
100
AcDbEntity
  8
37471__DICHTPROFI
  6
Continuous
 62
     7
100
AcDbCircle
 10
123.4701941672
 20
150.5806419931
 30
0.0
 40
0.1999999999999987
100
AcDbArc
 50
210.4056549837
 51
344.1557494427
  0
LINE
  5
195
330
155
100
AcDbEntity
  8
37471__DICHTPROFI
  6
Continuous
 62
     7
100
AcDbLine
 10
124.0288948514
 20
151.8167057234
 30
0.0
 11
123.6625956511
 21
150.5260373323
 31
0.0
  0
ARC
  5
196
330
155
100
AcDbEntity
  8
37471__DICHTPROFI
  6
Continuous
 62
     7
100
AcDbCircle
 10
123.7402926255
 20
151.8986127146
 30
0.0
 40
0.3000000000000005
100
AcDbArc
 50
344.1557494427
 51
76.6555605247
  0
LINE
  5
197
330
155
100
AcDbEntity
  8
37471__DICHTPROFI
  6
Continuous
 62
     7
100
AcDbLine
 10
122.504117283
 20
152.500169464
 30
0.0
 11
123.8095339695
 21
152.1905127596
 31
0.0
  0
ARC
  5
198
330
155
100
AcDbEntity
  8
37471__DICHTPROFI
  6
Continuous
 62
     7
100
AcDbCircle
 10
122.457956387
 20
152.305569434
 30
0.0
 40
0.2000000000000005
100
AcDbArc
 50
76.6555605247
 51
210.4056549837
  0
LINE
  5
199
330
155
100
AcDbEntity
  8
37471__DICHTPROFI
  6
Continuous
 62
     7
100
AcDbLine
 10
122.51655179
 20
151.8105544994
 30
0.0
 11
122.2854636429
 21
152.2043456559
 31
0.0
  0
LINE
  5
19A
330
155
100
AcDbEntity
  8
37471__DICHTPROFI
  6
Continuous
 62
     7
100
AcDbLine
 10
121.1728438863
 20
151.0220274731
 30
0.0
 11
122.51655179
 21
151.8105544994
 31
0.0
  0
ARC
  5
19B
330
155
100
AcDbEntity
  8
37471__DICHTPROFI
  6
Continuous
 62
     7
100
AcDbCircle
 10
121.0716201083
 20
151.1945202172
 30
0.0
 40
0.1999999999999997
100
AcDbArc
 50
210.4056549837
 51
300.4056549836
  0
LINE
  5
19C
330
155
100
AcDbEntity
  8
37471__DICHTPROFI
  6
Continuous
 62
     7
100
AcDbLine
 10
120.4051872649
 20
151.9350066066
 30
0.0
 11
120.8991273642
 21
151.0932964392
 31
0.0
  0
ARC
  5
19D
330
155
100
AcDbEntity
  8
37471__DICHTPROFI
  6
Continuous
 62
     7
100
AcDbCircle
 10
119.1114916842
 20
151.1758282715
 30
0.0
 40
1.500000000000001
100
AcDbArc
 50
30.4056549837
 51
120.4056549837
  0
LINE
  5
19E
330
155
100
AcDbEntity
  8
37471__DICHTPROFI
  6
Continuous
 62
     7
100
AcDbLine
 10
112.2432130698
 20
148.8845254579
 30
0.0
 11
118.3523133491
 21
152.4695238521
 31
0.0
  0
ARC
  5
19F
330
155
100
AcDbEntity
  8
37471__DICHTPROFI
  6
Continuous
 62
     7
100
AcDbCircle
 10
113.002391405
 20
147.5908298772
 30
0.0
 40
1.5
100
AcDbArc
 50
120.4056549837
 51
210.4056549837
  0
LINE
  5
1A0
330
155
100
AcDbEntity
  8
37471__DICHTPROFI
  6
Continuous
 62
     7
100
AcDbLine
 10
112.4910782316
 20
145.4984145201
 30
0.0
 11
111.7086958243
 21
146.8316515421
 31
0.0
  0
ARC
  5
1A1
330
155
100
AcDbEntity
  8
37471__DICHTPROFI
  6
Continuous
 62
     7
100
AcDbCircle
 10
115.5328504713
 20
147.6372767418
 30
0.0
 40
3.718482212091726
100
AcDbArc
 50
215.1134747642
 51
302.3932750798
  0
ARC
  5
1A2
330
155
100
AcDbEntity
  8
37471__DICHTPROFI
  6
Continuous
 62
     7
100
AcDbCircle
 10
103.7337418686
 20
167.7948280958
 30
0.0
 40
27.07334997699044
100
AcDbArc
 50
300.6239657918
 51
313.9783103776
  0
ENDBLK
  5
1A4
330
155
100
AcDbEntity
  8
0
100
AcDbBlockEnd
  0
BLOCK
  5
1A7
330
1A6
100
AcDbEntity
  8
0
100
AcDbBlockBegin
  2
_Oblique
 70
     0
 10
0.0
 20
0.0
 30
0.0
  3
_Oblique
  1

  0
LINE
  5
1A9
330
1A6
100
AcDbEntity
  8
0
  6
ByBlock
 62
     0
370
    -2
100
AcDbLine
 10
-0.5
 20
-0.5
 30
0.0
 11
0.5
 21
0.5
 31
0.0
  0
ENDBLK
  5
1A8
330
1A6
100
AcDbEntity
  8
0
100
AcDbBlockEnd
  0
BLOCK
  5
1AB
330
1AA
100
AcDbEntity
  8
0
100
AcDbBlockBegin
  2
_Dot
 70
     0
 10
0.0
 20
0.0
 30
0.0
  3
_Dot
  1

  0
LWPOLYLINE
  5
1AD
330
1AA
100
AcDbEntity
  8
0
  6
ByBlock
 62
     0
100
AcDbPolyline
 90
        2
 70
     1
 43
0.5
 10
-0.25
 20
0.0
 42
1.0
 10
0.25
 20
0.0
 42
1.0
  0
LINE
  5
1AE
330
1AA
100
AcDbEntity
  8
0
  6
ByBlock
 62
     0
370
    -2
100
AcDbLine
 10
-0.5
 20
0.0
 30
0.0
 11
-1.0
 21
0.0
 31
0.0
  0
ENDBLK
  5
1AC
330
1AA
100
AcDbEntity
  8
0
100
AcDbBlockEnd
  0
BLOCK
  5
1B3
330
1AF
100
AcDbEntity
  8
0
100
AcDbBlockBegin
  2
_SE_OPEN
 70
     0
 10
0.0
 20
0.0
 30
0.0
  3
_SE_OPEN
  1

  0
LINE
  5
1B0
330
1AF
100
AcDbEntity
  8
0
 62
     0
100
AcDbLine
 10
0.0
 20
0.0
 30
0.0
 11
-1.0
 21
-0.1665
 31
0.0
  0
LINE
  5
1B1
330
1AF
100
AcDbEntity
  8
0
 62
     0
100
AcDbLine
 10
-1.0
 20
0.1665
 30
0.0
 11
0.0
 21
0.0
 31
0.0
  0
LINE
  5
1B2
330
1AF
100
AcDbEntity
  8
0
 62
     0
100
AcDbLine
 10
0.0
 20
0.0
 30
0.0
 11
-1.0
 21
0.0
 31
0.0
  0
ENDBLK
  5
1B4
330
1AF
100
AcDbEntity
  8
0
100
AcDbBlockEnd
  0
BLOCK
  5
1C5
330
1C3
100
AcDbEntity
  8
0
100
AcDbBlockBegin
  2
SEANNOT_GROUP
 70
     0
 10
0.0
 20
0.0
 30
0.0
  3
SEANNOT_GROUP
  1

  0
ENDBLK
  5
1C6
330
1C3
100
AcDbEntity
  8
0
100
AcDbBlockEnd
  0
BLOCK
  5
1C8
330
1C7
100
AcDbEntity
  8
0
100
AcDbBlockBegin
  2
_NONE
 70
     0
 10
0.0
 20
0.0
 30
0.0
  3
_NONE
  1

  0
ENDBLK
  5
1C9
330
1C7
100
AcDbEntity
  8
0
100
AcDbBlockEnd
  0
ENDSEC
  0
SECTION
  2
ENTITIES
  0
INSERT
  5
70
330
1F
100
AcDbEntity
  8
Standard
100
AcDbBlockReference
  2
SE
 10
0.0
 20
0.0
 30
0.0
  0
INSERT
  5
109
330
1F
100
AcDbEntity
  8
Standard
100
AcDbBlockReference
  2
SE1
 10
0.0
 20
0.0
 30
0.0
  0
INSERT
  5
156
330
1F
100
AcDbEntity
  8
Standard
100
AcDbBlockReference
  2
SE2
 10
0.0
 20
0.0
 30
0.0
  0
DIMENSION
  5
1B7
330
1F
100
AcDbEntity
  8
Standard
  6
Continuous
 62
     7
100
AcDbDimension
 10
43.2454175946
 20
169.9352856332
 30
0.0
 11
57.8926733905
 21
169.9352856332
 31
0.0
 70
   160
  1
\A1;29,5 {}
 71
     5
 42
-1.0
 73
     0
 74
     0
 75
     0
  3
E-Katalog
100
AcDbAlignedDimension
 13
72.5399290421
 23
162.0286475473
 33
0.0
 14
43.2454175946
 24
164.3071358288
 34
0.0
100
AcDbRotatedDimension
  0
DIMENSION
  5
1B8
330
1F
100
AcDbEntity
  8
Standard
  6
Continuous
 62
     7
100
AcDbDimension
 10
80.9142870509
 20
164.9071358288
 30
0.0
 11
80.9142870509
 21
159.925163086
 31
0.0
 70
   161
  1
\A1;<>
 71
     5
 42
-1.0
 73
     0
 74
     0
 75
     0
  3
E-Katalog
100
AcDbAlignedDimension
 13
69.6699415946
 23
164.9071358288
 33
0.0
 14
69.6636920946
 24
154.9431902853
 34
0.0
1001
ACAD
1000
DSTYLE
1002
{
1070
   271
1070
     0
1070
     0
1002
}
  0
DIMENSION
  5
1B9
330
1F
100
AcDbEntity
  8
Standard
  6
Continuous
 62
     7
100
AcDbDimension
 10
108.2496043171
 20
170.218740178
 30
0.0
 11
122.896860113
 21
170.218740178
 31
0.0
 70
   160
  1
\A1;29,5 {}
 71
     5
 42
-1.0
 73
     0
 74
     0
 75
     0
  3
E-Katalog
100
AcDbAlignedDimension
 13
137.5441157647
 23
162.0286475473
 33
0.0
 14
108.2496043171
 24
164.7071358288
 34
0.0
100
AcDbRotatedDimension
  0
DIMENSION
  5
1BA
330
1F
100
AcDbEntity
  8
Standard
  6
Continuous
 62
     7
100
AcDbDimension
 10
143.9351031416
 20
143.9902013982
 30
0.0
 11
143.9351031416
 21
154.4486683006
 31
0.0
 70
   160
  1
\A1;21 {}
 71
     5
 42
-1.0
 73
     0
 74
     0
 75
     0
  3
E-Katalog
100
AcDbAlignedDimension
 13
134.6741283171
 23
164.9071358288
 33
0.0
 14
114.8076254034
 24
143.9902013982
 34
0.0
 50
90.0
100
AcDbRotatedDimension
  0
MTEXT
  5
1BC
330
1F
100
AcDbEntity
  8
Default
100
AcDbMText
 10
139.6221177889
 20
28.161474171
 30
0.0
 40
2.5
 41
60.0887616677
 46
5.4782708696
 71
     4
 72
     1
  1
{\fSolid Edge ISO|b0||i0||c0|p34;\C7;\H2.5;\W1.;Luftstop BD DIN L}
 73
     1
 44
1.0
1001
ACAD
1000
ACAD_MTEXT_DEFINED_HEIGHT_BEGIN
1070
    46
1040
5.4782708696
1000
ACAD_MTEXT_DEFINED_HEIGHT_END
  0
LINE
  5
1BD
330
1F
100
AcDbEntity
  8
Default
  6
Continuous
 62
     7
100
AcDbLine
 10
138.2000000051
 20
9.9999999541
 30
0.0
 11
138.2000000051
 21
34.3502211504
 31
0.0
  0
MTEXT
  5
1BE
330
1F
100
AcDbEntity
  8
Default
100
AcDbMText
 10
122.5168744495
 20
17.5485405285
 30
0.0
 40
2.2
 41
15.7520375387
 46
4.0615484615
 71
     1
 72
     1
  1
{\fSolid Edge ANSI|b0||i0||c0|p34;\C7;\H2.2;\W1.;Maßst.}{\fSolid Edge ANSI|b0||i0||c0|p34;\C7;\H1.5;\W1.;/ scale}
 73
     1
 44
1.0
1001
ACAD
1000
ACAD_MTEXT_DEFINED_HEIGHT_BEGIN
1070
    46
1040
4.0615484615
1000
ACAD_MTEXT_DEFINED_HEIGHT_END
  0
MTEXT
  5
1BF
330
1F
100
AcDbEntity
  8
Default
100
AcDbMText
 10
148.2238718478
 20
15.907103298
 30
0.0
 40
2.2
 41
18.1206027323
 46
4.0615484615
 71
     5
 72
     1
  1
{\fSolid Edge ANSI|b0||i0||c0|p34;\C7;\H2.2;\W1.;Art. Nr.}{\fSolid Edge ANSI|b0||i0||c0|p34;\C7;\H1.5;\W1.;/ art. no.}
 73
     1
 44
1.0
1001
ACAD
1000
ACAD_MTEXT_DEFINED_HEIGHT_BEGIN
1070
    46
1040
4.0615484615
1000
ACAD_MTEXT_DEFINED_HEIGHT_END
  0
MTEXT
  5
1C0
330
1F
100
AcDbEntity
  8
Default
100
AcDbMText
 10
139.5512791446
 20
32.9682471949
 30
0.0
 40
2.2
 41
21.7100432289
 46
4.0615484615
 71
     1
 72
     1
  1
{\fSolid Edge ANSI|b0||i0||c0|p34;\C7;\H2.2;\W1.;Benennung}{\fSolid Edge ANSI|b0||i0||c0|p34;\C7;\H1.5;\W1.;/ title}
 73
     1
 44
1.0
1001
ACAD
1000
ACAD_MTEXT_DEFINED_HEIGHT_BEGIN
1070
    46
1040
4.0615484615
1000
ACAD_MTEXT_DEFINED_HEIGHT_END
  0
LINE
  5
1C1
330
1F
100
AcDbEntity
  8
Default
  6
Continuous
 62
     7
100
AcDbLine
 10
9.9999999859
 20
25.9987912971
 30
0.0
 11
199.9999999859
 21
25.9987912971
 31
0.0
  0
LINE
  5
1C2
330
1F
100
AcDbEntity
  8
Default
  6
Continuous
 62
     7
100
AcDbLine
 10
138.2000000051
 20
34.3502211504
 30
0.0
 11
199.9999999859
 21
34.3502211504
 31
0.0
  0
INSERT
  5
1C4
330
1F
100
AcDbEntity
  8
Standard
100
AcDbBlockReference
  2
SEANNOT_GROUP
 10
0.0
 20
0.0
 30
0.0
  0
MULTILEADER
  5
1CA
330
1F
100
AcDbEntity
  8
Standard
  6
Continuous
 62
     7
 92
      224
310
E0000000020000000C00000013000000993A0000CC0000002600000024AC20655A0D60407E6F6387C31D2640000000000000000000000000000000000000000000000000000000000000F03F000000000000F03F0000000000000000000000000000000031003A003100000003000000010000003333333333330940000000
310
000000F03F0000000000000000000000000000F03F00000000000000000000000000000000000000000000000000000000000000002200000053006F006C0069006400200045006400670065002000490053004F00000000000000000000000000
100
AcDbMLeader
300
CONTEXT_DATA{
 40
1.0
 10
126.5558845495
 20
12.6331323918
 30
0.0
 41
3.15
140
4.725
145
1.1025
174
     1
175
     1
176
     0
177
     0
290
     1
304
{\pxsm1.;\fSolid Edge ISO|b0||i0||c0|p34;\W1.;1:1\P}
 11
0.0
 21
0.0
 31
1.0
340
11
 12
128.5558845495
 22
14.2112823918
 32
0.0
 13
1.0
 23
0.0
 33
0.0
 42
0.0
 43
0.0
 44
0.0
 45
1.0
170
     1
 90
-1023410169
171
     1
172
     1
 91
-939524096
141
1.5
 92
        0
291
     0
292
     0
173
     0
293
     0
142
0.0
143
0.0
294
     0
295
     0
296
     0
110
0.0
120
0.0
130
0.0
111
1.0
121
0.0
131
0.0
112
0.0
122
1.0
132
0.0
297
     0
301
}
340
6C
 90
 35119009
170
     0
 91
-1056964608
341
14
171
    -2
290
     1
291
     1
 41
0.0
342
1C7
 42
4.725
172
     2
343
11
173
     1
 95
        1
174
     1
175
     0
 92
-1023410169
292
     0
 93
-1023410169
 10
1.0
 20
1.0
 30
1.0
 43
0.0
176
     0
293
     0
294
     0
178
     0
179
     1
 45
1.0
1001
ACAD_MLEADERVER
1070
     2
  0
MTEXT
  5
1CB
330
1F
100
AcDbEntity
  8
Default
100
AcDbMText
 10
139.7786414766
 20
12.1030055624
 30
0.0
 40
3.0
 41
18.7991063348
 46
5.0845858028
 71
     4
 72
     1
  1
{\fSolid Edge ISO|b0||i0||c0|p34;\C7;\H3.;\W1.;1-162}
 73
     1
 44
1.0
1001
ACAD
1000
ACAD_MTEXT_DEFINED_HEIGHT_BEGIN
1070
    46
1040
5.0845858028
1000
ACAD_MTEXT_DEFINED_HEIGHT_END
  0
MTEXT
  5
1CC
330
1F
100
AcDbEntity
  8
Standard
100
AcDbMText
 10
128.2243715112
 20
21.9523050455
 30
0.0
 40
2.5
 41
4.125011
 46
4.0909190909
 71
     1
 72
     1
  1
{\fSolid Edge ISO|b0||i0||c0|p34;\C7;\H2.5;\W1.;mm}
 73
     1
 44
1.0
1001
ACAD
1000
ACAD_MTEXT_DEFINED_HEIGHT_BEGIN
1070
    46
1040
4.0909190909
1000
ACAD_MTEXT_DEFINED_HEIGHT_END
  0
LINE
  5
1CD
330
1F
100
AcDbEntity
  8
Standard
  6
Continuous
 62
     7
100
AcDbLine
 10
138.2000000051
 20
18.2287912793
 30
0.0
 11
106.3095894048
 21
18.2287912793
 31
0.0
  0
LINE
  5
1CE
330
1F
100
AcDbEntity
  8
Standard
  6
Continuous
 62
     7
100
AcDbLine
 10
106.3095894048
 20
25.9987912971
 30
0.0
 11
106.3095894048
 21
9.9999999541
 31
0.0
  0
MTEXT
  5
1CF
330
1F
100
AcDbEntity
  8
Standard
100
AcDbMText
 10
106.9145404388
 20
25.2290846617
 30
0.0
 40
2.2
 41
14.4015494615
 46
4.0615484615
 71
     1
 72
     1
  1
{\fSolid Edge ANSI|b0||i0||c0|p34;\C7;\H2.2;\W1.;freig.}{\fSolid Edge ANSI|b0||i0||c0|p34;\C7;\H1.5;\W1.;/ appr.}
 73
     1
 44
1.0
1001
ACAD
1000
ACAD_MTEXT_DEFINED_HEIGHT_BEGIN
1070
    46
1040
4.0615484615
1000
ACAD_MTEXT_DEFINED_HEIGHT_END
  0
MTEXT
  5
1D0
330
1F
100
AcDbEntity
  8
Default
100
AcDbMText
 10
107.6188207159
 20
17.6037681847
 30
0.0
 40
2.2
 41
13.1956831311
 46
4.0615484615
 71
     1
 72
     1
  1
{\fSolid Edge ANSI|b0||i0||c0|p34;\C7;\H2.2;\W1.;Blatt}{\fSolid Edge ANSI|b0||i0||c0|p34;\C7;\H1.5;\W1.;/ sheet}
 73
     1
 44
1.0
1001
ACAD
1000
ACAD_MTEXT_DEFINED_HEIGHT_BEGIN
1070
    46
1040
4.0615484615
1000
ACAD_MTEXT_DEFINED_HEIGHT_END
  0
MTEXT
  5
1D1
330
1F
100
AcDbEntity
  8
Standard
100
AcDbMText
 10
112.0531670475
 20
14.2192192227
 30
0.0
 40
3.0
 41
3.750011
 46
4.9091009091
 71
     1
 72
     1
  1
{\fSolid Edge ISO|b0||i0||c0|p34;\C7;\H3.;\W1.;A4}
 73
     1
 44
1.0
1001
ACAD
1000
ACAD_MTEXT_DEFINED_HEIGHT_BEGIN
1070
    46
1040
4.9091009091
1000
ACAD_MTEXT_DEFINED_HEIGHT_END
  0
MTEXT
  5
1D2
330
1F
100
AcDbEntity
  8
Default
100
AcDbMText
 10
107.1395513873
 20
20.4081738308
 30
0.0
 40
2.2
 41
14.7330465525
 46
3.6
 71
     4
 72
     1
  1
{\fSolid Edge ISO|b0||i0||c0|p34;\C7;\H2.2;\W1.;03.08.2023}
 73
     1
 44
1.0
1001
ACAD
1000
ACAD_MTEXT_DEFINED_HEIGHT_BEGIN
1070
    46
1040
3.6
1000
ACAD_MTEXT_DEFINED_HEIGHT_END
  0
MTEXT
  5
1D3
330
1F
100
AcDbEntity
  8
Standard
100
AcDbMText
 10
10.6587314417
 20
33.7981133176
 30
0.0
 40
1.2
 41
127.5412685634
 46
8.1685527897
 71
     1
 72
     1
  3
{\fSolid Edge ANSI|b0||i0||c0|p34;\C7;\H1.2;\W1.;Weitergabe sowie Vervielfältigung dieser vertraulichen Unterlage(n), Verwertung und Mitteilung ihres Inhalts nicht ohne unsere vorherige schriftliche Genehmigung gestattet. \P}{\fSolid Edge ANSI|b0||i0
  3
||c0|p34;\C7;\H1.2;\W1.;Zuwiderhandlungen verpflichten zu Schadenersatz. Alle Rechte für den Fall der Patenterteilung oder Gebrauchsmuster-Eintragung vorbehalten.\P}{\fSolid Edge ANSI|b0||i0||c0|p34;\C7;\H1.;\W1.;The copying, use, distribution or dis
  3
closure of the confidential and proprietary information contained in this document(s) is strictly prohibited without prior written consent. Any breach shall subject the \P}{\fSolid Edge ANSI|b0||i0||c0|p34;\C7;\H1.;\W1.;infringing party to remedies. 
  1
The owner reserves all rights in the event of the grant of a patent or the registration of a utility model or design.}
 73
     1
 44
1.0
1001
ACAD
1000
ACAD_MTEXT_DEFINED_HEIGHT_BEGIN
1070
    46
1040
8.1685527897
1000
ACAD_MTEXT_DEFINED_HEIGHT_END
  0
MTEXT
  5
1D4
330
1F
100
AcDbEntity
  8
Default
100
AcDbMText
 10
139.5531289039
 20
20.5520608538
 30
0.0
 40
2.5
 41
59.872727305
 46
4.6153946154
 71
     4
 72
     1
  1
{\fSolid Edge ISO|b0||i0||c0|p34;\C7;\H2.5;\W1.;technische Zeichnung_mkt}
 73
     1
 44
1.0
1001
ACAD
1000
ACAD_MTEXT_DEFINED_HEIGHT_BEGIN
1070
    46
1040
4.6153946154
1000
ACAD_MTEXT_DEFINED_HEIGHT_END
  0
MTEXT
  5
1D5
330
1F
100
AcDbEntity
  8
Default
100
AcDbMText
 10
139.645932934
 20
25.5772390452
 30
0.0
 40
2.2
 41
33.0612482929
 46
4.0615484615
 71
     1
 72
     1
  1
{\fSolid Edge ANSI|b0||i0||c0|p34;\C7;\H2.2;\W1.;Zeichnungsart}{\fSolid Edge ANSI|b0||i0||c0|p34;\C7;\H1.5;\W1.;/ drawing type}
 73
     1
 44
1.0
1001
ACAD
1000
ACAD_MTEXT_DEFINED_HEIGHT_BEGIN
1070
    46
1040
4.0615484615
1000
ACAD_MTEXT_DEFINED_HEIGHT_END
  0
MTEXT
  5
1D6
330
1F
100
AcDbEntity
  8
Standard
100
AcDbMText
 10
122.722860057
 20
25.1473558409
 30
0.0
 40
2.2
 41
15.8428315128
 46
4.0615484615
 71
     1
 72
     1
  1
{\fSolid Edge ANSI|b0||i0||c0|p34;\C7;\H2.2;\W1.;Einheit}{\fSolid Edge ANSI|b0||i0||c0|p34;\C7;\H1.5;\W1.;/ unit}
 73
     1
 44
1.0
1001
ACAD
1000
ACAD_MTEXT_DEFINED_HEIGHT_BEGIN
1070
    46
1040
4.0615484615
1000
ACAD_MTEXT_DEFINED_HEIGHT_END
  0
LINE
  5
1D7
330
1F
100
AcDbEntity
  8
Standard
  6
Continuous
 62
     7
100
AcDbLine
 10
122.1841943695
 20
25.9987912971
 30
0.0
 11
122.1841943695
 21
10.0
 31
0.0
  0
LINE
  5
1D8
330
1F
100
AcDbEntity
  8
Standard
  6
Continuous
 62
     7
100
AcDbLine
 10
138.2000000051
 20
18.2287912793
 30
0.0
 11
200.0
 21
18.2287912793
 31
0.0
  0
LINE
  5
1D9
330
1F
100
AcDbEntity
  8
Standard
  6
Continuous
 62
     7
100
AcDbLine
 10
138.2000000051
 20
34.3502211504
 30
0.0
 11
10.0
 21
34.3502211504
 31
0.0
  0
LINE
  5
1DB
330
1F
100
AcDbEntity
  8
Skizziergeometrie(DIN)
  6
Continuous
 62
     7
100
AcDbLine
 10
10.0
 20
287.0
 30
0.0
 11
200.0
 21
287.0
 31
0.0
  0
LINE
  5
1DC
330
1F
100
AcDbEntity
  8
Skizziergeometrie(DIN)
  6
Continuous
 62
     7
100
AcDbLine
 10
200.0
 20
287.0
 30
0.0
 11
200.0
 21
9.9999926436
 31
0.0
  0
LINE
  5
1DD
330
1F
100
AcDbEntity
  8
Skizziergeometrie(DIN)
  6
Continuous
 62
     7
100
AcDbLine
 10
200.0
 20
9.9999926436
 30
0.0
 11
10.0
 21
9.9999926436
 31
0.0
  0
LINE
  5
1DE
330
1F
100
AcDbEntity
  8
Skizziergeometrie(DIN)
  6
Continuous
 62
     7
100
AcDbLine
 10
10.0
 20
10.0
 30
0.0
 11
10.0
 21
287.0
 31
0.0
  0
IMAGE
  5
1E2
330
1F
100
AcDbEntity
  8
0
 92
      140
310
8C000000010000008400000006000000050000000E64D78BE9972B40BC01B030F29425400000000000000000559114E8E5774740BC01B030F29425400000000000000000559114E8E5774740017F9619FA7E384000000000000000000E64D78BE9972B40017F9619FA7E384000000000000000000E64D78BE9972B40BC01B0
310
30F29425400000000000000000
100
AcDbRasterImage
 90
        0
 10
13.7967036915
 20
10.7909102645
 30
0.0
 11
0.07742990654205607
 21
0.0
 31
0.0
 12
0.0
 22
0.07742990654205609
 32
0.0
 13
428.0
 23
177.0
340
1E1
 70
     7
280
     0
281
    50
282
    50
283
     0
360
1E3
 71
     1
 91
        2
 14
-0.5
 24
-0.5
 14
427.5
 24
176.5
  0
ENDSEC
  0
SECTION
  2
OBJECTS
  0
DICTIONARY
  5
C
330
0
100
AcDbDictionary
281
     1
  3
ACAD_DETAILVIEWSTYLE
350
21F
  3
ACAD_GROUP
350
D
  3
ACAD_IMAGE_DICT
350
1E0
  3
ACAD_IMAGE_VARS
350
1DF
  3
ACAD_LAYOUT
350
1A
  3
ACAD_MATERIAL
350
43
  3
ACAD_MLEADERSTYLE
350
6B
  3
ACAD_MLINESTYLE
350
17
  3
ACAD_PLOTSETTINGS
350
19
  3
ACAD_PLOTSTYLENAME
350
E
  3
ACAD_SCALELIST
350
47
  3
ACAD_SECTIONVIEWSTYLE
350
220
  3
ACAD_TABLESTYLE
350
69
  3
ACAD_VISUALSTYLE
350
2A
  3
ACDB_RECOMPOSE_DATA
350
21C
  3
AcDbVariableDictionary
350
1E5
  0
SUN
  5
6D
330
29
100
AcDbSun
 90
        1
290
     0
 63
     7
421
 16777215
 40
1.0
291
     1
 91
  2455826
 92
 54000000
292
     0
 70
     2
 71
   256
280
     1
  0
IMAGEDEF_REACTOR
  5
1E3
330
1E2
100
AcDbRasterImageDefReactor
 90
        2
330
1E2
  0
DICTIONARY
  5
21F
102
{ACAD_REACTORS
330
C
102
}
330
C
100
AcDbDictionary
281
     1
  0
DICTIONARY
  5
D
102
{ACAD_REACTORS
330
C
102
}
330
C
100
AcDbDictionary
281
     1
  0
DICTIONARY
  5
1E0
102
{ACAD_REACTORS
330
C
102
}
330
C
100
AcDbDictionary
281
     1
  3
1-162-1x_1.bmp
350
1E1
  0
RASTERVARIABLES
  5
1DF
102
{ACAD_REACTORS
330
C
102
}
330
C
100
AcDbRasterVariables
 90
        0
 70
     1
 71
     1
 72
     1
  0
DICTIONARY
  5
1A
102
{ACAD_REACTORS
330
C
102
}
330
C
100
AcDbDictionary
281
     1
  3
Layout1
350
1E
  3
Model
350
22
  0
DICTIONARY
  5
43
102
{ACAD_REACTORS
330
C
102
}
330
C
100
AcDbDictionary
281
     1
  3
ByBlock
350
45
  3
ByLayer
350
44
  3
Global
350
46
  0
DICTIONARY
  5
6B
102
{ACAD_REACTORS
330
C
102
}
330
C
100
AcDbDictionary
281
     1
  3
Standard
350
6C
  0
DICTIONARY
  5
17
102
{ACAD_REACTORS
330
C
102
}
330
C
100
AcDbDictionary
281
     1
  3
Standard
350
18
  0
DICTIONARY
  5
19
102
{ACAD_REACTORS
330
C
102
}
330
C
100
AcDbDictionary
281
     1
  0
ACDBDICTIONARYWDFLT
  5
E
102
{ACAD_REACTORS
330
C
102
}
330
C
100
AcDbDictionary
281
     1
  3
Normal
350
F
100
AcDbDictionaryWithDefault
340
F
  0
DICTIONARY
  5
47
102
{ACAD_REACTORS
330
C
102
}
330
C
100
AcDbDictionary
281
     1
  3
A0
350
48
  3
A1
350
49
  3
A2
350
4A
  3
A3
350
4B
  3
A4
350
4C
  3
A5
350
4D
  3
A6
350
4E
  3
A7
350
4F
  3
A8
350
50
  3
A9
350
51
  3
B0
350
52
  3
B1
350
53
  3
B2
350
54
  3
B3
350
55
  3
B4
350
56
  3
B5
350
57
  3
B6
350
58
  3
B7
350
59
  3
B8
350
5A
  3
B9
350
5B
  3
C0
350
5C
  3
C1
350
5D
  3
C2
350
5E
  3
C3
350
5F
  3
C4
350
60
  3
C5
350
61
  3
C6
350
62
  3
C7
350
63
  3
C8
350
64
  3
C9
350
65
  3
D0
350
66
  3
D1
350
67
  3
D2
350
68
  0
DICTIONARY
  5
220
102
{ACAD_REACTORS
330
C
102
}
330
C
100
AcDbDictionary
281
     1
  0
DICTIONARY
  5
69
102
{ACAD_REACTORS
330
C
102
}
330
C
100
AcDbDictionary
281
     1
  3
Standard
350
6A
  0
DICTIONARY
  5
2A
102
{ACAD_REACTORS
330
C
102
}
330
C
100
AcDbDictionary
281
     1
  3
2dWireframe
350
2F
  3
Basic
350
32
  3
Brighten
350
36
  3
ColorChange
350
3A
  3
Conceptual
350
34
  3
Dim
350
35
  3
EdgeColorOff
350
3D
  3
Facepattern
350
39
  3
Flat
350
2B
  3
FlatWithEdges
350
2C
  3
Gouraud
350
2D
  3
GouraudWithEdges
350
2E
  3
Hidden
350
31
  3
JitterOff
350
3B
  3
Linepattern
350
38
  3
OverhangOff
350
3C
  3
Realistic
350
33
  3
Shaded
350
42
  3
Shaded with edges
350
41
  3
Shades of Gray
350
3E
  3
Sketchy
350
3F
  3
Thicken
350
37
  3
Wireframe
350
30
  3
X-Ray
350
40
  0
XRECORD
  5
21C
102
{ACAD_REACTORS
330
C
102
}
330
C
100
AcDbXrecord
280
     1
 90
        1
330
6A
  0
DICTIONARY
  5
1E5
102
{ACAD_REACTORS
330
C
102
}
330
C
100
AcDbDictionary
281
     1
  3
CANNOSCALE
350
1E6
  3
CENTEREXE
350
221
  3
CENTERLTYPEFILE
350
222
  3
CMLEADERSTYLE
350
21E
  3
CTABLESTYLE
350
21D
  3
XCLIPFRAME
350
1E7
  0
IMAGEDEF
  5
1E1
102
{ACAD_REACTORS
330
1E0
330
1E3
102
}
330
1E0
100
AcDbRasterImageDef
 90
        0
  1
1-162-1x_1.bmp
 10
428.0
 20
177.0
 11
0.002336448598130841
 21
0.002336448598130841
280
     1
281
     5
  0
LAYOUT
  5
1E
102
{ACAD_REACTORS
330
1A
102
}
330
1A
100
AcDbPlotSettings
  1

  2
none_device
  4

  6

 40
0.0
 41
0.0
 42
0.0
 43
0.0
 44
0.0
 45
0.0
 46
0.0
 47
0.0
 48
0.0
 49
0.0
140
0.0
141
0.0
142
1.0
143
1.0
 70
   688
 72
     1
 73
     0
 74
     5
  7

 75
    16
 76
     0
 77
     2
 78
   300
147
1.0
148
0.0
149
0.0
100
AcDbLayout
  1
Layout1
 70
     1
 71
     1
 10
0.0
 20
0.0
 11
210.0
 21
297.0
 12
0.0
 22
0.0
 32
0.0
 14
0.0
 24
0.0
 34
0.0
 15
210.0
 25
297.0
 35
0.0
146
0.0
 13
0.0
 23
0.0
 33
0.0
 16
1.0
 26
0.0
 36
0.0
 17
0.0
 27
1.0
 37
0.0
 76
     0
330
1B
  0
LAYOUT
  5
22
102
{ACAD_REACTORS
330
1A
102
}
330
1A
100
AcDbPlotSettings
  1

  2
none_device
  4
Letter_(8.50_x_11.00_Inches)
  6

 40
6.35
 41
6.35
 42
6.35000508
 43
6.35000508
 44
215.9
 45
279.4
 46
0.0
 47
0.0
 48
0.0
 49
0.0
140
0.0
141
0.0
142
1.0
143
1.0
 70
  1712
 72
     1
 73
     0
 74
     0
  7

 75
     0
 76
     0
 77
     2
 78
   300
147
1.0
148
0.0
149
0.0
100
AcDbLayout
  1
Model
 70
     1
 71
     0
 10
0.0
 20
0.0
 11
210.0
 21
297.0
 12
0.0
 22
0.0
 32
0.0
 14
0.0
 24
0.0
 34
0.0
 15
210.0
 25
297.0
 35
0.0
146
0.0
 13
0.0
 23
0.0
 33
0.0
 16
1.0
 26
0.0
 36
0.0
 17
0.0
 27
1.0
 37
0.0
 76
     0
330
1F
331
29
  0
MATERIAL
  5
45
102
{ACAD_REACTORS
330
43
102
}
330
43
100
AcDbMaterial
  1
ByBlock
 72
     1
 94
      127
  0
MATERIAL
  5
44
102
{ACAD_REACTORS
330
43
102
}
330
43
100
AcDbMaterial
  1
ByLayer
 72
     1
 94
      127
  0
MATERIAL
  5
46
102
{ACAD_REACTORS
330
43
102
}
330
43
100
AcDbMaterial
  1
Global
 72
     1
 94
      127
  0
MLEADERSTYLE
  5
6C
102
{ACAD_REACTORS
330
6B
102
}
102
{ACAD_XDICTIONARY
360
21A
102
}
330
6B
100
AcDbMLeaderStyle
170
     2
171
     1
172
     0
 90
        2
 40
0.0
 41
0.0
173
     1
 91
-1056964608
340
14
 92
       -2
290
     1
 42
2.0
291
     1
 43
8.0
  3
Standard
341
0
 44
4.0
300

342
11
174
     1
178
     6
175
     1
176
     0
 93
-1056964608
 45
4.0
292
     0
297
     0
 46
4.0
343
0
 94
-1056964608
 47
1.0
 49
1.0
140
1.0
293
     1
141
0.0
294
     1
177
     0
142
1.0
295
     0
296
     0
143
3.75
1001
ACAD_MLEADERVER
1070
     2
  0
MLINESTYLE
  5
18
102
{ACAD_REACTORS
330
17
102
}
330
17
100
AcDbMlineStyle
  2
Standard
 70
     0
  3

 62
   256
 51
90.0
 52
90.0
 71
     2
 49
0.5
 62
   256
  6
BYLAYER
 49
-0.5
 62
   256
  6
BYLAYER
  0
ACDBPLACEHOLDER
  5
F
102
{ACAD_REACTORS
330
E
102
}
330
E
  0
SCALE
  5
48
102
{ACAD_REACTORS
330
47
102
}
330
47
100
AcDbScale
 70
     0
300
1:1
140
1.0
141
1.0
290
     1
  0
SCALE
  5
49
102
{ACAD_REACTORS
330
47
102
}
330
47
100
AcDbScale
 70
     0
300
1:2
140
1.0
141
2.0
290
     0
  0
SCALE
  5
4A
102
{ACAD_REACTORS
330
47
102
}
330
47
100
AcDbScale
 70
     0
300
1:4
140
1.0
141
4.0
290
     0
  0
SCALE
  5
4B
102
{ACAD_REACTORS
330
47
102
}
330
47
100
AcDbScale
 70
     0
300
1:5
140
1.0
141
5.0
290
     0
  0
SCALE
  5
4C
102
{ACAD_REACTORS
330
47
102
}
330
47
100
AcDbScale
 70
     0
300
1:8
140
1.0
141
8.0
290
     0
  0
SCALE
  5
4D
102
{ACAD_REACTORS
330
47
102
}
330
47
100
AcDbScale
 70
     0
300
1:10
140
1.0
141
10.0
290
     0
  0
SCALE
  5
4E
102
{ACAD_REACTORS
330
47
102
}
330
47
100
AcDbScale
 70
     0
300
1:16
140
1.0
141
16.0
290
     0
  0
SCALE
  5
4F
102
{ACAD_REACTORS
330
47
102
}
330
47
100
AcDbScale
 70
     0
300
1:20
140
1.0
141
20.0
290
     0
  0
SCALE
  5
50
102
{ACAD_REACTORS
330
47
102
}
330
47
100
AcDbScale
 70
     0
300
1:30
140
1.0
141
30.0
290
     0
  0
SCALE
  5
51
102
{ACAD_REACTORS
330
47
102
}
330
47
100
AcDbScale
 70
     0
300
1:40
140
1.0
141
40.0
290
     0
  0
SCALE
  5
52
102
{ACAD_REACTORS
330
47
102
}
330
47
100
AcDbScale
 70
     0
300
1:50
140
1.0
141
50.0
290
     0
  0
SCALE
  5
53
102
{ACAD_REACTORS
330
47
102
}
330
47
100
AcDbScale
 70
     0
300
1:100
140
1.0
141
100.0
290
     0
  0
SCALE
  5
54
102
{ACAD_REACTORS
330
47
102
}
330
47
100
AcDbScale
 70
     0
300
2:1
140
2.0
141
1.0
290
     0
  0
SCALE
  5
55
102
{ACAD_REACTORS
330
47
102
}
330
47
100
AcDbScale
 70
     0
300
4:1
140
4.0
141
1.0
290
     0
  0
SCALE
  5
56
102
{ACAD_REACTORS
330
47
102
}
330
47
100
AcDbScale
 70
     0
300
8:1
140
8.0
141
1.0
290
     0
  0
SCALE
  5
57
102
{ACAD_REACTORS
330
47
102
}
330
47
100
AcDbScale
 70
     0
300
10:1
140
10.0
141
1.0
290
     0
  0
SCALE
  5
58
102
{ACAD_REACTORS
330
47
102
}
330
47
100
AcDbScale
 70
     0
300
100:1
140
100.0
141
1.0
290
     0
  0
SCALE
  5
59
102
{ACAD_REACTORS
330
47
102
}
330
47
100
AcDbScale
 70
     0
300
1/128" = 1'-0"
140
0.0078125
141
12.0
290
     0
  0
SCALE
  5
5A
102
{ACAD_REACTORS
330
47
102
}
330
47
100
AcDbScale
 70
     0
300
1/64" = 1'-0"
140
0.015625
141
12.0
290
     0
  0
SCALE
  5
5B
102
{ACAD_REACTORS
330
47
102
}
330
47
100
AcDbScale
 70
     0
300
1/32" = 1'-0"
140
0.03125
141
12.0
290
     0
  0
SCALE
  5
5C
102
{ACAD_REACTORS
330
47
102
}
330
47
100
AcDbScale
 70
     0
300
1/16" = 1'-0"
140
0.0625
141
12.0
290
     0
  0
SCALE
  5
5D
102
{ACAD_REACTORS
330
47
102
}
330
47
100
AcDbScale
 70
     0
300
3/32" = 1'-0"
140
0.09375
141
12.0
290
     0
  0
SCALE
  5
5E
102
{ACAD_REACTORS
330
47
102
}
330
47
100
AcDbScale
 70
     0
300
1/8" = 1'-0"
140
0.125
141
12.0
290
     0
  0
SCALE
  5
5F
102
{ACAD_REACTORS
330
47
102
}
330
47
100
AcDbScale
 70
     0
300
3/16" = 1'-0"
140
0.1875
141
12.0
290
     0
  0
SCALE
  5
60
102
{ACAD_REACTORS
330
47
102
}
330
47
100
AcDbScale
 70
     0
300
1/4" = 1'-0"
140
0.25
141
12.0
290
     0
  0
SCALE
  5
61
102
{ACAD_REACTORS
330
47
102
}
330
47
100
AcDbScale
 70
     0
300
3/8" = 1'-0"
140
0.375
141
12.0
290
     0
  0
SCALE
  5
62
102
{ACAD_REACTORS
330
47
102
}
330
47
100
AcDbScale
 70
     0
300
1/2" = 1'-0"
140
0.5
141
12.0
290
     0
  0
SCALE
  5
63
102
{ACAD_REACTORS
330
47
102
}
330
47
100
AcDbScale
 70
     0
300
3/4" = 1'-0"
140
0.75
141
12.0
290
     0
  0
SCALE
  5
64
102
{ACAD_REACTORS
330
47
102
}
330
47
100
AcDbScale
 70
     0
300
1" = 1'-0"
140
1.0
141
12.0
290
     0
  0
SCALE
  5
65
102
{ACAD_REACTORS
330
47
102
}
330
47
100
AcDbScale
 70
     0
300
1-1/2" = 1'-0"
140
1.5
141
12.0
290
     0
  0
SCALE
  5
66
102
{ACAD_REACTORS
330
47
102
}
330
47
100
AcDbScale
 70
     0
300
3" = 1'-0"
140
3.0
141
12.0
290
     0
  0
SCALE
  5
67
102
{ACAD_REACTORS
330
47
102
}
330
47
100
AcDbScale
 70
     0
300
6" = 1'-0"
140
6.0
141
12.0
290
     0
  0
SCALE
  5
68
102
{ACAD_REACTORS
330
47
102
}
330
47
100
AcDbScale
 70
     0
300
1'-0" = 1'-0"
140
12.0
141
12.0
290
     0
  0
TABLESTYLE
  5
6A
102
{ACAD_REACTORS
330
69
102
}
102
{ACAD_XDICTIONARY
360
218
102
}
330
69
100
AcDbTableStyle
  3
Standard
 70
     0
 71
     0
 40
0.06
 41
0.06
280
     0
281
     0
  7
Standard
140
4.5
170
     2
 62
     0
 63
   257
283
     0
 90
        4
 91
        0
  1

274
    -2
284
     1
 64
     0
275
    -2
285
     1
 65
     0
276
    -2
286
     1
 66
     0
277
    -2
287
     1
 67
     0
278
    -2
288
     1
 68
     0
279
    -2
289
     1
 69
     0
  7
Standard
140
6.0
170
     5
 62
     0
 63
   257
283
     0
 90
        4
 91
        0
  1

274
    -2
284
     1
 64
     0
275
    -2
285
     1
 65
     0
276
    -2
286
     1
 66
     0
277
    -2
287
     1
 67
     0
278
    -2
288
     1
 68
     0
279
    -2
289
     1
 69
     0
  7
Standard
140
4.5
170
     5
 62
     0
 63
   257
283
     0
 90
        4
 91
        0
  1

274
    -2
284
     1
 64
     0
275
    -2
285
     1
 65
     0
276
    -2
286
     1
 66
     0
277
    -2
287
     1
 67
     0
278
    -2
288
     1
 68
     0
279
    -2
289
     1
 69
     0
  0
VISUALSTYLE
  5
2F
102
{ACAD_REACTORS
330
2A
102
}
102
{ACAD_XDICTIONARY
360
1F0
102
}
330
2A
100
AcDbVisualStyle
  2
2dWireframe
 70
     4
 71
     0
 72
     2
 73
     0
 90
        0
 40
0.6
 41
30.0
 62
     5
 63
     7
421
 16777215
 74
     1
 91
        4
 64
     7
 65
   257
 75
     1
175
     1
 42
1.0
 92
        0
 66
   257
 43
1.0
 76
     1
 77
     6
 78
     2
 67
     7
 79
     5
170
     0
171
     0
290
     0
174
     0
 93
        1
 44
0.0
173
     0
291
     0
 45
0.0
  0
VISUALSTYLE
  5
32
102
{ACAD_REACTORS
330
2A
102
}
102
{ACAD_XDICTIONARY
360
1F6
102
}
330
2A
100
AcDbVisualStyle
  2
Basic
 70
     7
 71
     1
 72
     0
 73
     1
 90
        0
 40
0.6
 41
30.0
 62
     5
 63
     7
421
 16777215
 74
     0
 91
        4
 64
     7
 65
   257
 75
     1
175
     1
 42
1.0
 92
        8
 66
     7
 43
1.0
 76
     1
 77
     6
 78
     2
 67
     7
 79
     5
170
     0
171
     0
290
     0
174
     0
 93
        1
 44
0.0
173
     0
291
     1
 45
0.0
  0
VISUALSTYLE
  5
36
102
{ACAD_REACTORS
330
2A
102
}
102
{ACAD_XDICTIONARY
360
1FE
102
}
330
2A
100
AcDbVisualStyle
  2
Brighten
 70
    12
 71
     2
 72
     2
 73
     0
 90
        0
 40
0.6
 41
30.0
 62
     5
 63
     7
421
 16777215
 74
     1
 91
        4
 64
     7
 65
   257
 75
     1
175
     1
 42
1.0
 92
        8
 66
     7
 43
1.0
 76
     1
 77
     6
 78
     2
 67
     7
 79
     5
170
     0
171
     0
290
     0
174
     0
 93
        1
 44
50.0
173
     0
291
     1
 45
0.0
  0
VISUALSTYLE
  5
3A
102
{ACAD_REACTORS
330
2A
102
}
102
{ACAD_XDICTIONARY
360
206
102
}
330
2A
100
AcDbVisualStyle
  2
ColorChange
 70
    16
 71
     2
 72
     2
 73
     3
 90
        0
 40
0.6
 41
30.0
 62
     5
 63
     8
421
  8421504
 74
     1
 91
        4
 64
     7
 65
   257
 75
     1
175
     1
 42
1.0
 92
        8
 66
     8
424
  8421504
 43
1.0
 76
     1
 77
     6
 78
     2
 67
     7
 79
     5
170
     0
171
     0
290
     0
174
     0
 93
        1
 44
0.0
173
     0
291
     1
 45
0.0
  0
VISUALSTYLE
  5
34
102
{ACAD_REACTORS
330
2A
102
}
102
{ACAD_XDICTIONARY
360
1FA
102
}
330
2A
100
AcDbVisualStyle
  2
Conceptual
 70
     9
 71
     3
 72
     2
 73
     0
 90
        0
 40
0.6
 41
30.0
 62
     5
 63
     7
421
 16777215
 74
     2
 91
        2
 64
     7
 65
   257
 75
     1
175
     1
 42
179.0
 92
        8
 66
     7
 43
1.0
 76
     1
 77
     6
 78
     2
 67
     7
 79
     3
170
     0
171
     0
290
     0
174
     0
 93
        1
 44
0.0
173
     0
291
     0
 45
0.0
  0
VISUALSTYLE
  5
35
102
{ACAD_REACTORS
330
2A
102
}
102
{ACAD_XDICTIONARY
360
1FC
102
}
330
2A
100
AcDbVisualStyle
  2
Dim
 70
    11
 71
     2
 72
     2
 73
     0
 90
        0
 40
0.6
 41
30.0
 62
     5
 63
     7
421
 16777215
 74
     1
 91
        4
 64
     7
 65
   257
 75
     1
175
     1
 42
1.0
 92
        8
 66
     7
 43
1.0
 76
     1
 77
     6
 78
     2
 67
     7
 79
     5
170
     0
171
     0
290
     0
174
     0
 93
        1
 44
-50.0
173
     0
291
     1
 45
0.0
  0
VISUALSTYLE
  5
3D
102
{ACAD_REACTORS
330
2A
102
}
102
{ACAD_XDICTIONARY
360
20C
102
}
330
2A
100
AcDbVisualStyle
  2
EdgeColorOff
 70
    22
 71
     2
 72
     2
 73
     0
 90
        0
 40
0.6
 41
30.0
 62
     5
 63
     7
421
 16777215
 74
     1
 91
        4
 64
     7
 65
   257
 75
     1
175
     1
 42
1.0
 92
        8
 66
     7
 43
1.0
 76
     1
 77
     6
 78
     2
 67
     7
 79
     5
170
     0
171
     0
290
     0
174
     0
 93
        1
 44
0.0
173
     0
291
     1
 45
0.0
  0
VISUALSTYLE
  5
39
102
{ACAD_REACTORS
330
2A
102
}
102
{ACAD_XDICTIONARY
360
204
102
}
330
2A
100
AcDbVisualStyle
  2
Facepattern
 70
    15
 71
     2
 72
     2
 73
     0
 90
        0
 40
0.6
 41
30.0
 62
     5
 63
     7
421
 16777215
 74
     1
 91
        4
 64
     7
 65
   257
 75
     1
175
     1
 42
1.0
 92
        8
 66
     7
 43
1.0
 76
     1
 77
     6
 78
     2
 67
     7
 79
     5
170
     0
171
     0
290
     0
174
     0
 93
        1
 44
0.0
173
     0
291
     1
 45
0.0
  0
VISUALSTYLE
  5
2B
102
{ACAD_REACTORS
330
2A
102
}
102
{ACAD_XDICTIONARY
360
1E8
102
}
330
2A
100
AcDbVisualStyle
  2
Flat
 70
     0
 71
     2
 72
     1
 73
     1
 90
        2
 40
0.6
 41
30.0
 62
     5
 63
     7
421
 16777215
 74
     0
 91
        0
 64
     7
 65
   257
 75
     1
175
     1
 42
1.0
 92
        8
 66
     7
 43
1.0
 76
     1
 77
     6
 78
     2
 67
     7
 79
     5
170
     0
171
     0
290
     0
174
     0
 93
       13
 44
0.0
173
     0
291
     1
 45
0.0
  0
VISUALSTYLE
  5
2C
102
{ACAD_REACTORS
330
2A
102
}
102
{ACAD_XDICTIONARY
360
1EA
102
}
330
2A
100
AcDbVisualStyle
  2
FlatWithEdges
 70
     1
 71
     2
 72
     1
 73
     1
 90
        2
 40
0.6
 41
30.0
 62
     5
 63
     7
421
 16777215
 74
     1
 91
        0
 64
     7
 65
   257
 75
     1
175
     1
 42
1.0
 92
        0
 66
   257
 43
1.0
 76
     1
 77
     6
 78
     2
 67
     7
 79
     5
170
     0
171
     0
290
     0
174
     0
 93
       13
 44
0.0
173
     0
291
     1
 45
0.0
  0
VISUALSTYLE
  5
2D
102
{ACAD_REACTORS
330
2A
102
}
102
{ACAD_XDICTIONARY
360
1EC
102
}
330
2A
100
AcDbVisualStyle
  2
Gouraud
 70
     2
 71
     2
 72
     2
 73
     1
 90
        2
 40
0.6
 41
30.0
 62
     5
 63
     7
421
 16777215
 74
     0
 91
        0
 64
     7
 65
   257
 75
     1
175
     1
 42
1.0
 92
        0
 66
     7
 43
1.0
 76
     1
 77
     6
 78
     2
 67
     7
 79
     5
170
     0
171
     0
290
     0
174
     0
 93
       13
 44
0.0
173
     0
291
     1
 45
0.0
  0
VISUALSTYLE
  5
2E
102
{ACAD_REACTORS
330
2A
102
}
102
{ACAD_XDICTIONARY
360
1EE
102
}
330
2A
100
AcDbVisualStyle
  2
GouraudWithEdges
 70
     3
 71
     2
 72
     2
 73
     1
 90
        2
 40
0.6
 41
30.0
 62
     5
 63
     7
421
 16777215
 74
     1
 91
        0
 64
     7
 65
   257
 75
     1
175
     1
 42
1.0
 92
        0
 66
   257
 43
1.0
 76
     1
 77
     6
 78
     2
 67
     7
 79
     5
170
     0
171
     0
290
     0
174
     0
 93
       13
 44
0.0
173
     0
291
     1
 45
0.0
  0
VISUALSTYLE
  5
31
102
{ACAD_REACTORS
330
2A
102
}
102
{ACAD_XDICTIONARY
360
1F4
102
}
330
2A
100
AcDbVisualStyle
  2
Hidden
 70
     6
 71
     1
 72
     2
 73
     2
 90
        0
 40
0.6
 41
30.0
 62
     5
 63
     7
421
 16777215
 74
     2
 91
        2
 64
     7
 65
   257
 75
     2
175
     1
 42
40.0
 92
        0
 66
   257
 43
1.0
 76
     1
 77
     6
 78
     2
 67
     7
 79
     3
170
     0
171
     0
290
     0
174
     0
 93
        1
 44
0.0
173
     0
291
     0
 45
0.0
  0
VISUALSTYLE
  5
3B
102
{ACAD_REACTORS
330
2A
102
}
102
{ACAD_XDICTIONARY
360
208
102
}
330
2A
100
AcDbVisualStyle
  2
JitterOff
 70
    20
 71
     2
 72
     2
 73
     0
 90
        0
 40
0.6
 41
30.0
 62
     5
 63
     7
421
 16777215
 74
     1
 91
        4
 64
     7
 65
   257
 75
     1
175
     1
 42
1.0
 92
       10
 66
     7
 43
1.0
 76
     1
 77
     6
 78
     2
 67
     7
 79
     5
170
     0
171
     0
290
     0
174
     0
 93
        1
 44
0.0
173
     0
291
     1
 45
0.0
  0
VISUALSTYLE
  5
38
102
{ACAD_REACTORS
330
2A
102
}
102
{ACAD_XDICTIONARY
360
202
102
}
330
2A
100
AcDbVisualStyle
  2
Linepattern
 70
    14
 71
     2
 72
     2
 73
     0
 90
        0
 40
0.6
 41
30.0
 62
     5
 63
     7
421
 16777215
 74
     1
 91
        4
 64
     7
 65
   257
 75
     7
175
     7
 42
1.0
 92
        8
 66
     7
 43
1.0
 76
     1
 77
     6
 78
     2
 67
     7
 79
     5
170
     0
171
     0
290
     0
174
     0
 93
        1
 44
0.0
173
     0
291
     1
 45
0.0
  0
VISUALSTYLE
  5
3C
102
{ACAD_REACTORS
330
2A
102
}
102
{ACAD_XDICTIONARY
360
20A
102
}
330
2A
100
AcDbVisualStyle
  2
OverhangOff
 70
    21
 71
     2
 72
     2
 73
     0
 90
        0
 40
0.6
 41
30.0
 62
     5
 63
     7
421
 16777215
 74
     1
 91
        4
 64
     7
 65
   257
 75
     1
175
     1
 42
1.0
 92
        9
 66
     7
 43
1.0
 76
     1
 77
     6
 78
     2
 67
     7
 79
     5
170
     0
171
     0
290
     0
174
     0
 93
        1
 44
0.0
173
     0
291
     1
 45
0.0
  0
VISUALSTYLE
  5
33
102
{ACAD_REACTORS
330
2A
102
}
102
{ACAD_XDICTIONARY
360
1F8
102
}
330
2A
100
AcDbVisualStyle
  2
Realistic
 70
     8
 71
     2
 72
     3
 73
     0
 90
        2
 40
0.6
 41
30.0
 62
     5
 63
     7
421
 16777215
 74
     0
 91
        0
 64
     7
 65
   257
 75
     1
175
     1
 42
1.0
 92
        8
 66
   257
 43
1.0
 76
     1
 77
     6
 78
     2
 67
     7
 79
     3
170
     0
171
     0
290
     0
174
     0
 93
       13
 44
0.0
173
     0
291
     0
 45
0.0
  0
VISUALSTYLE
  5
42
102
{ACAD_REACTORS
330
2A
102
}
102
{ACAD_XDICTIONARY
360
216
102
}
330
2A
100
AcDbVisualStyle
  2
Shaded
 70
    27
 71
     2
 72
     2
 73
     1
 90
        2
 40
0.6
 41
30.0
 62
     5
 63
     7
421
 16777215
 74
     0
 91
        4
 64
     7
 65
   257
 75
     1
175
     1
 42
1.0
 92
        8
 66
   257
 43
1.0
 76
     1
 77
     6
 78
     2
 67
     8
425
  7895160
 79
     3
170
     0
171
     0
290
     0
174
     0
 93
        5
 44
0.0
173
     0
291
     0
 45
0.0
  0
VISUALSTYLE
  5
41
102
{ACAD_REACTORS
330
2A
102
}
102
{ACAD_XDICTIONARY
360
214
102
}
330
2A
100
AcDbVisualStyle
  2
Shaded with edges
 70
    26
 71
     2
 72
     2
 73
     1
 90
        2
 40
0.6
 41
30.0
 62
     5
 63
     7
421
 16777215
 74
     1
 91
       10
 64
     7
 65
   257
 75
     2
175
     1
 42
1.0
 92
        8
 66
   257
 43
1.0
 76
     1
 77
     6
 78
     2
 67
     7
 79
     3
170
     0
171
     0
290
     0
174
     0
 93
        5
 44
0.0
173
     0
291
     0
 45
0.0
  0
VISUALSTYLE
  5
3E
102
{ACAD_REACTORS
330
2A
102
}
102
{ACAD_XDICTIONARY
360
20E
102
}
330
2A
100
AcDbVisualStyle
  2
Shades of Gray
 70
    23
 71
     2
 72
     2
 73
     3
 90
        0
 40
0.6
 41
30.0
 62
     5
 63
     7
421
 16777215
 74
     2
 91
        2
 64
     7
 65
     7
 75
     1
175
     1
 42
40.0
 92
        8
 66
     7
 43
1.0
 76
     1
 77
     6
 78
     2
 67
     7
 79
     3
170
     0
171
     0
290
     0
174
     0
 93
        1
 44
0.0
173
     0
291
     0
 45
0.0
  0
VISUALSTYLE
  5
3F
102
{ACAD_REACTORS
330
2A
102
}
102
{ACAD_XDICTIONARY
360
210
102
}
330
2A
100
AcDbVisualStyle
  2
Sketchy
 70
    24
 71
     1
 72
     2
 73
     2
 90
        0
 40
0.6
 41
30.0
 62
     5
 63
     7
421
 16777215
 74
     2
 91
        2
 64
     7
 65
     7
 75
     1
175
     1
 42
40.0
 92
       11
 66
     7
 43
1.0
 76
     1
 77
     6
 78
     2
 67
     7
 79
     6
170
     0
171
     0
290
     0
174
     0
 93
        1
 44
0.0
173
     0
291
     0
 45
0.0
  0
VISUALSTYLE
  5
37
102
{ACAD_REACTORS
330
2A
102
}
102
{ACAD_XDICTIONARY
360
200
102
}
330
2A
100
AcDbVisualStyle
  2
Thicken
 70
    13
 71
     2
 72
     2
 73
     0
 90
        0
 40
0.6
 41
30.0
 62
     5
 63
     7
421
 16777215
 74
     1
 91
        4
 64
     7
 65
   257
 75
     1
175
     1
 42
1.0
 92
       12
 66
     7
 43
1.0
 76
     1
 77
     6
 78
     2
 67
     7
 79
     5
170
     0
171
     0
290
     0
174
     0
 93
        1
 44
0.0
173
     0
291
     1
 45
0.0
  0
VISUALSTYLE
  5
30
102
{ACAD_REACTORS
330
2A
102
}
102
{ACAD_XDICTIONARY
360
1F2
102
}
330
2A
100
AcDbVisualStyle
  2
Wireframe
 70
     5
 71
     0
 72
     2
 73
     0
 90
        0
 40
0.6
 41
30.0
 62
     5
 63
     7
421
 16777215
 74
     1
 91
        4
 64
     7
 65
   257
 75
     1
175
     1
 42
1.0
 92
        0
 66
   257
 43
1.0
 76
     1
 77
     6
 78
     2
 67
     7
 79
     3
170
     0
171
     0
290
     0
174
     0
 93
        1
 44
0.0
173
     0
291
     0
 45
0.0
  0
VISUALSTYLE
  5
40
102
{ACAD_REACTORS
330
2A
102
}
102
{ACAD_XDICTIONARY
360
212
102
}
330
2A
100
AcDbVisualStyle
  2
X-Ray
 70
    25
 71
     2
 72
     2
 73
     1
 90
        1
 40
0.5
 41
30.0
 62
     5
 63
     7
421
 16777215
 74
     1
 91
        0
 64
     7
 65
   257
 75
     1
175
     1
 42
1.0
 92
        8
 66
     7
 43
1.0
 76
     1
 77
     6
 78
     2
 67
     7
 79
     3
170
     0
171
     0
290
     0
174
     0
 93
       13
 44
0.0
173
     0
291
     0
 45
0.0
  0
DICTIONARYVAR
  5
1E6
102
{ACAD_REACTORS
330
1E5
102
}
330
1E5
100
DictionaryVariables
280
     0
  1
1:1
  0
DICTIONARYVAR
  5
221
102
{ACAD_REACTORS
330
1E5
102
}
330
1E5
100
DictionaryVariables
280
     0
  1
3.500000
  0
DICTIONARYVAR
  5
222
102
{ACAD_REACTORS
330
1E5
102
}
330
1E5
100
DictionaryVariables
280
     0
  1
acadiso.lin
  0
DICTIONARYVAR
  5
21E
102
{ACAD_REACTORS
330
1E5
102
}
330
1E5
100
DictionaryVariables
280
     0
  1
Standard
  0
DICTIONARYVAR
  5
21D
102
{ACAD_REACTORS
330
1E5
102
}
330
1E5
100
DictionaryVariables
280
     0
  1
Standard
  0
DICTIONARYVAR
  5
1E7
102
{ACAD_REACTORS
330
1E5
102
}
330
1E5
100
DictionaryVariables
280
     0
  1
2
  0
DICTIONARY
  5
21A
330
6C
100
AcDbDictionary
280
     1
281
     1
  3
ACAD_XREC_ROUNDTRIP
360
21B
  0
DICTIONARY
  5
218
330
6A
100
AcDbDictionary
280
     1
281
     1
  3
ACAD_ROUNDTRIP_2008_TABLESTYLE_CELLSTYLEMAP
360
219
  0
DICTIONARY
  5
1F0
330
2F
100
AcDbDictionary
280
     1
281
     1
  3
ACAD_XREC_ROUNDTRIP
360
1F1
  0
DICTIONARY
  5
1F6
330
32
100
AcDbDictionary
280
     1
281
     1
  3
ACAD_XREC_ROUNDTRIP
360
1F7
  0
DICTIONARY
  5
1FE
330
36
100
AcDbDictionary
280
     1
281
     1
  3
ACAD_XREC_ROUNDTRIP
360
1FF
  0
DICTIONARY
  5
206
330
3A
100
AcDbDictionary
280
     1
281
     1
  3
ACAD_XREC_ROUNDTRIP
360
207
  0
DICTIONARY
  5
1FA
330
34
100
AcDbDictionary
280
     1
281
     1
  3
ACAD_XREC_ROUNDTRIP
360
1FB
  0
DICTIONARY
  5
1FC
330
35
100
AcDbDictionary
280
     1
281
     1
  3
ACAD_XREC_ROUNDTRIP
360
1FD
  0
DICTIONARY
  5
20C
330
3D
100
AcDbDictionary
280
     1
281
     1
  3
ACAD_XREC_ROUNDTRIP
360
20D
  0
DICTIONARY
  5
204
330
39
100
AcDbDictionary
280
     1
281
     1
  3
ACAD_XREC_ROUNDTRIP
360
205
  0
DICTIONARY
  5
1E8
330
2B
100
AcDbDictionary
280
     1
281
     1
  3
ACAD_XREC_ROUNDTRIP
360
1E9
  0
DICTIONARY
  5
1EA
330
2C
100
AcDbDictionary
280
     1
281
     1
  3
ACAD_XREC_ROUNDTRIP
360
1EB
  0
DICTIONARY
  5
1EC
330
2D
100
AcDbDictionary
280
     1
281
     1
  3
ACAD_XREC_ROUNDTRIP
360
1ED
  0
DICTIONARY
  5
1EE
330
2E
100
AcDbDictionary
280
     1
281
     1
  3
ACAD_XREC_ROUNDTRIP
360
1EF
  0
DICTIONARY
  5
1F4
330
31
100
AcDbDictionary
280
     1
281
     1
  3
ACAD_XREC_ROUNDTRIP
360
1F5
  0
DICTIONARY
  5
208
330
3B
100
AcDbDictionary
280
     1
281
     1
  3
ACAD_XREC_ROUNDTRIP
360
209
  0
DICTIONARY
  5
202
330
38
100
AcDbDictionary
280
     1
281
     1
  3
ACAD_XREC_ROUNDTRIP
360
203
  0
DICTIONARY
  5
20A
330
3C
100
AcDbDictionary
280
     1
281
     1
  3
ACAD_XREC_ROUNDTRIP
360
20B
  0
DICTIONARY
  5
1F8
330
33
100
AcDbDictionary
280
     1
281
     1
  3
ACAD_XREC_ROUNDTRIP
360
1F9
  0
DICTIONARY
  5
216
330
42
100
AcDbDictionary
280
     1
281
     1
  3
ACAD_XREC_ROUNDTRIP
360
217
  0
DICTIONARY
  5
214
330
41
100
AcDbDictionary
280
     1
281
     1
  3
ACAD_XREC_ROUNDTRIP
360
215
  0
DICTIONARY
  5
20E
330
3E
100
AcDbDictionary
280
     1
281
     1
  3
ACAD_XREC_ROUNDTRIP
360
20F
  0
DICTIONARY
  5
210
330
3F
100
AcDbDictionary
280
     1
281
     1
  3
ACAD_XREC_ROUNDTRIP
360
211
  0
DICTIONARY
  5
200
330
37
100
AcDbDictionary
280
     1
281
     1
  3
ACAD_XREC_ROUNDTRIP
360
201
  0
DICTIONARY
  5
1F2
330
30
100
AcDbDictionary
280
     1
281
     1
  3
ACAD_XREC_ROUNDTRIP
360
1F3
  0
DICTIONARY
  5
212
330
40
100
AcDbDictionary
280
     1
281
     1
  3
ACAD_XREC_ROUNDTRIP
360
213
  0
XRECORD
  5
21B
102
{ACAD_REACTORS
330
21A
102
}
330
21A
100
AcDbXrecord
280
     1
102
ACAD_ROUNDTRIP_2010_MLEADER_STYLE
  0
CELLSTYLEMAP
  5
219
102
{ACAD_REACTORS
330
218
102
}
330
218
100
AcDbCellStyleMap
 90
        3
300
CELLSTYLE
  1
TABLEFORMAT_BEGIN
 90
        5
170
     1
 91
        0
 92
    32768
 62
   257
 93
        1
300
CONTENTFORMAT
  1
CONTENTFORMAT_BEGIN
 90
        0
 91
        0
 92
        4
 93
        0
300

 40
0.0
140
1.0
 94
        5
 62
     0
340
11
144
6.0
309
CONTENTFORMAT_END
171
     1
301
MARGIN
  1
CELLMARGIN_BEGIN
 40
1.5
 40
1.5
 40
1.5
 40
1.5
 40
1.5
 40
1.5
309
CELLMARGIN_END
 94
        6
 95
        1
302
GRIDFORMAT
  1
GRIDFORMAT_BEGIN
 90
        0
 91
        1
 62
     0
 92
       -2
340
14
 93
        0
 40
0.045
309
GRIDFORMAT_END
 95
        2
302
GRIDFORMAT
  1
GRIDFORMAT_BEGIN
 90
        0
 91
        1
 62
     0
 92
       -2
340
14
 93
        0
 40
0.045
309
GRIDFORMAT_END
 95
        4
302
GRIDFORMAT
  1
GRIDFORMAT_BEGIN
 90
        0
 91
        1
 62
     0
 92
       -2
340
14
 93
        0
 40
0.045
309
GRIDFORMAT_END
 95
        8
302
GRIDFORMAT
  1
GRIDFORMAT_BEGIN
 90
        0
 91
        1
 62
     0
 92
       -2
340
14
 93
        0
 40
0.045
309
GRIDFORMAT_END
 95
       16
302
GRIDFORMAT
  1
GRIDFORMAT_BEGIN
 90
        0
 91
        1
 62
     0
 92
       -2
340
14
 93
        0
 40
0.045
309
GRIDFORMAT_END
 95
       32
302
GRIDFORMAT
  1
GRIDFORMAT_BEGIN
 90
        0
 91
        1
 62
     0
 92
       -2
340
14
 93
        0
 40
0.045
309
GRIDFORMAT_END
309
TABLEFORMAT_END
  1
CELLSTYLE_BEGIN
 90
        1
 91
        1
300
_TITLE
309
CELLSTYLE_END
300
CELLSTYLE
  1
TABLEFORMAT_BEGIN
 90
        5
170
     1
 91
        0
 92
        0
 62
   257
 93
        1
300
CONTENTFORMAT
  1
CONTENTFORMAT_BEGIN
 90
        0
 91
        0
 92
        4
 93
        0
300

 40
0.0
140
1.0
 94
        5
 62
     0
340
11
144
4.5
309
CONTENTFORMAT_END
171
     1
301
MARGIN
  1
CELLMARGIN_BEGIN
 40
1.5
 40
1.5
 40
1.5
 40
1.5
 40
1.5
 40
1.5
309
CELLMARGIN_END
 94
        6
 95
        1
302
GRIDFORMAT
  1
GRIDFORMAT_BEGIN
 90
        0
 91
        1
 62
     0
 92
       -2
340
14
 93
        0
 40
0.045
309
GRIDFORMAT_END
 95
        2
302
GRIDFORMAT
  1
GRIDFORMAT_BEGIN
 90
        0
 91
        1
 62
     0
 92
       -2
340
14
 93
        0
 40
0.045
309
GRIDFORMAT_END
 95
        4
302
GRIDFORMAT
  1
GRIDFORMAT_BEGIN
 90
        0
 91
        1
 62
     0
 92
       -2
340
14
 93
        0
 40
0.045
309
GRIDFORMAT_END
 95
        8
302
GRIDFORMAT
  1
GRIDFORMAT_BEGIN
 90
        0
 91
        1
 62
     0
 92
       -2
340
14
 93
        0
 40
0.045
309
GRIDFORMAT_END
 95
       16
302
GRIDFORMAT
  1
GRIDFORMAT_BEGIN
 90
        0
 91
        1
 62
     0
 92
       -2
340
14
 93
        0
 40
0.045
309
GRIDFORMAT_END
 95
       32
302
GRIDFORMAT
  1
GRIDFORMAT_BEGIN
 90
        0
 91
        1
 62
     0
 92
       -2
340
14
 93
        0
 40
0.045
309
GRIDFORMAT_END
309
TABLEFORMAT_END
  1
CELLSTYLE_BEGIN
 90
        2
 91
        1
300
_HEADER
309
CELLSTYLE_END
300
CELLSTYLE
  1
TABLEFORMAT_BEGIN
 90
        5
170
     1
 91
        0
 92
        0
 62
   257
 93
        1
300
CONTENTFORMAT
  1
CONTENTFORMAT_BEGIN
 90
        0
 91
        0
 92
        4
 93
        0
300

 40
0.0
140
1.0
 94
        2
 62
     0
340
11
144
4.5
309
CONTENTFORMAT_END
171
     1
301
MARGIN
  1
CELLMARGIN_BEGIN
 40
1.5
 40
1.5
 40
1.5
 40
1.5
 40
1.5
 40
1.5
309
CELLMARGIN_END
 94
        6
 95
        1
302
GRIDFORMAT
  1
GRIDFORMAT_BEGIN
 90
        0
 91
        1
 62
     0
 92
       -2
340
14
 93
        0
 40
0.045
309
GRIDFORMAT_END
 95
        2
302
GRIDFORMAT
  1
GRIDFORMAT_BEGIN
 90
        0
 91
        1
 62
     0
 92
       -2
340
14
 93
        0
 40
0.045
309
GRIDFORMAT_END
 95
        4
302
GRIDFORMAT
  1
GRIDFORMAT_BEGIN
 90
        0
 91
        1
 62
     0
 92
       -2
340
14
 93
        0
 40
0.045
309
GRIDFORMAT_END
 95
        8
302
GRIDFORMAT
  1
GRIDFORMAT_BEGIN
 90
        0
 91
        1
 62
     0
 92
       -2
340
14
 93
        0
 40
0.045
309
GRIDFORMAT_END
 95
       16
302
GRIDFORMAT
  1
GRIDFORMAT_BEGIN
 90
        0
 91
        1
 62
     0
 92
       -2
340
14
 93
        0
 40
0.045
309
GRIDFORMAT_END
 95
       32
302
GRIDFORMAT
  1
GRIDFORMAT_BEGIN
 90
        0
 91
        1
 62
     0
 92
       -2
340
14
 93
        0
 40
0.045
309
GRIDFORMAT_END
309
TABLEFORMAT_END
  1
CELLSTYLE_BEGIN
 90
        3
 91
        2
300
_DATA
309
CELLSTYLE_END
  0
XRECORD
  5
1F1
102
{ACAD_REACTORS
330
1F0
102
}
330
1F0
100
AcDbXrecord
280
     1
102
RTVSPropertyOp0
 70
     1
102
RTVSPropertyOp1
 70
     1
102
RTVSPropertyOp2
 70
     1
102
RTVSPropertyOp3
 70
     1
102
RTVSPropertyOp4
 70
     1
102
RTVSPropertyOp5
 70
     1
102
RTVSPropertyOp6
 70
     1
102
RTVSPropertyOp7
 70
     1
102
RTVSPropertyOp8
 70
     1
102
RTVSPropertyOp9
 70
     1
102
RTVSPropertyOp10
 70
     1
102
RTVSPropertyOp11
 70
     1
102
RTVSPropertyOp12
 70
     1
102
RTVSPropertyOp13
 70
     1
102
RTVSPropertyOp14
 70
     1
102
RTVSPropertyOp15
 70
     1
102
RTVSPropertyOp16
 70
     1
102
RTVSPropertyOp17
 70
     1
102
RTVSPropertyOp18
 70
     1
102
RTVSPropertyOp19
 70
     1
102
RTVSPropertyOp20
 70
     1
102
RTVSPropertyOp21
 70
     1
102
RTVSPropertyOp22
 70
     1
102
RTVSPropertyOp23
 70
     1
102
RTVSPropertyOp24
 70
     1
102
RTVSPropertyOp25
 70
     1
102
RTVSPropertyOp26
 70
     1
102
RTVSPropertyOp27
 70
     1
102
RTVSPropertyOp28
 70
     1
102
RTVSPropertyOp29
 70
     1
102
RTVSPropertyOp30
 70
     1
102
RTVSPropertyOp31
 70
     1
102
RTVSPropertyOp32
 70
     1
102
RTVSPropertyOp33
 70
     1
102
RTVSPropertyOp34
 70
     1
102
RTVSPropertyOp35
 70
     1
102
RTVSPropertyOp36
 70
     1
102
RTVSPropertyOp37
 70
     1
102
RTVSPropertyOp38
 70
     1
102
RTVSPropertyOp39
 70
     1
102
RTVSPropertyOp40
 70
     1
102
RTVSPropertyOp41
 70
     1
102
RTVSPropertyOp42
 70
     1
102
RTVSPropertyOp43
 70
     1
102
RTVSPropertyOp44
 70
     1
102
RTVSPropertyOp45
 70
     1
102
RTVSPropertyOp46
 70
     1
102
RTVSPropertyOp47
 70
     1
102
RTVSPropertyOp48
 70
     1
102
RTVSPropertyOp49
 70
     1
102
RTVSPropertyOp50
 70
     1
102
RTVSPropertyOp51
 70
     0
102
RTVSPropertyOp52
 70
     0
102
RTVSPropertyOp53
 70
     1
102
RTVSPropertyOp54
 70
     1
102
RTVSPropertyOp55
 70
     1
102
RTVSPropertyOp56
 70
     1
102
RTVSPropertyOp57
 70
     1
102
RTVSPost2010Prop28
280
     1
102
RTVSPost2010PropOp28
 70
     1
102
RTVSPost2010Prop29
280
     1
102
RTVSPost2010PropOp29
 70
     1
102
RTVSPost2010Prop30
280
     0
102
RTVSPost2010PropOp30
 70
     1
102
RTVSPost2010Prop31
280
     0
102
RTVSPost2010PropOp31
 70
     1
102
RTVSPost2010Prop32
280
     0
102
RTVSPost2010PropOp32
 70
     1
102
RTVSPost2010Prop33
280
     0
102
RTVSPost2010PropOp33
 70
     1
102
RTVSPost2010Prop34
280
     0
102
RTVSPost2010PropOp34
 70
     1
102
RTVSPost2010Prop35
280
     0
102
RTVSPost2010PropOp35
 70
     1
102
RTVSPost2010Prop36
280
     0
102
RTVSPost2010PropOp36
 70
     1
102
RTVSPost2010Prop37
 90
       50
102
RTVSPost2010PropOp37
 70
     1
102
RTVSPost2010Prop38
140
0.0
102
RTVSPost2010PropOp38
 70
     1
102
RTVSPost2010Prop39
140
1.0
102
RTVSPost2010PropOp39
 70
     1
102
RTVSPost2010Prop40
 90
        0
102
RTVSPost2010PropOp40
 70
     1
102
RTVSPost2010Prop41ColorIndex
 90
       18
102
RTVSPost2010Prop41ColorRGB
 90
        0
102
RTVSPost2010PropOp41
 70
     1
102
RTVSPost2010Prop42
 90
       50
102
RTVSPost2010PropOp42
 70
     1
102
RTVSPost2010Prop43
 90
        3
102
RTVSPost2010PropOp43
 70
     1
102
RTVSPost2010Prop44ColorIndex
 90
        5
102
RTVSPost2010Prop44ColorRGB
 90
      255
102
RTVSPost2010PropOp44
 70
     1
102
RTVSPost2010Prop45
280
     0
102
RTVSPost2010PropOp45
 70
     1
102
RTVSPost2010Prop46
 90
       50
102
RTVSPost2010PropOp46
 70
     1
102
RTVSPost2010Prop47
 90
       50
102
RTVSPost2010PropOp47
 70
     1
102
RTVSPost2010Prop48
 90
       50
102
RTVSPost2010PropOp48
 70
     1
102
RTVSPost2010Prop49
280
     0
102
RTVSPost2010PropOp49
 70
     1
102
RTVSPost2010Prop50
 90
       50
102
RTVSPost2010PropOp50
 70
     1
102
RTVSPost2010Prop51ColorIndex
 90
      256
102
RTVSPost2010Prop51ColorRGB
 90
-16777216
102
RTVSPost2010PropOp51
 70
     0
102
RTVSPost2010Prop52
140
1.0
102
RTVSPost2010PropOp52
 70
     0
102
RTVSPost2010Prop53
 90
        2
102
RTVSPost2010PropOp53
 70
     1
102
RTVSPost2010Prop54
  1
strokes_ogs.tif
102
RTVSPost2010PropOp54
 70
     1
102
RTVSPost2010Prop55
280
     0
102
RTVSPost2010PropOp55
 70
     1
102
RTVSPost2010Prop56
140
1.0
102
RTVSPost2010PropOp56
 70
     1
102
RTVSPost2010Prop57
140
1.0
102
RTVSPost2010PropOp57
 70
     1
  0
XRECORD
  5
1F7
102
{ACAD_REACTORS
330
1F6
102
}
330
1F6
100
AcDbXrecord
280
     1
102
RTVSPropertyOp0
 70
     1
102
RTVSPropertyOp1
 70
     1
102
RTVSPropertyOp2
 70
     1
102
RTVSPropertyOp3
 70
     1
102
RTVSPropertyOp4
 70
     1
102
RTVSPropertyOp5
 70
     1
102
RTVSPropertyOp6
 70
     1
102
RTVSPropertyOp7
 70
     1
102
RTVSPropertyOp8
 70
     1
102
RTVSPropertyOp9
 70
     1
102
RTVSPropertyOp10
 70
     1
102
RTVSPropertyOp11
 70
     1
102
RTVSPropertyOp12
 70
     1
102
RTVSPropertyOp13
 70
     1
102
RTVSPropertyOp14
 70
     1
102
RTVSPropertyOp15
 70
     1
102
RTVSPropertyOp16
 70
     1
102
RTVSPropertyOp17
 70
     1
102
RTVSPropertyOp18
 70
     1
102
RTVSPropertyOp19
 70
     1
102
RTVSPropertyOp20
 70
     1
102
RTVSPropertyOp21
 70
     1
102
RTVSPropertyOp22
 70
     1
102
RTVSPropertyOp23
 70
     1
102
RTVSPropertyOp24
 70
     1
102
RTVSPropertyOp25
 70
     1
102
RTVSPropertyOp26
 70
     1
102
RTVSPropertyOp27
 70
     1
102
RTVSPropertyOp28
 70
     1
102
RTVSPropertyOp29
 70
     1
102
RTVSPropertyOp30
 70
     1
102
RTVSPropertyOp31
 70
     1
102
RTVSPropertyOp32
 70
     1
102
RTVSPropertyOp33
 70
     1
102
RTVSPropertyOp34
 70
     1
102
RTVSPropertyOp35
 70
     1
102
RTVSPropertyOp36
 70
     1
102
RTVSPropertyOp37
 70
     1
102
RTVSPropertyOp38
 70
     1
102
RTVSPropertyOp39
 70
     1
102
RTVSPropertyOp40
 70
     1
102
RTVSPropertyOp41
 70
     1
102
RTVSPropertyOp42
 70
     1
102
RTVSPropertyOp43
 70
     1
102
RTVSPropertyOp44
 70
     1
102
RTVSPropertyOp45
 70
     1
102
RTVSPropertyOp46
 70
     1
102
RTVSPropertyOp47
 70
     1
102
RTVSPropertyOp48
 70
     1
102
RTVSPropertyOp49
 70
     1
102
RTVSPropertyOp50
 70
     1
102
RTVSPropertyOp51
 70
     0
102
RTVSPropertyOp52
 70
     0
102
RTVSPropertyOp53
 70
     1
102
RTVSPropertyOp54
 70
     1
102
RTVSPropertyOp55
 70
     1
102
RTVSPropertyOp56
 70
     1
102
RTVSPropertyOp57
 70
     1
102
RTVSPost2010Prop28
280
     0
102
RTVSPost2010PropOp28
 70
     1
102
RTVSPost2010Prop29
280
     1
102
RTVSPost2010PropOp29
 70
     1
102
RTVSPost2010Prop30
280
     1
102
RTVSPost2010PropOp30
 70
     1
102
RTVSPost2010Prop31
280
     0
102
RTVSPost2010PropOp31
 70
     1
102
RTVSPost2010Prop32
280
     0
102
RTVSPost2010PropOp32
 70
     1
102
RTVSPost2010Prop33
280
     0
102
RTVSPost2010PropOp33
 70
     1
102
RTVSPost2010Prop34
280
     0
102
RTVSPost2010PropOp34
 70
     1
102
RTVSPost2010Prop35
280
     0
102
RTVSPost2010PropOp35
 70
     1
102
RTVSPost2010Prop36
280
     0
102
RTVSPost2010PropOp36
 70
     1
102
RTVSPost2010Prop37
 90
       50
102
RTVSPost2010PropOp37
 70
     1
102
RTVSPost2010Prop38
140
0.0
102
RTVSPost2010PropOp38
 70
     1
102
RTVSPost2010Prop39
140
1.0
102
RTVSPost2010PropOp39
 70
     1
102
RTVSPost2010Prop40
 90
        0
102
RTVSPost2010PropOp40
 70
     1
102
RTVSPost2010Prop41ColorIndex
 90
       18
102
RTVSPost2010Prop41ColorRGB
 90
        0
102
RTVSPost2010PropOp41
 70
     1
102
RTVSPost2010Prop42
 90
       50
102
RTVSPost2010PropOp42
 70
     1
102
RTVSPost2010Prop43
 90
        3
102
RTVSPost2010PropOp43
 70
     1
102
RTVSPost2010Prop44ColorIndex
 90
        5
102
RTVSPost2010Prop44ColorRGB
 90
      255
102
RTVSPost2010PropOp44
 70
     1
102
RTVSPost2010Prop45
280
     0
102
RTVSPost2010PropOp45
 70
     1
102
RTVSPost2010Prop46
 90
       50
102
RTVSPost2010PropOp46
 70
     1
102
RTVSPost2010Prop47
 90
       50
102
RTVSPost2010PropOp47
 70
     1
102
RTVSPost2010Prop48
 90
       50
102
RTVSPost2010PropOp48
 70
     1
102
RTVSPost2010Prop49
280
     0
102
RTVSPost2010PropOp49
 70
     1
102
RTVSPost2010Prop50
 90
       50
102
RTVSPost2010PropOp50
 70
     1
102
RTVSPost2010Prop51ColorIndex
 90
      256
102
RTVSPost2010Prop51ColorRGB
 90
-16777216
102
RTVSPost2010PropOp51
 70
     0
102
RTVSPost2010Prop52
140
1.0
102
RTVSPost2010PropOp52
 70
     0
102
RTVSPost2010Prop53
 90
        2
102
RTVSPost2010PropOp53
 70
     1
102
RTVSPost2010Prop54
  1
strokes_ogs.tif
102
RTVSPost2010PropOp54
 70
     1
102
RTVSPost2010Prop55
280
     0
102
RTVSPost2010PropOp55
 70
     1
102
RTVSPost2010Prop56
140
1.0
102
RTVSPost2010PropOp56
 70
     1
102
RTVSPost2010Prop57
140
1.0
102
RTVSPost2010PropOp57
 70
     1
  0
XRECORD
  5
1FF
102
{ACAD_REACTORS
330
1FE
102
}
330
1FE
100
AcDbXrecord
280
     1
102
RTVSPropertyOp0
 70
     1
102
RTVSPropertyOp1
 70
     1
102
RTVSPropertyOp2
 70
     1
102
RTVSPropertyOp3
 70
     1
102
RTVSPropertyOp4
 70
     1
102
RTVSPropertyOp5
 70
     1
102
RTVSPropertyOp6
 70
     1
102
RTVSPropertyOp7
 70
     1
102
RTVSPropertyOp8
 70
     1
102
RTVSPropertyOp9
 70
     1
102
RTVSPropertyOp10
 70
     1
102
RTVSPropertyOp11
 70
     1
102
RTVSPropertyOp12
 70
     1
102
RTVSPropertyOp13
 70
     1
102
RTVSPropertyOp14
 70
     1
102
RTVSPropertyOp15
 70
     1
102
RTVSPropertyOp16
 70
     1
102
RTVSPropertyOp17
 70
     1
102
RTVSPropertyOp18
 70
     1
102
RTVSPropertyOp19
 70
     1
102
RTVSPropertyOp20
 70
     1
102
RTVSPropertyOp21
 70
     1
102
RTVSPropertyOp22
 70
     1
102
RTVSPropertyOp23
 70
     1
102
RTVSPropertyOp24
 70
     1
102
RTVSPropertyOp25
 70
     1
102
RTVSPropertyOp26
 70
     1
102
RTVSPropertyOp27
 70
     1
102
RTVSPropertyOp28
 70
     1
102
RTVSPropertyOp29
 70
     1
102
RTVSPropertyOp30
 70
     1
102
RTVSPropertyOp31
 70
     1
102
RTVSPropertyOp32
 70
     1
102
RTVSPropertyOp33
 70
     1
102
RTVSPropertyOp34
 70
     1
102
RTVSPropertyOp35
 70
     1
102
RTVSPropertyOp36
 70
     1
102
RTVSPropertyOp37
 70
     1
102
RTVSPropertyOp38
 70
     1
102
RTVSPropertyOp39
 70
     1
102
RTVSPropertyOp40
 70
     1
102
RTVSPropertyOp41
 70
     1
102
RTVSPropertyOp42
 70
     1
102
RTVSPropertyOp43
 70
     1
102
RTVSPropertyOp44
 70
     1
102
RTVSPropertyOp45
 70
     1
102
RTVSPropertyOp46
 70
     1
102
RTVSPropertyOp47
 70
     1
102
RTVSPropertyOp48
 70
     1
102
RTVSPropertyOp49
 70
     1
102
RTVSPropertyOp50
 70
     1
102
RTVSPropertyOp51
 70
     0
102
RTVSPropertyOp52
 70
     0
102
RTVSPropertyOp53
 70
     1
102
RTVSPropertyOp54
 70
     1
102
RTVSPropertyOp55
 70
     1
102
RTVSPropertyOp56
 70
     1
102
RTVSPropertyOp57
 70
     1
102
RTVSPost2010Prop28
280
     0
102
RTVSPost2010PropOp28
 70
     1
102
RTVSPost2010Prop29
280
     1
102
RTVSPost2010PropOp29
 70
     1
102
RTVSPost2010Prop30
280
     1
102
RTVSPost2010PropOp30
 70
     1
102
RTVSPost2010Prop31
280
     0
102
RTVSPost2010PropOp31
 70
     1
102
RTVSPost2010Prop32
280
     0
102
RTVSPost2010PropOp32
 70
     1
102
RTVSPost2010Prop33
280
     0
102
RTVSPost2010PropOp33
 70
     1
102
RTVSPost2010Prop34
280
     0
102
RTVSPost2010PropOp34
 70
     1
102
RTVSPost2010Prop35
280
     0
102
RTVSPost2010PropOp35
 70
     1
102
RTVSPost2010Prop36
280
     0
102
RTVSPost2010PropOp36
 70
     1
102
RTVSPost2010Prop37
 90
       50
102
RTVSPost2010PropOp37
 70
     1
102
RTVSPost2010Prop38
140
0.0
102
RTVSPost2010PropOp38
 70
     1
102
RTVSPost2010Prop39
140
1.0
102
RTVSPost2010PropOp39
 70
     1
102
RTVSPost2010Prop40
 90
        0
102
RTVSPost2010PropOp40
 70
     1
102
RTVSPost2010Prop41ColorIndex
 90
       18
102
RTVSPost2010Prop41ColorRGB
 90
        0
102
RTVSPost2010PropOp41
 70
     1
102
RTVSPost2010Prop42
 90
       50
102
RTVSPost2010PropOp42
 70
     1
102
RTVSPost2010Prop43
 90
        3
102
RTVSPost2010PropOp43
 70
     1
102
RTVSPost2010Prop44ColorIndex
 90
        5
102
RTVSPost2010Prop44ColorRGB
 90
      255
102
RTVSPost2010PropOp44
 70
     1
102
RTVSPost2010Prop45
280
     0
102
RTVSPost2010PropOp45
 70
     1
102
RTVSPost2010Prop46
 90
       50
102
RTVSPost2010PropOp46
 70
     1
102
RTVSPost2010Prop47
 90
       50
102
RTVSPost2010PropOp47
 70
     1
102
RTVSPost2010Prop48
 90
       50
102
RTVSPost2010PropOp48
 70
     1
102
RTVSPost2010Prop49
280
     0
102
RTVSPost2010PropOp49
 70
     1
102
RTVSPost2010Prop50
 90
       50
102
RTVSPost2010PropOp50
 70
     1
102
RTVSPost2010Prop51ColorIndex
 90
      256
102
RTVSPost2010Prop51ColorRGB
 90
-16777216
102
RTVSPost2010PropOp51
 70
     0
102
RTVSPost2010Prop52
140
1.0
102
RTVSPost2010PropOp52
 70
     0
102
RTVSPost2010Prop53
 90
        2
102
RTVSPost2010PropOp53
 70
     1
102
RTVSPost2010Prop54
  1
strokes_ogs.tif
102
RTVSPost2010PropOp54
 70
     1
102
RTVSPost2010Prop55
280
     0
102
RTVSPost2010PropOp55
 70
     1
102
RTVSPost2010Prop56
140
1.0
102
RTVSPost2010PropOp56
 70
     1
102
RTVSPost2010Prop57
140
1.0
102
RTVSPost2010PropOp57
 70
     1
  0
XRECORD
  5
207
102
{ACAD_REACTORS
330
206
102
}
330
206
100
AcDbXrecord
280
     1
102
RTVSPropertyOp0
 70
     1
102
RTVSPropertyOp1
 70
     1
102
RTVSPropertyOp2
 70
     1
102
RTVSPropertyOp3
 70
     1
102
RTVSPropertyOp4
 70
     1
102
RTVSPropertyOp5
 70
     1
102
RTVSPropertyOp6
 70
     1
102
RTVSPropertyOp7
 70
     1
102
RTVSPropertyOp8
 70
     1
102
RTVSPropertyOp9
 70
     1
102
RTVSPropertyOp10
 70
     1
102
RTVSPropertyOp11
 70
     1
102
RTVSPropertyOp12
 70
     1
102
RTVSPropertyOp13
 70
     1
102
RTVSPropertyOp14
 70
     1
102
RTVSPropertyOp15
 70
     1
102
RTVSPropertyOp16
 70
     1
102
RTVSPropertyOp17
 70
     1
102
RTVSPropertyOp18
 70
     1
102
RTVSPropertyOp19
 70
     1
102
RTVSPropertyOp20
 70
     1
102
RTVSPropertyOp21
 70
     1
102
RTVSPropertyOp22
 70
     1
102
RTVSPropertyOp23
 70
     1
102
RTVSPropertyOp24
 70
     1
102
RTVSPropertyOp25
 70
     1
102
RTVSPropertyOp26
 70
     1
102
RTVSPropertyOp27
 70
     1
102
RTVSPropertyOp28
 70
     1
102
RTVSPropertyOp29
 70
     1
102
RTVSPropertyOp30
 70
     1
102
RTVSPropertyOp31
 70
     1
102
RTVSPropertyOp32
 70
     1
102
RTVSPropertyOp33
 70
     1
102
RTVSPropertyOp34
 70
     1
102
RTVSPropertyOp35
 70
     1
102
RTVSPropertyOp36
 70
     1
102
RTVSPropertyOp37
 70
     1
102
RTVSPropertyOp38
 70
     1
102
RTVSPropertyOp39
 70
     1
102
RTVSPropertyOp40
 70
     1
102
RTVSPropertyOp41
 70
     1
102
RTVSPropertyOp42
 70
     1
102
RTVSPropertyOp43
 70
     1
102
RTVSPropertyOp44
 70
     1
102
RTVSPropertyOp45
 70
     1
102
RTVSPropertyOp46
 70
     1
102
RTVSPropertyOp47
 70
     1
102
RTVSPropertyOp48
 70
     1
102
RTVSPropertyOp49
 70
     1
102
RTVSPropertyOp50
 70
     1
102
RTVSPropertyOp51
 70
     0
102
RTVSPropertyOp52
 70
     0
102
RTVSPropertyOp53
 70
     1
102
RTVSPropertyOp54
 70
     1
102
RTVSPropertyOp55
 70
     1
102
RTVSPropertyOp56
 70
     1
102
RTVSPropertyOp57
 70
     1
102
RTVSPost2010Prop28
280
     0
102
RTVSPost2010PropOp28
 70
     1
102
RTVSPost2010Prop29
280
     1
102
RTVSPost2010PropOp29
 70
     1
102
RTVSPost2010Prop30
280
     1
102
RTVSPost2010PropOp30
 70
     1
102
RTVSPost2010Prop31
280
     0
102
RTVSPost2010PropOp31
 70
     1
102
RTVSPost2010Prop32
280
     0
102
RTVSPost2010PropOp32
 70
     1
102
RTVSPost2010Prop33
280
     0
102
RTVSPost2010PropOp33
 70
     1
102
RTVSPost2010Prop34
280
     0
102
RTVSPost2010PropOp34
 70
     1
102
RTVSPost2010Prop35
280
     0
102
RTVSPost2010PropOp35
 70
     1
102
RTVSPost2010Prop36
280
     0
102
RTVSPost2010PropOp36
 70
     1
102
RTVSPost2010Prop37
 90
       50
102
RTVSPost2010PropOp37
 70
     1
102
RTVSPost2010Prop38
140
0.0
102
RTVSPost2010PropOp38
 70
     1
102
RTVSPost2010Prop39
140
1.0
102
RTVSPost2010PropOp39
 70
     1
102
RTVSPost2010Prop40
 90
        0
102
RTVSPost2010PropOp40
 70
     1
102
RTVSPost2010Prop41ColorIndex
 90
       18
102
RTVSPost2010Prop41ColorRGB
 90
        0
102
RTVSPost2010PropOp41
 70
     1
102
RTVSPost2010Prop42
 90
       50
102
RTVSPost2010PropOp42
 70
     1
102
RTVSPost2010Prop43
 90
        3
102
RTVSPost2010PropOp43
 70
     1
102
RTVSPost2010Prop44ColorIndex
 90
        5
102
RTVSPost2010Prop44ColorRGB
 90
      255
102
RTVSPost2010PropOp44
 70
     1
102
RTVSPost2010Prop45
280
     0
102
RTVSPost2010PropOp45
 70
     1
102
RTVSPost2010Prop46
 90
       50
102
RTVSPost2010PropOp46
 70
     1
102
RTVSPost2010Prop47
 90
       50
102
RTVSPost2010PropOp47
 70
     1
102
RTVSPost2010Prop48
 90
       50
102
RTVSPost2010PropOp48
 70
     1
102
RTVSPost2010Prop49
280
     0
102
RTVSPost2010PropOp49
 70
     1
102
RTVSPost2010Prop50
 90
       50
102
RTVSPost2010PropOp50
 70
     1
102
RTVSPost2010Prop51ColorIndex
 90
      256
102
RTVSPost2010Prop51ColorRGB
 90
-16777216
102
RTVSPost2010PropOp51
 70
     0
102
RTVSPost2010Prop52
140
1.0
102
RTVSPost2010PropOp52
 70
     0
102
RTVSPost2010Prop53
 90
        2
102
RTVSPost2010PropOp53
 70
     1
102
RTVSPost2010Prop54
  1
strokes_ogs.tif
102
RTVSPost2010PropOp54
 70
     1
102
RTVSPost2010Prop55
280
     0
102
RTVSPost2010PropOp55
 70
     1
102
RTVSPost2010Prop56
140
1.0
102
RTVSPost2010PropOp56
 70
     1
102
RTVSPost2010Prop57
140
1.0
102
RTVSPost2010PropOp57
 70
     1
  0
XRECORD
  5
1FB
102
{ACAD_REACTORS
330
1FA
102
}
330
1FA
100
AcDbXrecord
280
     1
102
RTVSPropertyOp0
 70
     1
102
RTVSPropertyOp1
 70
     1
102
RTVSPropertyOp2
 70
     1
102
RTVSPropertyOp3
 70
     1
102
RTVSPropertyOp4
 70
     1
102
RTVSPropertyOp5
 70
     1
102
RTVSPropertyOp6
 70
     1
102
RTVSPropertyOp7
 70
     1
102
RTVSPropertyOp8
 70
     1
102
RTVSPropertyOp9
 70
     1
102
RTVSPropertyOp10
 70
     1
102
RTVSPropertyOp11
 70
     1
102
RTVSPropertyOp12
 70
     1
102
RTVSPropertyOp13
 70
     1
102
RTVSPropertyOp14
 70
     1
102
RTVSPropertyOp15
 70
     1
102
RTVSPropertyOp16
 70
     1
102
RTVSPropertyOp17
 70
     1
102
RTVSPropertyOp18
 70
     1
102
RTVSPropertyOp19
 70
     1
102
RTVSPropertyOp20
 70
     1
102
RTVSPropertyOp21
 70
     1
102
RTVSPropertyOp22
 70
     1
102
RTVSPropertyOp23
 70
     1
102
RTVSPropertyOp24
 70
     1
102
RTVSPropertyOp25
 70
     1
102
RTVSPropertyOp26
 70
     1
102
RTVSPropertyOp27
 70
     1
102
RTVSPropertyOp28
 70
     1
102
RTVSPropertyOp29
 70
     1
102
RTVSPropertyOp30
 70
     1
102
RTVSPropertyOp31
 70
     1
102
RTVSPropertyOp32
 70
     1
102
RTVSPropertyOp33
 70
     1
102
RTVSPropertyOp34
 70
     1
102
RTVSPropertyOp35
 70
     1
102
RTVSPropertyOp36
 70
     1
102
RTVSPropertyOp37
 70
     1
102
RTVSPropertyOp38
 70
     1
102
RTVSPropertyOp39
 70
     1
102
RTVSPropertyOp40
 70
     1
102
RTVSPropertyOp41
 70
     1
102
RTVSPropertyOp42
 70
     1
102
RTVSPropertyOp43
 70
     1
102
RTVSPropertyOp44
 70
     1
102
RTVSPropertyOp45
 70
     1
102
RTVSPropertyOp46
 70
     1
102
RTVSPropertyOp47
 70
     1
102
RTVSPropertyOp48
 70
     1
102
RTVSPropertyOp49
 70
     1
102
RTVSPropertyOp50
 70
     1
102
RTVSPropertyOp51
 70
     0
102
RTVSPropertyOp52
 70
     0
102
RTVSPropertyOp53
 70
     1
102
RTVSPropertyOp54
 70
     1
102
RTVSPropertyOp55
 70
     1
102
RTVSPropertyOp56
 70
     1
102
RTVSPropertyOp57
 70
     1
102
RTVSPost2010Prop28
280
     0
102
RTVSPost2010PropOp28
 70
     1
102
RTVSPost2010Prop29
280
     1
102
RTVSPost2010PropOp29
 70
     1
102
RTVSPost2010Prop30
280
     1
102
RTVSPost2010PropOp30
 70
     1
102
RTVSPost2010Prop31
280
     0
102
RTVSPost2010PropOp31
 70
     1
102
RTVSPost2010Prop32
280
     0
102
RTVSPost2010PropOp32
 70
     1
102
RTVSPost2010Prop33
280
     0
102
RTVSPost2010PropOp33
 70
     1
102
RTVSPost2010Prop34
280
     0
102
RTVSPost2010PropOp34
 70
     1
102
RTVSPost2010Prop35
280
     0
102
RTVSPost2010PropOp35
 70
     1
102
RTVSPost2010Prop36
280
     0
102
RTVSPost2010PropOp36
 70
     1
102
RTVSPost2010Prop37
 90
       50
102
RTVSPost2010PropOp37
 70
     1
102
RTVSPost2010Prop38
140
0.0
102
RTVSPost2010PropOp38
 70
     1
102
RTVSPost2010Prop39
140
1.0
102
RTVSPost2010PropOp39
 70
     1
102
RTVSPost2010Prop40
 90
        0
102
RTVSPost2010PropOp40
 70
     1
102
RTVSPost2010Prop41ColorIndex
 90
       18
102
RTVSPost2010Prop41ColorRGB
 90
        0
102
RTVSPost2010PropOp41
 70
     1
102
RTVSPost2010Prop42
 90
       50
102
RTVSPost2010PropOp42
 70
     1
102
RTVSPost2010Prop43
 90
        3
102
RTVSPost2010PropOp43
 70
     1
102
RTVSPost2010Prop44ColorIndex
 90
        5
102
RTVSPost2010Prop44ColorRGB
 90
      255
102
RTVSPost2010PropOp44
 70
     1
102
RTVSPost2010Prop45
280
     0
102
RTVSPost2010PropOp45
 70
     1
102
RTVSPost2010Prop46
 90
       50
102
RTVSPost2010PropOp46
 70
     1
102
RTVSPost2010Prop47
 90
       50
102
RTVSPost2010PropOp47
 70
     1
102
RTVSPost2010Prop48
 90
       50
102
RTVSPost2010PropOp48
 70
     1
102
RTVSPost2010Prop49
280
     0
102
RTVSPost2010PropOp49
 70
     1
102
RTVSPost2010Prop50
 90
       50
102
RTVSPost2010PropOp50
 70
     1
102
RTVSPost2010Prop51ColorIndex
 90
      256
102
RTVSPost2010Prop51ColorRGB
 90
-16777216
102
RTVSPost2010PropOp51
 70
     0
102
RTVSPost2010Prop52
140
1.0
102
RTVSPost2010PropOp52
 70
     0
102
RTVSPost2010Prop53
 90
        2
102
RTVSPost2010PropOp53
 70
     1
102
RTVSPost2010Prop54
  1
strokes_ogs.tif
102
RTVSPost2010PropOp54
 70
     1
102
RTVSPost2010Prop55
280
     0
102
RTVSPost2010PropOp55
 70
     1
102
RTVSPost2010Prop56
140
1.0
102
RTVSPost2010PropOp56
 70
     1
102
RTVSPost2010Prop57
140
1.0
102
RTVSPost2010PropOp57
 70
     1
  0
XRECORD
  5
1FD
102
{ACAD_REACTORS
330
1FC
102
}
330
1FC
100
AcDbXrecord
280
     1
102
RTVSPropertyOp0
 70
     1
102
RTVSPropertyOp1
 70
     1
102
RTVSPropertyOp2
 70
     1
102
RTVSPropertyOp3
 70
     1
102
RTVSPropertyOp4
 70
     1
102
RTVSPropertyOp5
 70
     1
102
RTVSPropertyOp6
 70
     1
102
RTVSPropertyOp7
 70
     1
102
RTVSPropertyOp8
 70
     1
102
RTVSPropertyOp9
 70
     1
102
RTVSPropertyOp10
 70
     1
102
RTVSPropertyOp11
 70
     1
102
RTVSPropertyOp12
 70
     1
102
RTVSPropertyOp13
 70
     1
102
RTVSPropertyOp14
 70
     1
102
RTVSPropertyOp15
 70
     1
102
RTVSPropertyOp16
 70
     1
102
RTVSPropertyOp17
 70
     1
102
RTVSPropertyOp18
 70
     1
102
RTVSPropertyOp19
 70
     1
102
RTVSPropertyOp20
 70
     1
102
RTVSPropertyOp21
 70
     1
102
RTVSPropertyOp22
 70
     1
102
RTVSPropertyOp23
 70
     1
102
RTVSPropertyOp24
 70
     1
102
RTVSPropertyOp25
 70
     1
102
RTVSPropertyOp26
 70
     1
102
RTVSPropertyOp27
 70
     1
102
RTVSPropertyOp28
 70
     1
102
RTVSPropertyOp29
 70
     1
102
RTVSPropertyOp30
 70
     1
102
RTVSPropertyOp31
 70
     1
102
RTVSPropertyOp32
 70
     1
102
RTVSPropertyOp33
 70
     1
102
RTVSPropertyOp34
 70
     1
102
RTVSPropertyOp35
 70
     1
102
RTVSPropertyOp36
 70
     1
102
RTVSPropertyOp37
 70
     1
102
RTVSPropertyOp38
 70
     1
102
RTVSPropertyOp39
 70
     1
102
RTVSPropertyOp40
 70
     1
102
RTVSPropertyOp41
 70
     1
102
RTVSPropertyOp42
 70
     1
102
RTVSPropertyOp43
 70
     1
102
RTVSPropertyOp44
 70
     1
102
RTVSPropertyOp45
 70
     1
102
RTVSPropertyOp46
 70
     1
102
RTVSPropertyOp47
 70
     1
102
RTVSPropertyOp48
 70
     1
102
RTVSPropertyOp49
 70
     1
102
RTVSPropertyOp50
 70
     1
102
RTVSPropertyOp51
 70
     0
102
RTVSPropertyOp52
 70
     0
102
RTVSPropertyOp53
 70
     1
102
RTVSPropertyOp54
 70
     1
102
RTVSPropertyOp55
 70
     1
102
RTVSPropertyOp56
 70
     1
102
RTVSPropertyOp57
 70
     1
102
RTVSPost2010Prop28
280
     0
102
RTVSPost2010PropOp28
 70
     1
102
RTVSPost2010Prop29
280
     1
102
RTVSPost2010PropOp29
 70
     1
102
RTVSPost2010Prop30
280
     1
102
RTVSPost2010PropOp30
 70
     1
102
RTVSPost2010Prop31
280
     0
102
RTVSPost2010PropOp31
 70
     1
102
RTVSPost2010Prop32
280
     0
102
RTVSPost2010PropOp32
 70
     1
102
RTVSPost2010Prop33
280
     0
102
RTVSPost2010PropOp33
 70
     1
102
RTVSPost2010Prop34
280
     0
102
RTVSPost2010PropOp34
 70
     1
102
RTVSPost2010Prop35
280
     0
102
RTVSPost2010PropOp35
 70
     1
102
RTVSPost2010Prop36
280
     0
102
RTVSPost2010PropOp36
 70
     1
102
RTVSPost2010Prop37
 90
       50
102
RTVSPost2010PropOp37
 70
     1
102
RTVSPost2010Prop38
140
0.0
102
RTVSPost2010PropOp38
 70
     1
102
RTVSPost2010Prop39
140
1.0
102
RTVSPost2010PropOp39
 70
     1
102
RTVSPost2010Prop40
 90
        0
102
RTVSPost2010PropOp40
 70
     1
102
RTVSPost2010Prop41ColorIndex
 90
       18
102
RTVSPost2010Prop41ColorRGB
 90
        0
102
RTVSPost2010PropOp41
 70
     1
102
RTVSPost2010Prop42
 90
       50
102
RTVSPost2010PropOp42
 70
     1
102
RTVSPost2010Prop43
 90
        3
102
RTVSPost2010PropOp43
 70
     1
102
RTVSPost2010Prop44ColorIndex
 90
        5
102
RTVSPost2010Prop44ColorRGB
 90
      255
102
RTVSPost2010PropOp44
 70
     1
102
RTVSPost2010Prop45
280
     0
102
RTVSPost2010PropOp45
 70
     1
102
RTVSPost2010Prop46
 90
       50
102
RTVSPost2010PropOp46
 70
     1
102
RTVSPost2010Prop47
 90
       50
102
RTVSPost2010PropOp47
 70
     1
102
RTVSPost2010Prop48
 90
       50
102
RTVSPost2010PropOp48
 70
     1
102
RTVSPost2010Prop49
280
     0
102
RTVSPost2010PropOp49
 70
     1
102
RTVSPost2010Prop50
 90
       50
102
RTVSPost2010PropOp50
 70
     1
102
RTVSPost2010Prop51ColorIndex
 90
      256
102
RTVSPost2010Prop51ColorRGB
 90
-16777216
102
RTVSPost2010PropOp51
 70
     0
102
RTVSPost2010Prop52
140
1.0
102
RTVSPost2010PropOp52
 70
     0
102
RTVSPost2010Prop53
 90
        2
102
RTVSPost2010PropOp53
 70
     1
102
RTVSPost2010Prop54
  1
strokes_ogs.tif
102
RTVSPost2010PropOp54
 70
     1
102
RTVSPost2010Prop55
280
     0
102
RTVSPost2010PropOp55
 70
     1
102
RTVSPost2010Prop56
140
1.0
102
RTVSPost2010PropOp56
 70
     1
102
RTVSPost2010Prop57
140
1.0
102
RTVSPost2010PropOp57
 70
     1
  0
XRECORD
  5
20D
102
{ACAD_REACTORS
330
20C
102
}
330
20C
100
AcDbXrecord
280
     1
102
RTVSPropertyOp0
 70
     0
102
RTVSPropertyOp1
 70
     0
102
RTVSPropertyOp2
 70
     0
102
RTVSPropertyOp3
 70
     0
102
RTVSPropertyOp4
 70
     0
102
RTVSPropertyOp5
 70
     0
102
RTVSPropertyOp6
 70
     0
102
RTVSPropertyOp7
 70
     0
102
RTVSPropertyOp8
 70
     0
102
RTVSPropertyOp9
 70
     0
102
RTVSPropertyOp10
 70
     0
102
RTVSPropertyOp11
 70
     0
102
RTVSPropertyOp12
 70
     0
102
RTVSPropertyOp13
 70
     0
102
RTVSPropertyOp14
 70
     2
102
RTVSPropertyOp15
 70
     0
102
RTVSPropertyOp16
 70
     0
102
RTVSPropertyOp17
 70
     0
102
RTVSPropertyOp18
 70
     0
102
RTVSPropertyOp19
 70
     0
102
RTVSPropertyOp20
 70
     0
102
RTVSPropertyOp21
 70
     0
102
RTVSPropertyOp22
 70
     0
102
RTVSPropertyOp23
 70
     0
102
RTVSPropertyOp24
 70
     0
102
RTVSPropertyOp25
 70
     0
102
RTVSPropertyOp26
 70
     0
102
RTVSPropertyOp27
 70
     0
102
RTVSPropertyOp28
 70
     0
102
RTVSPropertyOp29
 70
     0
102
RTVSPropertyOp30
 70
     0
102
RTVSPropertyOp31
 70
     0
102
RTVSPropertyOp32
 70
     0
102
RTVSPropertyOp33
 70
     0
102
RTVSPropertyOp34
 70
     0
102
RTVSPropertyOp35
 70
     0
102
RTVSPropertyOp36
 70
     0
102
RTVSPropertyOp37
 70
     0
102
RTVSPropertyOp38
 70
     0
102
RTVSPropertyOp39
 70
     0
102
RTVSPropertyOp40
 70
     0
102
RTVSPropertyOp41
 70
     0
102
RTVSPropertyOp42
 70
     0
102
RTVSPropertyOp43
 70
     0
102
RTVSPropertyOp44
 70
     0
102
RTVSPropertyOp45
 70
     0
102
RTVSPropertyOp46
 70
     0
102
RTVSPropertyOp47
 70
     0
102
RTVSPropertyOp48
 70
     0
102
RTVSPropertyOp49
 70
     0
102
RTVSPropertyOp50
 70
     0
102
RTVSPropertyOp51
 70
     0
102
RTVSPropertyOp52
 70
     0
102
RTVSPropertyOp53
 70
     0
102
RTVSPropertyOp54
 70
     0
102
RTVSPropertyOp55
 70
     0
102
RTVSPropertyOp56
 70
     0
102
RTVSPropertyOp57
 70
     0
102
RTVSPost2010Prop28
280
     0
102
RTVSPost2010PropOp28
 70
     0
102
RTVSPost2010Prop29
280
     1
102
RTVSPost2010PropOp29
 70
     0
102
RTVSPost2010Prop30
280
     1
102
RTVSPost2010PropOp30
 70
     0
102
RTVSPost2010Prop31
280
     0
102
RTVSPost2010PropOp31
 70
     0
102
RTVSPost2010Prop32
280
     0
102
RTVSPost2010PropOp32
 70
     0
102
RTVSPost2010Prop33
280
     0
102
RTVSPost2010PropOp33
 70
     0
102
RTVSPost2010Prop34
280
     0
102
RTVSPost2010PropOp34
 70
     0
102
RTVSPost2010Prop35
280
     0
102
RTVSPost2010PropOp35
 70
     0
102
RTVSPost2010Prop36
280
     0
102
RTVSPost2010PropOp36
 70
     0
102
RTVSPost2010Prop37
 90
       50
102
RTVSPost2010PropOp37
 70
     0
102
RTVSPost2010Prop38
140
0.0
102
RTVSPost2010PropOp38
 70
     0
102
RTVSPost2010Prop39
140
1.0
102
RTVSPost2010PropOp39
 70
     0
102
RTVSPost2010Prop40
 90
        0
102
RTVSPost2010PropOp40
 70
     0
102
RTVSPost2010Prop41ColorIndex
 90
       18
102
RTVSPost2010Prop41ColorRGB
 90
        0
102
RTVSPost2010PropOp41
 70
     0
102
RTVSPost2010Prop42
 90
       50
102
RTVSPost2010PropOp42
 70
     0
102
RTVSPost2010Prop43
 90
        3
102
RTVSPost2010PropOp43
 70
     0
102
RTVSPost2010Prop44ColorIndex
 90
        5
102
RTVSPost2010Prop44ColorRGB
 90
      255
102
RTVSPost2010PropOp44
 70
     0
102
RTVSPost2010Prop45
280
     0
102
RTVSPost2010PropOp45
 70
     0
102
RTVSPost2010Prop46
 90
       50
102
RTVSPost2010PropOp46
 70
     0
102
RTVSPost2010Prop47
 90
       50
102
RTVSPost2010PropOp47
 70
     0
102
RTVSPost2010Prop48
 90
       50
102
RTVSPost2010PropOp48
 70
     0
102
RTVSPost2010Prop49
280
     0
102
RTVSPost2010PropOp49
 70
     0
102
RTVSPost2010Prop50
 90
       50
102
RTVSPost2010PropOp50
 70
     0
102
RTVSPost2010Prop51ColorIndex
 90
      256
102
RTVSPost2010Prop51ColorRGB
 90
-16777216
102
RTVSPost2010PropOp51
 70
     0
102
RTVSPost2010Prop52
140
1.0
102
RTVSPost2010PropOp52
 70
     0
102
RTVSPost2010Prop53
 90
        2
102
RTVSPost2010PropOp53
 70
     0
102
RTVSPost2010Prop54
  1
strokes_ogs.tif
102
RTVSPost2010PropOp54
 70
     0
102
RTVSPost2010Prop55
280
     0
102
RTVSPost2010PropOp55
 70
     0
102
RTVSPost2010Prop56
140
1.0
102
RTVSPost2010PropOp56
 70
     0
102
RTVSPost2010Prop57
140
1.0
102
RTVSPost2010PropOp57
 70
     0
  0
XRECORD
  5
205
102
{ACAD_REACTORS
330
204
102
}
330
204
100
AcDbXrecord
280
     1
102
RTVSPropertyOp0
 70
     1
102
RTVSPropertyOp1
 70
     1
102
RTVSPropertyOp2
 70
     1
102
RTVSPropertyOp3
 70
     1
102
RTVSPropertyOp4
 70
     1
102
RTVSPropertyOp5
 70
     1
102
RTVSPropertyOp6
 70
     1
102
RTVSPropertyOp7
 70
     1
102
RTVSPropertyOp8
 70
     1
102
RTVSPropertyOp9
 70
     1
102
RTVSPropertyOp10
 70
     1
102
RTVSPropertyOp11
 70
     1
102
RTVSPropertyOp12
 70
     1
102
RTVSPropertyOp13
 70
     1
102
RTVSPropertyOp14
 70
     1
102
RTVSPropertyOp15
 70
     1
102
RTVSPropertyOp16
 70
     1
102
RTVSPropertyOp17
 70
     1
102
RTVSPropertyOp18
 70
     1
102
RTVSPropertyOp19
 70
     1
102
RTVSPropertyOp20
 70
     1
102
RTVSPropertyOp21
 70
     1
102
RTVSPropertyOp22
 70
     1
102
RTVSPropertyOp23
 70
     1
102
RTVSPropertyOp24
 70
     1
102
RTVSPropertyOp25
 70
     1
102
RTVSPropertyOp26
 70
     1
102
RTVSPropertyOp27
 70
     1
102
RTVSPropertyOp28
 70
     1
102
RTVSPropertyOp29
 70
     1
102
RTVSPropertyOp30
 70
     1
102
RTVSPropertyOp31
 70
     1
102
RTVSPropertyOp32
 70
     1
102
RTVSPropertyOp33
 70
     1
102
RTVSPropertyOp34
 70
     1
102
RTVSPropertyOp35
 70
     1
102
RTVSPropertyOp36
 70
     1
102
RTVSPropertyOp37
 70
     1
102
RTVSPropertyOp38
 70
     1
102
RTVSPropertyOp39
 70
     1
102
RTVSPropertyOp40
 70
     1
102
RTVSPropertyOp41
 70
     1
102
RTVSPropertyOp42
 70
     1
102
RTVSPropertyOp43
 70
     1
102
RTVSPropertyOp44
 70
     1
102
RTVSPropertyOp45
 70
     1
102
RTVSPropertyOp46
 70
     1
102
RTVSPropertyOp47
 70
     1
102
RTVSPropertyOp48
 70
     1
102
RTVSPropertyOp49
 70
     1
102
RTVSPropertyOp50
 70
     1
102
RTVSPropertyOp51
 70
     0
102
RTVSPropertyOp52
 70
     0
102
RTVSPropertyOp53
 70
     1
102
RTVSPropertyOp54
 70
     1
102
RTVSPropertyOp55
 70
     1
102
RTVSPropertyOp56
 70
     1
102
RTVSPropertyOp57
 70
     1
102
RTVSPost2010Prop28
280
     0
102
RTVSPost2010PropOp28
 70
     1
102
RTVSPost2010Prop29
280
     1
102
RTVSPost2010PropOp29
 70
     1
102
RTVSPost2010Prop30
280
     1
102
RTVSPost2010PropOp30
 70
     1
102
RTVSPost2010Prop31
280
     0
102
RTVSPost2010PropOp31
 70
     1
102
RTVSPost2010Prop32
280
     0
102
RTVSPost2010PropOp32
 70
     1
102
RTVSPost2010Prop33
280
     0
102
RTVSPost2010PropOp33
 70
     1
102
RTVSPost2010Prop34
280
     0
102
RTVSPost2010PropOp34
 70
     1
102
RTVSPost2010Prop35
280
     0
102
RTVSPost2010PropOp35
 70
     1
102
RTVSPost2010Prop36
280
     0
102
RTVSPost2010PropOp36
 70
     1
102
RTVSPost2010Prop37
 90
       50
102
RTVSPost2010PropOp37
 70
     1
102
RTVSPost2010Prop38
140
0.0
102
RTVSPost2010PropOp38
 70
     1
102
RTVSPost2010Prop39
140
1.0
102
RTVSPost2010PropOp39
 70
     1
102
RTVSPost2010Prop40
 90
        0
102
RTVSPost2010PropOp40
 70
     1
102
RTVSPost2010Prop41ColorIndex
 90
       18
102
RTVSPost2010Prop41ColorRGB
 90
        0
102
RTVSPost2010PropOp41
 70
     1
102
RTVSPost2010Prop42
 90
       50
102
RTVSPost2010PropOp42
 70
     1
102
RTVSPost2010Prop43
 90
        3
102
RTVSPost2010PropOp43
 70
     1
102
RTVSPost2010Prop44ColorIndex
 90
        5
102
RTVSPost2010Prop44ColorRGB
 90
      255
102
RTVSPost2010PropOp44
 70
     1
102
RTVSPost2010Prop45
280
     0
102
RTVSPost2010PropOp45
 70
     1
102
RTVSPost2010Prop46
 90
       50
102
RTVSPost2010PropOp46
 70
     1
102
RTVSPost2010Prop47
 90
       50
102
RTVSPost2010PropOp47
 70
     1
102
RTVSPost2010Prop48
 90
       50
102
RTVSPost2010PropOp48
 70
     1
102
RTVSPost2010Prop49
280
     0
102
RTVSPost2010PropOp49
 70
     1
102
RTVSPost2010Prop50
 90
       50
102
RTVSPost2010PropOp50
 70
     1
102
RTVSPost2010Prop51ColorIndex
 90
      256
102
RTVSPost2010Prop51ColorRGB
 90
-16777216
102
RTVSPost2010PropOp51
 70
     0
102
RTVSPost2010Prop52
140
1.0
102
RTVSPost2010PropOp52
 70
     0
102
RTVSPost2010Prop53
 90
        2
102
RTVSPost2010PropOp53
 70
     1
102
RTVSPost2010Prop54
  1
strokes_ogs.tif
102
RTVSPost2010PropOp54
 70
     1
102
RTVSPost2010Prop55
280
     0
102
RTVSPost2010PropOp55
 70
     1
102
RTVSPost2010Prop56
140
1.0
102
RTVSPost2010PropOp56
 70
     1
102
RTVSPost2010Prop57
140
1.0
102
RTVSPost2010PropOp57
 70
     1
  0
XRECORD
  5
1E9
102
{ACAD_REACTORS
330
1E8
102
}
330
1E8
100
AcDbXrecord
280
     1
102
RTVSPropertyOp0
 70
     1
102
RTVSPropertyOp1
 70
     1
102
RTVSPropertyOp2
 70
     1
102
RTVSPropertyOp3
 70
     1
102
RTVSPropertyOp4
 70
     1
102
RTVSPropertyOp5
 70
     1
102
RTVSPropertyOp6
 70
     1
102
RTVSPropertyOp7
 70
     1
102
RTVSPropertyOp8
 70
     1
102
RTVSPropertyOp9
 70
     1
102
RTVSPropertyOp10
 70
     1
102
RTVSPropertyOp11
 70
     1
102
RTVSPropertyOp12
 70
     1
102
RTVSPropertyOp13
 70
     1
102
RTVSPropertyOp14
 70
     1
102
RTVSPropertyOp15
 70
     1
102
RTVSPropertyOp16
 70
     1
102
RTVSPropertyOp17
 70
     1
102
RTVSPropertyOp18
 70
     1
102
RTVSPropertyOp19
 70
     1
102
RTVSPropertyOp20
 70
     1
102
RTVSPropertyOp21
 70
     1
102
RTVSPropertyOp22
 70
     1
102
RTVSPropertyOp23
 70
     1
102
RTVSPropertyOp24
 70
     1
102
RTVSPropertyOp25
 70
     1
102
RTVSPropertyOp26
 70
     1
102
RTVSPropertyOp27
 70
     1
102
RTVSPropertyOp28
 70
     1
102
RTVSPropertyOp29
 70
     1
102
RTVSPropertyOp30
 70
     1
102
RTVSPropertyOp31
 70
     1
102
RTVSPropertyOp32
 70
     1
102
RTVSPropertyOp33
 70
     1
102
RTVSPropertyOp34
 70
     1
102
RTVSPropertyOp35
 70
     1
102
RTVSPropertyOp36
 70
     1
102
RTVSPropertyOp37
 70
     1
102
RTVSPropertyOp38
 70
     1
102
RTVSPropertyOp39
 70
     1
102
RTVSPropertyOp40
 70
     1
102
RTVSPropertyOp41
 70
     1
102
RTVSPropertyOp42
 70
     1
102
RTVSPropertyOp43
 70
     1
102
RTVSPropertyOp44
 70
     1
102
RTVSPropertyOp45
 70
     1
102
RTVSPropertyOp46
 70
     1
102
RTVSPropertyOp47
 70
     1
102
RTVSPropertyOp48
 70
     1
102
RTVSPropertyOp49
 70
     1
102
RTVSPropertyOp50
 70
     1
102
RTVSPropertyOp51
 70
     0
102
RTVSPropertyOp52
 70
     0
102
RTVSPropertyOp53
 70
     1
102
RTVSPropertyOp54
 70
     1
102
RTVSPropertyOp55
 70
     1
102
RTVSPropertyOp56
 70
     1
102
RTVSPropertyOp57
 70
     1
102
RTVSPost2010Prop28
280
     0
102
RTVSPost2010PropOp28
 70
     1
102
RTVSPost2010Prop29
280
     1
102
RTVSPost2010PropOp29
 70
     1
102
RTVSPost2010Prop30
280
     1
102
RTVSPost2010PropOp30
 70
     1
102
RTVSPost2010Prop31
280
     0
102
RTVSPost2010PropOp31
 70
     1
102
RTVSPost2010Prop32
280
     0
102
RTVSPost2010PropOp32
 70
     1
102
RTVSPost2010Prop33
280
     0
102
RTVSPost2010PropOp33
 70
     1
102
RTVSPost2010Prop34
280
     0
102
RTVSPost2010PropOp34
 70
     1
102
RTVSPost2010Prop35
280
     0
102
RTVSPost2010PropOp35
 70
     1
102
RTVSPost2010Prop36
280
     0
102
RTVSPost2010PropOp36
 70
     1
102
RTVSPost2010Prop37
 90
       50
102
RTVSPost2010PropOp37
 70
     1
102
RTVSPost2010Prop38
140
0.0
102
RTVSPost2010PropOp38
 70
     1
102
RTVSPost2010Prop39
140
1.0
102
RTVSPost2010PropOp39
 70
     1
102
RTVSPost2010Prop40
 90
        0
102
RTVSPost2010PropOp40
 70
     1
102
RTVSPost2010Prop41ColorIndex
 90
       18
102
RTVSPost2010Prop41ColorRGB
 90
        0
102
RTVSPost2010PropOp41
 70
     1
102
RTVSPost2010Prop42
 90
       50
102
RTVSPost2010PropOp42
 70
     1
102
RTVSPost2010Prop43
 90
        3
102
RTVSPost2010PropOp43
 70
     1
102
RTVSPost2010Prop44ColorIndex
 90
        5
102
RTVSPost2010Prop44ColorRGB
 90
      255
102
RTVSPost2010PropOp44
 70
     1
102
RTVSPost2010Prop45
280
     0
102
RTVSPost2010PropOp45
 70
     1
102
RTVSPost2010Prop46
 90
       50
102
RTVSPost2010PropOp46
 70
     1
102
RTVSPost2010Prop47
 90
       50
102
RTVSPost2010PropOp47
 70
     1
102
RTVSPost2010Prop48
 90
       50
102
RTVSPost2010PropOp48
 70
     1
102
RTVSPost2010Prop49
280
     0
102
RTVSPost2010PropOp49
 70
     1
102
RTVSPost2010Prop50
 90
       50
102
RTVSPost2010PropOp50
 70
     1
102
RTVSPost2010Prop51ColorIndex
 90
      256
102
RTVSPost2010Prop51ColorRGB
 90
-16777216
102
RTVSPost2010PropOp51
 70
     0
102
RTVSPost2010Prop52
140
1.0
102
RTVSPost2010PropOp52
 70
     0
102
RTVSPost2010Prop53
 90
        2
102
RTVSPost2010PropOp53
 70
     1
102
RTVSPost2010Prop54
  1
strokes_ogs.tif
102
RTVSPost2010PropOp54
 70
     1
102
RTVSPost2010Prop55
280
     0
102
RTVSPost2010PropOp55
 70
     1
102
RTVSPost2010Prop56
140
1.0
102
RTVSPost2010PropOp56
 70
     1
102
RTVSPost2010Prop57
140
1.0
102
RTVSPost2010PropOp57
 70
     1
  0
XRECORD
  5
1EB
102
{ACAD_REACTORS
330
1EA
102
}
330
1EA
100
AcDbXrecord
280
     1
102
RTVSPropertyOp0
 70
     1
102
RTVSPropertyOp1
 70
     1
102
RTVSPropertyOp2
 70
     1
102
RTVSPropertyOp3
 70
     1
102
RTVSPropertyOp4
 70
     1
102
RTVSPropertyOp5
 70
     1
102
RTVSPropertyOp6
 70
     1
102
RTVSPropertyOp7
 70
     1
102
RTVSPropertyOp8
 70
     1
102
RTVSPropertyOp9
 70
     1
102
RTVSPropertyOp10
 70
     1
102
RTVSPropertyOp11
 70
     1
102
RTVSPropertyOp12
 70
     1
102
RTVSPropertyOp13
 70
     1
102
RTVSPropertyOp14
 70
     1
102
RTVSPropertyOp15
 70
     1
102
RTVSPropertyOp16
 70
     1
102
RTVSPropertyOp17
 70
     1
102
RTVSPropertyOp18
 70
     1
102
RTVSPropertyOp19
 70
     1
102
RTVSPropertyOp20
 70
     1
102
RTVSPropertyOp21
 70
     1
102
RTVSPropertyOp22
 70
     1
102
RTVSPropertyOp23
 70
     1
102
RTVSPropertyOp24
 70
     1
102
RTVSPropertyOp25
 70
     1
102
RTVSPropertyOp26
 70
     1
102
RTVSPropertyOp27
 70
     1
102
RTVSPropertyOp28
 70
     1
102
RTVSPropertyOp29
 70
     1
102
RTVSPropertyOp30
 70
     1
102
RTVSPropertyOp31
 70
     1
102
RTVSPropertyOp32
 70
     1
102
RTVSPropertyOp33
 70
     1
102
RTVSPropertyOp34
 70
     1
102
RTVSPropertyOp35
 70
     1
102
RTVSPropertyOp36
 70
     1
102
RTVSPropertyOp37
 70
     1
102
RTVSPropertyOp38
 70
     1
102
RTVSPropertyOp39
 70
     1
102
RTVSPropertyOp40
 70
     1
102
RTVSPropertyOp41
 70
     1
102
RTVSPropertyOp42
 70
     1
102
RTVSPropertyOp43
 70
     1
102
RTVSPropertyOp44
 70
     1
102
RTVSPropertyOp45
 70
     1
102
RTVSPropertyOp46
 70
     1
102
RTVSPropertyOp47
 70
     1
102
RTVSPropertyOp48
 70
     1
102
RTVSPropertyOp49
 70
     1
102
RTVSPropertyOp50
 70
     1
102
RTVSPropertyOp51
 70
     0
102
RTVSPropertyOp52
 70
     0
102
RTVSPropertyOp53
 70
     1
102
RTVSPropertyOp54
 70
     1
102
RTVSPropertyOp55
 70
     1
102
RTVSPropertyOp56
 70
     1
102
RTVSPropertyOp57
 70
     1
102
RTVSPost2010Prop28
280
     0
102
RTVSPost2010PropOp28
 70
     1
102
RTVSPost2010Prop29
280
     1
102
RTVSPost2010PropOp29
 70
     1
102
RTVSPost2010Prop30
280
     1
102
RTVSPost2010PropOp30
 70
     1
102
RTVSPost2010Prop31
280
     0
102
RTVSPost2010PropOp31
 70
     1
102
RTVSPost2010Prop32
280
     0
102
RTVSPost2010PropOp32
 70
     1
102
RTVSPost2010Prop33
280
     0
102
RTVSPost2010PropOp33
 70
     1
102
RTVSPost2010Prop34
280
     0
102
RTVSPost2010PropOp34
 70
     1
102
RTVSPost2010Prop35
280
     0
102
RTVSPost2010PropOp35
 70
     1
102
RTVSPost2010Prop36
280
     0
102
RTVSPost2010PropOp36
 70
     1
102
RTVSPost2010Prop37
 90
       50
102
RTVSPost2010PropOp37
 70
     1
102
RTVSPost2010Prop38
140
0.0
102
RTVSPost2010PropOp38
 70
     1
102
RTVSPost2010Prop39
140
1.0
102
RTVSPost2010PropOp39
 70
     1
102
RTVSPost2010Prop40
 90
        0
102
RTVSPost2010PropOp40
 70
     1
102
RTVSPost2010Prop41ColorIndex
 90
       18
102
RTVSPost2010Prop41ColorRGB
 90
        0
102
RTVSPost2010PropOp41
 70
     1
102
RTVSPost2010Prop42
 90
       50
102
RTVSPost2010PropOp42
 70
     1
102
RTVSPost2010Prop43
 90
        3
102
RTVSPost2010PropOp43
 70
     1
102
RTVSPost2010Prop44ColorIndex
 90
        5
102
RTVSPost2010Prop44ColorRGB
 90
      255
102
RTVSPost2010PropOp44
 70
     1
102
RTVSPost2010Prop45
280
     0
102
RTVSPost2010PropOp45
 70
     1
102
RTVSPost2010Prop46
 90
       50
102
RTVSPost2010PropOp46
 70
     1
102
RTVSPost2010Prop47
 90
       50
102
RTVSPost2010PropOp47
 70
     1
102
RTVSPost2010Prop48
 90
       50
102
RTVSPost2010PropOp48
 70
     1
102
RTVSPost2010Prop49
280
     0
102
RTVSPost2010PropOp49
 70
     1
102
RTVSPost2010Prop50
 90
       50
102
RTVSPost2010PropOp50
 70
     1
102
RTVSPost2010Prop51ColorIndex
 90
      256
102
RTVSPost2010Prop51ColorRGB
 90
-16777216
102
RTVSPost2010PropOp51
 70
     0
102
RTVSPost2010Prop52
140
1.0
102
RTVSPost2010PropOp52
 70
     0
102
RTVSPost2010Prop53
 90
        2
102
RTVSPost2010PropOp53
 70
     1
102
RTVSPost2010Prop54
  1
strokes_ogs.tif
102
RTVSPost2010PropOp54
 70
     1
102
RTVSPost2010Prop55
280
     0
102
RTVSPost2010PropOp55
 70
     1
102
RTVSPost2010Prop56
140
1.0
102
RTVSPost2010PropOp56
 70
     1
102
RTVSPost2010Prop57
140
1.0
102
RTVSPost2010PropOp57
 70
     1
  0
XRECORD
  5
1ED
102
{ACAD_REACTORS
330
1EC
102
}
330
1EC
100
AcDbXrecord
280
     1
102
RTVSPropertyOp0
 70
     1
102
RTVSPropertyOp1
 70
     1
102
RTVSPropertyOp2
 70
     1
102
RTVSPropertyOp3
 70
     1
102
RTVSPropertyOp4
 70
     1
102
RTVSPropertyOp5
 70
     1
102
RTVSPropertyOp6
 70
     1
102
RTVSPropertyOp7
 70
     1
102
RTVSPropertyOp8
 70
     1
102
RTVSPropertyOp9
 70
     1
102
RTVSPropertyOp10
 70
     1
102
RTVSPropertyOp11
 70
     1
102
RTVSPropertyOp12
 70
     1
102
RTVSPropertyOp13
 70
     1
102
RTVSPropertyOp14
 70
     1
102
RTVSPropertyOp15
 70
     1
102
RTVSPropertyOp16
 70
     1
102
RTVSPropertyOp17
 70
     1
102
RTVSPropertyOp18
 70
     1
102
RTVSPropertyOp19
 70
     1
102
RTVSPropertyOp20
 70
     1
102
RTVSPropertyOp21
 70
     1
102
RTVSPropertyOp22
 70
     1
102
RTVSPropertyOp23
 70
     1
102
RTVSPropertyOp24
 70
     1
102
RTVSPropertyOp25
 70
     1
102
RTVSPropertyOp26
 70
     1
102
RTVSPropertyOp27
 70
     1
102
RTVSPropertyOp28
 70
     1
102
RTVSPropertyOp29
 70
     1
102
RTVSPropertyOp30
 70
     1
102
RTVSPropertyOp31
 70
     1
102
RTVSPropertyOp32
 70
     1
102
RTVSPropertyOp33
 70
     1
102
RTVSPropertyOp34
 70
     1
102
RTVSPropertyOp35
 70
     1
102
RTVSPropertyOp36
 70
     1
102
RTVSPropertyOp37
 70
     1
102
RTVSPropertyOp38
 70
     1
102
RTVSPropertyOp39
 70
     1
102
RTVSPropertyOp40
 70
     1
102
RTVSPropertyOp41
 70
     1
102
RTVSPropertyOp42
 70
     1
102
RTVSPropertyOp43
 70
     1
102
RTVSPropertyOp44
 70
     1
102
RTVSPropertyOp45
 70
     1
102
RTVSPropertyOp46
 70
     1
102
RTVSPropertyOp47
 70
     1
102
RTVSPropertyOp48
 70
     1
102
RTVSPropertyOp49
 70
     1
102
RTVSPropertyOp50
 70
     1
102
RTVSPropertyOp51
 70
     0
102
RTVSPropertyOp52
 70
     0
102
RTVSPropertyOp53
 70
     1
102
RTVSPropertyOp54
 70
     1
102
RTVSPropertyOp55
 70
     1
102
RTVSPropertyOp56
 70
     1
102
RTVSPropertyOp57
 70
     1
102
RTVSPost2010Prop28
280
     0
102
RTVSPost2010PropOp28
 70
     1
102
RTVSPost2010Prop29
280
     1
102
RTVSPost2010PropOp29
 70
     1
102
RTVSPost2010Prop30
280
     1
102
RTVSPost2010PropOp30
 70
     1
102
RTVSPost2010Prop31
280
     0
102
RTVSPost2010PropOp31
 70
     1
102
RTVSPost2010Prop32
280
     0
102
RTVSPost2010PropOp32
 70
     1
102
RTVSPost2010Prop33
280
     0
102
RTVSPost2010PropOp33
 70
     1
102
RTVSPost2010Prop34
280
     0
102
RTVSPost2010PropOp34
 70
     1
102
RTVSPost2010Prop35
280
     0
102
RTVSPost2010PropOp35
 70
     1
102
RTVSPost2010Prop36
280
     0
102
RTVSPost2010PropOp36
 70
     1
102
RTVSPost2010Prop37
 90
       50
102
RTVSPost2010PropOp37
 70
     1
102
RTVSPost2010Prop38
140
0.0
102
RTVSPost2010PropOp38
 70
     1
102
RTVSPost2010Prop39
140
1.0
102
RTVSPost2010PropOp39
 70
     1
102
RTVSPost2010Prop40
 90
        0
102
RTVSPost2010PropOp40
 70
     1
102
RTVSPost2010Prop41ColorIndex
 90
       18
102
RTVSPost2010Prop41ColorRGB
 90
        0
102
RTVSPost2010PropOp41
 70
     1
102
RTVSPost2010Prop42
 90
       50
102
RTVSPost2010PropOp42
 70
     1
102
RTVSPost2010Prop43
 90
        3
102
RTVSPost2010PropOp43
 70
     1
102
RTVSPost2010Prop44ColorIndex
 90
        5
102
RTVSPost2010Prop44ColorRGB
 90
      255
102
RTVSPost2010PropOp44
 70
     1
102
RTVSPost2010Prop45
280
     0
102
RTVSPost2010PropOp45
 70
     1
102
RTVSPost2010Prop46
 90
       50
102
RTVSPost2010PropOp46
 70
     1
102
RTVSPost2010Prop47
 90
       50
102
RTVSPost2010PropOp47
 70
     1
102
RTVSPost2010Prop48
 90
       50
102
RTVSPost2010PropOp48
 70
     1
102
RTVSPost2010Prop49
280
     0
102
RTVSPost2010PropOp49
 70
     1
102
RTVSPost2010Prop50
 90
       50
102
RTVSPost2010PropOp50
 70
     1
102
RTVSPost2010Prop51ColorIndex
 90
      256
102
RTVSPost2010Prop51ColorRGB
 90
-16777216
102
RTVSPost2010PropOp51
 70
     0
102
RTVSPost2010Prop52
140
1.0
102
RTVSPost2010PropOp52
 70
     0
102
RTVSPost2010Prop53
 90
        2
102
RTVSPost2010PropOp53
 70
     1
102
RTVSPost2010Prop54
  1
strokes_ogs.tif
102
RTVSPost2010PropOp54
 70
     1
102
RTVSPost2010Prop55
280
     0
102
RTVSPost2010PropOp55
 70
     1
102
RTVSPost2010Prop56
140
1.0
102
RTVSPost2010PropOp56
 70
     1
102
RTVSPost2010Prop57
140
1.0
102
RTVSPost2010PropOp57
 70
     1
  0
XRECORD
  5
1EF
102
{ACAD_REACTORS
330
1EE
102
}
330
1EE
100
AcDbXrecord
280
     1
102
RTVSPropertyOp0
 70
     1
102
RTVSPropertyOp1
 70
     1
102
RTVSPropertyOp2
 70
     1
102
RTVSPropertyOp3
 70
     1
102
RTVSPropertyOp4
 70
     1
102
RTVSPropertyOp5
 70
     1
102
RTVSPropertyOp6
 70
     1
102
RTVSPropertyOp7
 70
     1
102
RTVSPropertyOp8
 70
     1
102
RTVSPropertyOp9
 70
     1
102
RTVSPropertyOp10
 70
     1
102
RTVSPropertyOp11
 70
     1
102
RTVSPropertyOp12
 70
     1
102
RTVSPropertyOp13
 70
     1
102
RTVSPropertyOp14
 70
     1
102
RTVSPropertyOp15
 70
     1
102
RTVSPropertyOp16
 70
     1
102
RTVSPropertyOp17
 70
     1
102
RTVSPropertyOp18
 70
     1
102
RTVSPropertyOp19
 70
     1
102
RTVSPropertyOp20
 70
     1
102
RTVSPropertyOp21
 70
     1
102
RTVSPropertyOp22
 70
     1
102
RTVSPropertyOp23
 70
     1
102
RTVSPropertyOp24
 70
     1
102
RTVSPropertyOp25
 70
     1
102
RTVSPropertyOp26
 70
     1
102
RTVSPropertyOp27
 70
     1
102
RTVSPropertyOp28
 70
     1
102
RTVSPropertyOp29
 70
     1
102
RTVSPropertyOp30
 70
     1
102
RTVSPropertyOp31
 70
     1
102
RTVSPropertyOp32
 70
     1
102
RTVSPropertyOp33
 70
     1
102
RTVSPropertyOp34
 70
     1
102
RTVSPropertyOp35
 70
     1
102
RTVSPropertyOp36
 70
     1
102
RTVSPropertyOp37
 70
     1
102
RTVSPropertyOp38
 70
     1
102
RTVSPropertyOp39
 70
     1
102
RTVSPropertyOp40
 70
     1
102
RTVSPropertyOp41
 70
     1
102
RTVSPropertyOp42
 70
     1
102
RTVSPropertyOp43
 70
     1
102
RTVSPropertyOp44
 70
     1
102
RTVSPropertyOp45
 70
     1
102
RTVSPropertyOp46
 70
     1
102
RTVSPropertyOp47
 70
     1
102
RTVSPropertyOp48
 70
     1
102
RTVSPropertyOp49
 70
     1
102
RTVSPropertyOp50
 70
     1
102
RTVSPropertyOp51
 70
     0
102
RTVSPropertyOp52
 70
     0
102
RTVSPropertyOp53
 70
     1
102
RTVSPropertyOp54
 70
     1
102
RTVSPropertyOp55
 70
     1
102
RTVSPropertyOp56
 70
     1
102
RTVSPropertyOp57
 70
     1
102
RTVSPost2010Prop28
280
     0
102
RTVSPost2010PropOp28
 70
     1
102
RTVSPost2010Prop29
280
     1
102
RTVSPost2010PropOp29
 70
     1
102
RTVSPost2010Prop30
280
     1
102
RTVSPost2010PropOp30
 70
     1
102
RTVSPost2010Prop31
280
     0
102
RTVSPost2010PropOp31
 70
     1
102
RTVSPost2010Prop32
280
     0
102
RTVSPost2010PropOp32
 70
     1
102
RTVSPost2010Prop33
280
     0
102
RTVSPost2010PropOp33
 70
     1
102
RTVSPost2010Prop34
280
     0
102
RTVSPost2010PropOp34
 70
     1
102
RTVSPost2010Prop35
280
     0
102
RTVSPost2010PropOp35
 70
     1
102
RTVSPost2010Prop36
280
     0
102
RTVSPost2010PropOp36
 70
     1
102
RTVSPost2010Prop37
 90
       50
102
RTVSPost2010PropOp37
 70
     1
102
RTVSPost2010Prop38
140
0.0
102
RTVSPost2010PropOp38
 70
     1
102
RTVSPost2010Prop39
140
1.0
102
RTVSPost2010PropOp39
 70
     1
102
RTVSPost2010Prop40
 90
        0
102
RTVSPost2010PropOp40
 70
     1
102
RTVSPost2010Prop41ColorIndex
 90
       18
102
RTVSPost2010Prop41ColorRGB
 90
        0
102
RTVSPost2010PropOp41
 70
     1
102
RTVSPost2010Prop42
 90
       50
102
RTVSPost2010PropOp42
 70
     1
102
RTVSPost2010Prop43
 90
        3
102
RTVSPost2010PropOp43
 70
     1
102
RTVSPost2010Prop44ColorIndex
 90
        5
102
RTVSPost2010Prop44ColorRGB
 90
      255
102
RTVSPost2010PropOp44
 70
     1
102
RTVSPost2010Prop45
280
     0
102
RTVSPost2010PropOp45
 70
     1
102
RTVSPost2010Prop46
 90
       50
102
RTVSPost2010PropOp46
 70
     1
102
RTVSPost2010Prop47
 90
       50
102
RTVSPost2010PropOp47
 70
     1
102
RTVSPost2010Prop48
 90
       50
102
RTVSPost2010PropOp48
 70
     1
102
RTVSPost2010Prop49
280
     0
102
RTVSPost2010PropOp49
 70
     1
102
RTVSPost2010Prop50
 90
       50
102
RTVSPost2010PropOp50
 70
     1
102
RTVSPost2010Prop51ColorIndex
 90
      256
102
RTVSPost2010Prop51ColorRGB
 90
-16777216
102
RTVSPost2010PropOp51
 70
     0
102
RTVSPost2010Prop52
140
1.0
102
RTVSPost2010PropOp52
 70
     0
102
RTVSPost2010Prop53
 90
        2
102
RTVSPost2010PropOp53
 70
     1
102
RTVSPost2010Prop54
  1
strokes_ogs.tif
102
RTVSPost2010PropOp54
 70
     1
102
RTVSPost2010Prop55
280
     0
102
RTVSPost2010PropOp55
 70
     1
102
RTVSPost2010Prop56
140
1.0
102
RTVSPost2010PropOp56
 70
     1
102
RTVSPost2010Prop57
140
1.0
102
RTVSPost2010PropOp57
 70
     1
  0
XRECORD
  5
1F5
102
{ACAD_REACTORS
330
1F4
102
}
330
1F4
100
AcDbXrecord
280
     1
102
RTVSPropertyOp0
 70
     1
102
RTVSPropertyOp1
 70
     1
102
RTVSPropertyOp2
 70
     1
102
RTVSPropertyOp3
 70
     1
102
RTVSPropertyOp4
 70
     1
102
RTVSPropertyOp5
 70
     1
102
RTVSPropertyOp6
 70
     1
102
RTVSPropertyOp7
 70
     1
102
RTVSPropertyOp8
 70
     1
102
RTVSPropertyOp9
 70
     1
102
RTVSPropertyOp10
 70
     1
102
RTVSPropertyOp11
 70
     1
102
RTVSPropertyOp12
 70
     1
102
RTVSPropertyOp13
 70
     1
102
RTVSPropertyOp14
 70
     1
102
RTVSPropertyOp15
 70
     1
102
RTVSPropertyOp16
 70
     1
102
RTVSPropertyOp17
 70
     1
102
RTVSPropertyOp18
 70
     1
102
RTVSPropertyOp19
 70
     1
102
RTVSPropertyOp20
 70
     1
102
RTVSPropertyOp21
 70
     1
102
RTVSPropertyOp22
 70
     1
102
RTVSPropertyOp23
 70
     1
102
RTVSPropertyOp24
 70
     1
102
RTVSPropertyOp25
 70
     1
102
RTVSPropertyOp26
 70
     1
102
RTVSPropertyOp27
 70
     1
102
RTVSPropertyOp28
 70
     1
102
RTVSPropertyOp29
 70
     1
102
RTVSPropertyOp30
 70
     1
102
RTVSPropertyOp31
 70
     1
102
RTVSPropertyOp32
 70
     1
102
RTVSPropertyOp33
 70
     1
102
RTVSPropertyOp34
 70
     1
102
RTVSPropertyOp35
 70
     1
102
RTVSPropertyOp36
 70
     1
102
RTVSPropertyOp37
 70
     1
102
RTVSPropertyOp38
 70
     1
102
RTVSPropertyOp39
 70
     1
102
RTVSPropertyOp40
 70
     1
102
RTVSPropertyOp41
 70
     1
102
RTVSPropertyOp42
 70
     1
102
RTVSPropertyOp43
 70
     1
102
RTVSPropertyOp44
 70
     1
102
RTVSPropertyOp45
 70
     1
102
RTVSPropertyOp46
 70
     1
102
RTVSPropertyOp47
 70
     1
102
RTVSPropertyOp48
 70
     1
102
RTVSPropertyOp49
 70
     1
102
RTVSPropertyOp50
 70
     1
102
RTVSPropertyOp51
 70
     0
102
RTVSPropertyOp52
 70
     0
102
RTVSPropertyOp53
 70
     1
102
RTVSPropertyOp54
 70
     1
102
RTVSPropertyOp55
 70
     1
102
RTVSPropertyOp56
 70
     1
102
RTVSPropertyOp57
 70
     1
102
RTVSPost2010Prop28
280
     0
102
RTVSPost2010PropOp28
 70
     1
102
RTVSPost2010Prop29
280
     1
102
RTVSPost2010PropOp29
 70
     1
102
RTVSPost2010Prop30
280
     1
102
RTVSPost2010PropOp30
 70
     1
102
RTVSPost2010Prop31
280
     0
102
RTVSPost2010PropOp31
 70
     1
102
RTVSPost2010Prop32
280
     0
102
RTVSPost2010PropOp32
 70
     1
102
RTVSPost2010Prop33
280
     0
102
RTVSPost2010PropOp33
 70
     1
102
RTVSPost2010Prop34
280
     0
102
RTVSPost2010PropOp34
 70
     1
102
RTVSPost2010Prop35
280
     0
102
RTVSPost2010PropOp35
 70
     1
102
RTVSPost2010Prop36
280
     0
102
RTVSPost2010PropOp36
 70
     1
102
RTVSPost2010Prop37
 90
       50
102
RTVSPost2010PropOp37
 70
     1
102
RTVSPost2010Prop38
140
0.0
102
RTVSPost2010PropOp38
 70
     1
102
RTVSPost2010Prop39
140
1.0
102
RTVSPost2010PropOp39
 70
     1
102
RTVSPost2010Prop40
 90
        0
102
RTVSPost2010PropOp40
 70
     1
102
RTVSPost2010Prop41ColorIndex
 90
       18
102
RTVSPost2010Prop41ColorRGB
 90
        0
102
RTVSPost2010PropOp41
 70
     1
102
RTVSPost2010Prop42
 90
       50
102
RTVSPost2010PropOp42
 70
     1
102
RTVSPost2010Prop43
 90
        3
102
RTVSPost2010PropOp43
 70
     1
102
RTVSPost2010Prop44ColorIndex
 90
        5
102
RTVSPost2010Prop44ColorRGB
 90
      255
102
RTVSPost2010PropOp44
 70
     1
102
RTVSPost2010Prop45
280
     0
102
RTVSPost2010PropOp45
 70
     1
102
RTVSPost2010Prop46
 90
       50
102
RTVSPost2010PropOp46
 70
     1
102
RTVSPost2010Prop47
 90
       50
102
RTVSPost2010PropOp47
 70
     1
102
RTVSPost2010Prop48
 90
       50
102
RTVSPost2010PropOp48
 70
     1
102
RTVSPost2010Prop49
280
     0
102
RTVSPost2010PropOp49
 70
     1
102
RTVSPost2010Prop50
 90
       50
102
RTVSPost2010PropOp50
 70
     1
102
RTVSPost2010Prop51ColorIndex
 90
      256
102
RTVSPost2010Prop51ColorRGB
 90
-16777216
102
RTVSPost2010PropOp51
 70
     0
102
RTVSPost2010Prop52
140
1.0
102
RTVSPost2010PropOp52
 70
     0
102
RTVSPost2010Prop53
 90
        2
102
RTVSPost2010PropOp53
 70
     1
102
RTVSPost2010Prop54
  1
strokes_ogs.tif
102
RTVSPost2010PropOp54
 70
     1
102
RTVSPost2010Prop55
280
     0
102
RTVSPost2010PropOp55
 70
     1
102
RTVSPost2010Prop56
140
1.0
102
RTVSPost2010PropOp56
 70
     1
102
RTVSPost2010Prop57
140
1.0
102
RTVSPost2010PropOp57
 70
     1
  0
XRECORD
  5
209
102
{ACAD_REACTORS
330
208
102
}
330
208
100
AcDbXrecord
280
     1
102
RTVSPropertyOp0
 70
     0
102
RTVSPropertyOp1
 70
     0
102
RTVSPropertyOp2
 70
     0
102
RTVSPropertyOp3
 70
     0
102
RTVSPropertyOp4
 70
     0
102
RTVSPropertyOp5
 70
     0
102
RTVSPropertyOp6
 70
     0
102
RTVSPropertyOp7
 70
     0
102
RTVSPropertyOp8
 70
     0
102
RTVSPropertyOp9
 70
     0
102
RTVSPropertyOp10
 70
     0
102
RTVSPropertyOp11
 70
     0
102
RTVSPropertyOp12
 70
     0
102
RTVSPropertyOp13
 70
     0
102
RTVSPropertyOp14
 70
     2
102
RTVSPropertyOp15
 70
     0
102
RTVSPropertyOp16
 70
     0
102
RTVSPropertyOp17
 70
     0
102
RTVSPropertyOp18
 70
     0
102
RTVSPropertyOp19
 70
     0
102
RTVSPropertyOp20
 70
     0
102
RTVSPropertyOp21
 70
     0
102
RTVSPropertyOp22
 70
     0
102
RTVSPropertyOp23
 70
     0
102
RTVSPropertyOp24
 70
     0
102
RTVSPropertyOp25
 70
     0
102
RTVSPropertyOp26
 70
     0
102
RTVSPropertyOp27
 70
     0
102
RTVSPropertyOp28
 70
     0
102
RTVSPropertyOp29
 70
     0
102
RTVSPropertyOp30
 70
     0
102
RTVSPropertyOp31
 70
     0
102
RTVSPropertyOp32
 70
     0
102
RTVSPropertyOp33
 70
     0
102
RTVSPropertyOp34
 70
     0
102
RTVSPropertyOp35
 70
     0
102
RTVSPropertyOp36
 70
     0
102
RTVSPropertyOp37
 70
     0
102
RTVSPropertyOp38
 70
     0
102
RTVSPropertyOp39
 70
     0
102
RTVSPropertyOp40
 70
     0
102
RTVSPropertyOp41
 70
     0
102
RTVSPropertyOp42
 70
     0
102
RTVSPropertyOp43
 70
     0
102
RTVSPropertyOp44
 70
     0
102
RTVSPropertyOp45
 70
     0
102
RTVSPropertyOp46
 70
     0
102
RTVSPropertyOp47
 70
     0
102
RTVSPropertyOp48
 70
     0
102
RTVSPropertyOp49
 70
     0
102
RTVSPropertyOp50
 70
     0
102
RTVSPropertyOp51
 70
     0
102
RTVSPropertyOp52
 70
     0
102
RTVSPropertyOp53
 70
     0
102
RTVSPropertyOp54
 70
     0
102
RTVSPropertyOp55
 70
     0
102
RTVSPropertyOp56
 70
     0
102
RTVSPropertyOp57
 70
     0
102
RTVSPost2010Prop28
280
     0
102
RTVSPost2010PropOp28
 70
     0
102
RTVSPost2010Prop29
280
     1
102
RTVSPost2010PropOp29
 70
     0
102
RTVSPost2010Prop30
280
     1
102
RTVSPost2010PropOp30
 70
     0
102
RTVSPost2010Prop31
280
     0
102
RTVSPost2010PropOp31
 70
     0
102
RTVSPost2010Prop32
280
     0
102
RTVSPost2010PropOp32
 70
     0
102
RTVSPost2010Prop33
280
     0
102
RTVSPost2010PropOp33
 70
     0
102
RTVSPost2010Prop34
280
     0
102
RTVSPost2010PropOp34
 70
     0
102
RTVSPost2010Prop35
280
     0
102
RTVSPost2010PropOp35
 70
     0
102
RTVSPost2010Prop36
280
     0
102
RTVSPost2010PropOp36
 70
     0
102
RTVSPost2010Prop37
 90
       50
102
RTVSPost2010PropOp37
 70
     0
102
RTVSPost2010Prop38
140
0.0
102
RTVSPost2010PropOp38
 70
     0
102
RTVSPost2010Prop39
140
1.0
102
RTVSPost2010PropOp39
 70
     0
102
RTVSPost2010Prop40
 90
        0
102
RTVSPost2010PropOp40
 70
     0
102
RTVSPost2010Prop41ColorIndex
 90
       18
102
RTVSPost2010Prop41ColorRGB
 90
        0
102
RTVSPost2010PropOp41
 70
     0
102
RTVSPost2010Prop42
 90
       50
102
RTVSPost2010PropOp42
 70
     0
102
RTVSPost2010Prop43
 90
        3
102
RTVSPost2010PropOp43
 70
     0
102
RTVSPost2010Prop44ColorIndex
 90
        5
102
RTVSPost2010Prop44ColorRGB
 90
      255
102
RTVSPost2010PropOp44
 70
     0
102
RTVSPost2010Prop45
280
     0
102
RTVSPost2010PropOp45
 70
     0
102
RTVSPost2010Prop46
 90
       50
102
RTVSPost2010PropOp46
 70
     0
102
RTVSPost2010Prop47
 90
       50
102
RTVSPost2010PropOp47
 70
     0
102
RTVSPost2010Prop48
 90
       50
102
RTVSPost2010PropOp48
 70
     0
102
RTVSPost2010Prop49
280
     0
102
RTVSPost2010PropOp49
 70
     0
102
RTVSPost2010Prop50
 90
       50
102
RTVSPost2010PropOp50
 70
     0
102
RTVSPost2010Prop51ColorIndex
 90
      256
102
RTVSPost2010Prop51ColorRGB
 90
-16777216
102
RTVSPost2010PropOp51
 70
     0
102
RTVSPost2010Prop52
140
1.0
102
RTVSPost2010PropOp52
 70
     0
102
RTVSPost2010Prop53
 90
        2
102
RTVSPost2010PropOp53
 70
     0
102
RTVSPost2010Prop54
  1
strokes_ogs.tif
102
RTVSPost2010PropOp54
 70
     0
102
RTVSPost2010Prop55
280
     0
102
RTVSPost2010PropOp55
 70
     0
102
RTVSPost2010Prop56
140
1.0
102
RTVSPost2010PropOp56
 70
     0
102
RTVSPost2010Prop57
140
1.0
102
RTVSPost2010PropOp57
 70
     0
  0
XRECORD
  5
203
102
{ACAD_REACTORS
330
202
102
}
330
202
100
AcDbXrecord
280
     1
102
RTVSPropertyOp0
 70
     1
102
RTVSPropertyOp1
 70
     1
102
RTVSPropertyOp2
 70
     1
102
RTVSPropertyOp3
 70
     1
102
RTVSPropertyOp4
 70
     1
102
RTVSPropertyOp5
 70
     1
102
RTVSPropertyOp6
 70
     1
102
RTVSPropertyOp7
 70
     1
102
RTVSPropertyOp8
 70
     1
102
RTVSPropertyOp9
 70
     1
102
RTVSPropertyOp10
 70
     1
102
RTVSPropertyOp11
 70
     1
102
RTVSPropertyOp12
 70
     1
102
RTVSPropertyOp13
 70
     1
102
RTVSPropertyOp14
 70
     1
102
RTVSPropertyOp15
 70
     1
102
RTVSPropertyOp16
 70
     1
102
RTVSPropertyOp17
 70
     1
102
RTVSPropertyOp18
 70
     1
102
RTVSPropertyOp19
 70
     1
102
RTVSPropertyOp20
 70
     1
102
RTVSPropertyOp21
 70
     1
102
RTVSPropertyOp22
 70
     1
102
RTVSPropertyOp23
 70
     1
102
RTVSPropertyOp24
 70
     1
102
RTVSPropertyOp25
 70
     1
102
RTVSPropertyOp26
 70
     1
102
RTVSPropertyOp27
 70
     1
102
RTVSPropertyOp28
 70
     1
102
RTVSPropertyOp29
 70
     1
102
RTVSPropertyOp30
 70
     1
102
RTVSPropertyOp31
 70
     1
102
RTVSPropertyOp32
 70
     1
102
RTVSPropertyOp33
 70
     1
102
RTVSPropertyOp34
 70
     1
102
RTVSPropertyOp35
 70
     1
102
RTVSPropertyOp36
 70
     1
102
RTVSPropertyOp37
 70
     1
102
RTVSPropertyOp38
 70
     1
102
RTVSPropertyOp39
 70
     1
102
RTVSPropertyOp40
 70
     1
102
RTVSPropertyOp41
 70
     1
102
RTVSPropertyOp42
 70
     1
102
RTVSPropertyOp43
 70
     1
102
RTVSPropertyOp44
 70
     1
102
RTVSPropertyOp45
 70
     1
102
RTVSPropertyOp46
 70
     1
102
RTVSPropertyOp47
 70
     1
102
RTVSPropertyOp48
 70
     1
102
RTVSPropertyOp49
 70
     1
102
RTVSPropertyOp50
 70
     1
102
RTVSPropertyOp51
 70
     0
102
RTVSPropertyOp52
 70
     0
102
RTVSPropertyOp53
 70
     1
102
RTVSPropertyOp54
 70
     1
102
RTVSPropertyOp55
 70
     1
102
RTVSPropertyOp56
 70
     1
102
RTVSPropertyOp57
 70
     1
102
RTVSPost2010Prop28
280
     0
102
RTVSPost2010PropOp28
 70
     1
102
RTVSPost2010Prop29
280
     1
102
RTVSPost2010PropOp29
 70
     1
102
RTVSPost2010Prop30
280
     1
102
RTVSPost2010PropOp30
 70
     1
102
RTVSPost2010Prop31
280
     0
102
RTVSPost2010PropOp31
 70
     1
102
RTVSPost2010Prop32
280
     0
102
RTVSPost2010PropOp32
 70
     1
102
RTVSPost2010Prop33
280
     0
102
RTVSPost2010PropOp33
 70
     1
102
RTVSPost2010Prop34
280
     0
102
RTVSPost2010PropOp34
 70
     1
102
RTVSPost2010Prop35
280
     0
102
RTVSPost2010PropOp35
 70
     1
102
RTVSPost2010Prop36
280
     0
102
RTVSPost2010PropOp36
 70
     1
102
RTVSPost2010Prop37
 90
       50
102
RTVSPost2010PropOp37
 70
     1
102
RTVSPost2010Prop38
140
0.0
102
RTVSPost2010PropOp38
 70
     1
102
RTVSPost2010Prop39
140
1.0
102
RTVSPost2010PropOp39
 70
     1
102
RTVSPost2010Prop40
 90
        0
102
RTVSPost2010PropOp40
 70
     1
102
RTVSPost2010Prop41ColorIndex
 90
       18
102
RTVSPost2010Prop41ColorRGB
 90
        0
102
RTVSPost2010PropOp41
 70
     1
102
RTVSPost2010Prop42
 90
       50
102
RTVSPost2010PropOp42
 70
     1
102
RTVSPost2010Prop43
 90
        3
102
RTVSPost2010PropOp43
 70
     1
102
RTVSPost2010Prop44ColorIndex
 90
        5
102
RTVSPost2010Prop44ColorRGB
 90
      255
102
RTVSPost2010PropOp44
 70
     1
102
RTVSPost2010Prop45
280
     0
102
RTVSPost2010PropOp45
 70
     1
102
RTVSPost2010Prop46
 90
       50
102
RTVSPost2010PropOp46
 70
     1
102
RTVSPost2010Prop47
 90
       50
102
RTVSPost2010PropOp47
 70
     1
102
RTVSPost2010Prop48
 90
       50
102
RTVSPost2010PropOp48
 70
     1
102
RTVSPost2010Prop49
280
     0
102
RTVSPost2010PropOp49
 70
     1
102
RTVSPost2010Prop50
 90
       50
102
RTVSPost2010PropOp50
 70
     1
102
RTVSPost2010Prop51ColorIndex
 90
      256
102
RTVSPost2010Prop51ColorRGB
 90
-16777216
102
RTVSPost2010PropOp51
 70
     0
102
RTVSPost2010Prop52
140
1.0
102
RTVSPost2010PropOp52
 70
     0
102
RTVSPost2010Prop53
 90
        2
102
RTVSPost2010PropOp53
 70
     1
102
RTVSPost2010Prop54
  1
strokes_ogs.tif
102
RTVSPost2010PropOp54
 70
     1
102
RTVSPost2010Prop55
280
     0
102
RTVSPost2010PropOp55
 70
     1
102
RTVSPost2010Prop56
140
1.0
102
RTVSPost2010PropOp56
 70
     1
102
RTVSPost2010Prop57
140
1.0
102
RTVSPost2010PropOp57
 70
     1
  0
XRECORD
  5
20B
102
{ACAD_REACTORS
330
20A
102
}
330
20A
100
AcDbXrecord
280
     1
102
RTVSPropertyOp0
 70
     0
102
RTVSPropertyOp1
 70
     0
102
RTVSPropertyOp2
 70
     0
102
RTVSPropertyOp3
 70
     0
102
RTVSPropertyOp4
 70
     0
102
RTVSPropertyOp5
 70
     0
102
RTVSPropertyOp6
 70
     0
102
RTVSPropertyOp7
 70
     0
102
RTVSPropertyOp8
 70
     0
102
RTVSPropertyOp9
 70
     0
102
RTVSPropertyOp10
 70
     0
102
RTVSPropertyOp11
 70
     0
102
RTVSPropertyOp12
 70
     0
102
RTVSPropertyOp13
 70
     0
102
RTVSPropertyOp14
 70
     2
102
RTVSPropertyOp15
 70
     0
102
RTVSPropertyOp16
 70
     0
102
RTVSPropertyOp17
 70
     0
102
RTVSPropertyOp18
 70
     0
102
RTVSPropertyOp19
 70
     0
102
RTVSPropertyOp20
 70
     0
102
RTVSPropertyOp21
 70
     0
102
RTVSPropertyOp22
 70
     0
102
RTVSPropertyOp23
 70
     0
102
RTVSPropertyOp24
 70
     0
102
RTVSPropertyOp25
 70
     0
102
RTVSPropertyOp26
 70
     0
102
RTVSPropertyOp27
 70
     0
102
RTVSPropertyOp28
 70
     0
102
RTVSPropertyOp29
 70
     0
102
RTVSPropertyOp30
 70
     0
102
RTVSPropertyOp31
 70
     0
102
RTVSPropertyOp32
 70
     0
102
RTVSPropertyOp33
 70
     0
102
RTVSPropertyOp34
 70
     0
102
RTVSPropertyOp35
 70
     0
102
RTVSPropertyOp36
 70
     0
102
RTVSPropertyOp37
 70
     0
102
RTVSPropertyOp38
 70
     0
102
RTVSPropertyOp39
 70
     0
102
RTVSPropertyOp40
 70
     0
102
RTVSPropertyOp41
 70
     0
102
RTVSPropertyOp42
 70
     0
102
RTVSPropertyOp43
 70
     0
102
RTVSPropertyOp44
 70
     0
102
RTVSPropertyOp45
 70
     0
102
RTVSPropertyOp46
 70
     0
102
RTVSPropertyOp47
 70
     0
102
RTVSPropertyOp48
 70
     0
102
RTVSPropertyOp49
 70
     0
102
RTVSPropertyOp50
 70
     0
102
RTVSPropertyOp51
 70
     0
102
RTVSPropertyOp52
 70
     0
102
RTVSPropertyOp53
 70
     0
102
RTVSPropertyOp54
 70
     0
102
RTVSPropertyOp55
 70
     0
102
RTVSPropertyOp56
 70
     0
102
RTVSPropertyOp57
 70
     0
102
RTVSPost2010Prop28
280
     0
102
RTVSPost2010PropOp28
 70
     0
102
RTVSPost2010Prop29
280
     1
102
RTVSPost2010PropOp29
 70
     0
102
RTVSPost2010Prop30
280
     1
102
RTVSPost2010PropOp30
 70
     0
102
RTVSPost2010Prop31
280
     0
102
RTVSPost2010PropOp31
 70
     0
102
RTVSPost2010Prop32
280
     0
102
RTVSPost2010PropOp32
 70
     0
102
RTVSPost2010Prop33
280
     0
102
RTVSPost2010PropOp33
 70
     0
102
RTVSPost2010Prop34
280
     0
102
RTVSPost2010PropOp34
 70
     0
102
RTVSPost2010Prop35
280
     0
102
RTVSPost2010PropOp35
 70
     0
102
RTVSPost2010Prop36
280
     0
102
RTVSPost2010PropOp36
 70
     0
102
RTVSPost2010Prop37
 90
       50
102
RTVSPost2010PropOp37
 70
     0
102
RTVSPost2010Prop38
140
0.0
102
RTVSPost2010PropOp38
 70
     0
102
RTVSPost2010Prop39
140
1.0
102
RTVSPost2010PropOp39
 70
     0
102
RTVSPost2010Prop40
 90
        0
102
RTVSPost2010PropOp40
 70
     0
102
RTVSPost2010Prop41ColorIndex
 90
       18
102
RTVSPost2010Prop41ColorRGB
 90
        0
102
RTVSPost2010PropOp41
 70
     0
102
RTVSPost2010Prop42
 90
       50
102
RTVSPost2010PropOp42
 70
     0
102
RTVSPost2010Prop43
 90
        3
102
RTVSPost2010PropOp43
 70
     0
102
RTVSPost2010Prop44ColorIndex
 90
        5
102
RTVSPost2010Prop44ColorRGB
 90
      255
102
RTVSPost2010PropOp44
 70
     0
102
RTVSPost2010Prop45
280
     0
102
RTVSPost2010PropOp45
 70
     0
102
RTVSPost2010Prop46
 90
       50
102
RTVSPost2010PropOp46
 70
     0
102
RTVSPost2010Prop47
 90
       50
102
RTVSPost2010PropOp47
 70
     0
102
RTVSPost2010Prop48
 90
       50
102
RTVSPost2010PropOp48
 70
     0
102
RTVSPost2010Prop49
280
     0
102
RTVSPost2010PropOp49
 70
     0
102
RTVSPost2010Prop50
 90
       50
102
RTVSPost2010PropOp50
 70
     0
102
RTVSPost2010Prop51ColorIndex
 90
      256
102
RTVSPost2010Prop51ColorRGB
 90
-16777216
102
RTVSPost2010PropOp51
 70
     0
102
RTVSPost2010Prop52
140
1.0
102
RTVSPost2010PropOp52
 70
     0
102
RTVSPost2010Prop53
 90
        2
102
RTVSPost2010PropOp53
 70
     0
102
RTVSPost2010Prop54
  1
strokes_ogs.tif
102
RTVSPost2010PropOp54
 70
     0
102
RTVSPost2010Prop55
280
     0
102
RTVSPost2010PropOp55
 70
     0
102
RTVSPost2010Prop56
140
1.0
102
RTVSPost2010PropOp56
 70
     0
102
RTVSPost2010Prop57
140
1.0
102
RTVSPost2010PropOp57
 70
     0
  0
XRECORD
  5
1F9
102
{ACAD_REACTORS
330
1F8
102
}
330
1F8
100
AcDbXrecord
280
     1
102
RTVSPropertyOp0
 70
     1
102
RTVSPropertyOp1
 70
     1
102
RTVSPropertyOp2
 70
     1
102
RTVSPropertyOp3
 70
     1
102
RTVSPropertyOp4
 70
     1
102
RTVSPropertyOp5
 70
     1
102
RTVSPropertyOp6
 70
     1
102
RTVSPropertyOp7
 70
     1
102
RTVSPropertyOp8
 70
     1
102
RTVSPropertyOp9
 70
     1
102
RTVSPropertyOp10
 70
     1
102
RTVSPropertyOp11
 70
     1
102
RTVSPropertyOp12
 70
     1
102
RTVSPropertyOp13
 70
     1
102
RTVSPropertyOp14
 70
     1
102
RTVSPropertyOp15
 70
     1
102
RTVSPropertyOp16
 70
     1
102
RTVSPropertyOp17
 70
     1
102
RTVSPropertyOp18
 70
     1
102
RTVSPropertyOp19
 70
     1
102
RTVSPropertyOp20
 70
     1
102
RTVSPropertyOp21
 70
     1
102
RTVSPropertyOp22
 70
     1
102
RTVSPropertyOp23
 70
     1
102
RTVSPropertyOp24
 70
     1
102
RTVSPropertyOp25
 70
     1
102
RTVSPropertyOp26
 70
     1
102
RTVSPropertyOp27
 70
     1
102
RTVSPropertyOp28
 70
     1
102
RTVSPropertyOp29
 70
     1
102
RTVSPropertyOp30
 70
     1
102
RTVSPropertyOp31
 70
     1
102
RTVSPropertyOp32
 70
     1
102
RTVSPropertyOp33
 70
     1
102
RTVSPropertyOp34
 70
     1
102
RTVSPropertyOp35
 70
     1
102
RTVSPropertyOp36
 70
     1
102
RTVSPropertyOp37
 70
     1
102
RTVSPropertyOp38
 70
     1
102
RTVSPropertyOp39
 70
     1
102
RTVSPropertyOp40
 70
     1
102
RTVSPropertyOp41
 70
     1
102
RTVSPropertyOp42
 70
     1
102
RTVSPropertyOp43
 70
     1
102
RTVSPropertyOp44
 70
     1
102
RTVSPropertyOp45
 70
     1
102
RTVSPropertyOp46
 70
     1
102
RTVSPropertyOp47
 70
     1
102
RTVSPropertyOp48
 70
     1
102
RTVSPropertyOp49
 70
     1
102
RTVSPropertyOp50
 70
     1
102
RTVSPropertyOp51
 70
     0
102
RTVSPropertyOp52
 70
     0
102
RTVSPropertyOp53
 70
     1
102
RTVSPropertyOp54
 70
     1
102
RTVSPropertyOp55
 70
     1
102
RTVSPropertyOp56
 70
     1
102
RTVSPropertyOp57
 70
     1
102
RTVSPost2010Prop28
280
     0
102
RTVSPost2010PropOp28
 70
     1
102
RTVSPost2010Prop29
280
     1
102
RTVSPost2010PropOp29
 70
     1
102
RTVSPost2010Prop30
280
     1
102
RTVSPost2010PropOp30
 70
     1
102
RTVSPost2010Prop31
280
     0
102
RTVSPost2010PropOp31
 70
     1
102
RTVSPost2010Prop32
280
     0
102
RTVSPost2010PropOp32
 70
     1
102
RTVSPost2010Prop33
280
     0
102
RTVSPost2010PropOp33
 70
     1
102
RTVSPost2010Prop34
280
     0
102
RTVSPost2010PropOp34
 70
     1
102
RTVSPost2010Prop35
280
     0
102
RTVSPost2010PropOp35
 70
     1
102
RTVSPost2010Prop36
280
     0
102
RTVSPost2010PropOp36
 70
     1
102
RTVSPost2010Prop37
 90
       50
102
RTVSPost2010PropOp37
 70
     1
102
RTVSPost2010Prop38
140
0.0
102
RTVSPost2010PropOp38
 70
     1
102
RTVSPost2010Prop39
140
1.0
102
RTVSPost2010PropOp39
 70
     1
102
RTVSPost2010Prop40
 90
        0
102
RTVSPost2010PropOp40
 70
     1
102
RTVSPost2010Prop41ColorIndex
 90
       18
102
RTVSPost2010Prop41ColorRGB
 90
        0
102
RTVSPost2010PropOp41
 70
     1
102
RTVSPost2010Prop42
 90
       50
102
RTVSPost2010PropOp42
 70
     1
102
RTVSPost2010Prop43
 90
        3
102
RTVSPost2010PropOp43
 70
     1
102
RTVSPost2010Prop44ColorIndex
 90
        5
102
RTVSPost2010Prop44ColorRGB
 90
      255
102
RTVSPost2010PropOp44
 70
     1
102
RTVSPost2010Prop45
280
     0
102
RTVSPost2010PropOp45
 70
     1
102
RTVSPost2010Prop46
 90
       50
102
RTVSPost2010PropOp46
 70
     1
102
RTVSPost2010Prop47
 90
       50
102
RTVSPost2010PropOp47
 70
     1
102
RTVSPost2010Prop48
 90
       50
102
RTVSPost2010PropOp48
 70
     1
102
RTVSPost2010Prop49
280
     0
102
RTVSPost2010PropOp49
 70
     1
102
RTVSPost2010Prop50
 90
       50
102
RTVSPost2010PropOp50
 70
     1
102
RTVSPost2010Prop51ColorIndex
 90
      256
102
RTVSPost2010Prop51ColorRGB
 90
-16777216
102
RTVSPost2010PropOp51
 70
     0
102
RTVSPost2010Prop52
140
1.0
102
RTVSPost2010PropOp52
 70
     0
102
RTVSPost2010Prop53
 90
        2
102
RTVSPost2010PropOp53
 70
     1
102
RTVSPost2010Prop54
  1
strokes_ogs.tif
102
RTVSPost2010PropOp54
 70
     1
102
RTVSPost2010Prop55
280
     0
102
RTVSPost2010PropOp55
 70
     1
102
RTVSPost2010Prop56
140
1.0
102
RTVSPost2010PropOp56
 70
     1
102
RTVSPost2010Prop57
140
1.0
102
RTVSPost2010PropOp57
 70
     1
  0
XRECORD
  5
217
102
{ACAD_REACTORS
330
216
102
}
330
216
100
AcDbXrecord
280
     1
102
RTVSPropertyOp0
 70
     1
102
RTVSPropertyOp1
 70
     1
102
RTVSPropertyOp2
 70
     1
102
RTVSPropertyOp3
 70
     1
102
RTVSPropertyOp4
 70
     1
102
RTVSPropertyOp5
 70
     1
102
RTVSPropertyOp6
 70
     1
102
RTVSPropertyOp7
 70
     1
102
RTVSPropertyOp8
 70
     1
102
RTVSPropertyOp9
 70
     1
102
RTVSPropertyOp10
 70
     1
102
RTVSPropertyOp11
 70
     1
102
RTVSPropertyOp12
 70
     1
102
RTVSPropertyOp13
 70
     1
102
RTVSPropertyOp14
 70
     1
102
RTVSPropertyOp15
 70
     1
102
RTVSPropertyOp16
 70
     1
102
RTVSPropertyOp17
 70
     1
102
RTVSPropertyOp18
 70
     1
102
RTVSPropertyOp19
 70
     1
102
RTVSPropertyOp20
 70
     1
102
RTVSPropertyOp21
 70
     1
102
RTVSPropertyOp22
 70
     1
102
RTVSPropertyOp23
 70
     1
102
RTVSPropertyOp24
 70
     1
102
RTVSPropertyOp25
 70
     1
102
RTVSPropertyOp26
 70
     1
102
RTVSPropertyOp27
 70
     1
102
RTVSPropertyOp28
 70
     1
102
RTVSPropertyOp29
 70
     1
102
RTVSPropertyOp30
 70
     1
102
RTVSPropertyOp31
 70
     1
102
RTVSPropertyOp32
 70
     1
102
RTVSPropertyOp33
 70
     1
102
RTVSPropertyOp34
 70
     1
102
RTVSPropertyOp35
 70
     1
102
RTVSPropertyOp36
 70
     1
102
RTVSPropertyOp37
 70
     1
102
RTVSPropertyOp38
 70
     1
102
RTVSPropertyOp39
 70
     1
102
RTVSPropertyOp40
 70
     1
102
RTVSPropertyOp41
 70
     1
102
RTVSPropertyOp42
 70
     1
102
RTVSPropertyOp43
 70
     1
102
RTVSPropertyOp44
 70
     1
102
RTVSPropertyOp45
 70
     1
102
RTVSPropertyOp46
 70
     1
102
RTVSPropertyOp47
 70
     1
102
RTVSPropertyOp48
 70
     1
102
RTVSPropertyOp49
 70
     1
102
RTVSPropertyOp50
 70
     1
102
RTVSPropertyOp51
 70
     0
102
RTVSPropertyOp52
 70
     0
102
RTVSPropertyOp53
 70
     1
102
RTVSPropertyOp54
 70
     1
102
RTVSPropertyOp55
 70
     1
102
RTVSPropertyOp56
 70
     1
102
RTVSPropertyOp57
 70
     1
102
RTVSPost2010Prop28
280
     0
102
RTVSPost2010PropOp28
 70
     1
102
RTVSPost2010Prop29
280
     1
102
RTVSPost2010PropOp29
 70
     1
102
RTVSPost2010Prop30
280
     1
102
RTVSPost2010PropOp30
 70
     1
102
RTVSPost2010Prop31
280
     0
102
RTVSPost2010PropOp31
 70
     1
102
RTVSPost2010Prop32
280
     0
102
RTVSPost2010PropOp32
 70
     1
102
RTVSPost2010Prop33
280
     0
102
RTVSPost2010PropOp33
 70
     1
102
RTVSPost2010Prop34
280
     0
102
RTVSPost2010PropOp34
 70
     1
102
RTVSPost2010Prop35
280
     0
102
RTVSPost2010PropOp35
 70
     1
102
RTVSPost2010Prop36
280
     0
102
RTVSPost2010PropOp36
 70
     1
102
RTVSPost2010Prop37
 90
       50
102
RTVSPost2010PropOp37
 70
     1
102
RTVSPost2010Prop38
140
0.0
102
RTVSPost2010PropOp38
 70
     1
102
RTVSPost2010Prop39
140
1.0
102
RTVSPost2010PropOp39
 70
     1
102
RTVSPost2010Prop40
 90
        0
102
RTVSPost2010PropOp40
 70
     1
102
RTVSPost2010Prop41ColorIndex
 90
       18
102
RTVSPost2010Prop41ColorRGB
 90
        0
102
RTVSPost2010PropOp41
 70
     1
102
RTVSPost2010Prop42
 90
       50
102
RTVSPost2010PropOp42
 70
     1
102
RTVSPost2010Prop43
 90
        3
102
RTVSPost2010PropOp43
 70
     1
102
RTVSPost2010Prop44ColorIndex
 90
        5
102
RTVSPost2010Prop44ColorRGB
 90
      255
102
RTVSPost2010PropOp44
 70
     1
102
RTVSPost2010Prop45
280
     0
102
RTVSPost2010PropOp45
 70
     1
102
RTVSPost2010Prop46
 90
       50
102
RTVSPost2010PropOp46
 70
     1
102
RTVSPost2010Prop47
 90
       50
102
RTVSPost2010PropOp47
 70
     1
102
RTVSPost2010Prop48
 90
       50
102
RTVSPost2010PropOp48
 70
     1
102
RTVSPost2010Prop49
280
     0
102
RTVSPost2010PropOp49
 70
     1
102
RTVSPost2010Prop50
 90
       50
102
RTVSPost2010PropOp50
 70
     1
102
RTVSPost2010Prop51ColorIndex
 90
      256
102
RTVSPost2010Prop51ColorRGB
 90
-16777216
102
RTVSPost2010PropOp51
 70
     0
102
RTVSPost2010Prop52
140
1.0
102
RTVSPost2010PropOp52
 70
     0
102
RTVSPost2010Prop53
 90
        2
102
RTVSPost2010PropOp53
 70
     1
102
RTVSPost2010Prop54
  1
strokes_ogs.tif
102
RTVSPost2010PropOp54
 70
     1
102
RTVSPost2010Prop55
280
     0
102
RTVSPost2010PropOp55
 70
     1
102
RTVSPost2010Prop56
140
1.0
102
RTVSPost2010PropOp56
 70
     1
102
RTVSPost2010Prop57
140
1.0
102
RTVSPost2010PropOp57
 70
     1
  0
XRECORD
  5
215
102
{ACAD_REACTORS
330
214
102
}
330
214
100
AcDbXrecord
280
     1
102
RTVSPropertyOp0
 70
     1
102
RTVSPropertyOp1
 70
     1
102
RTVSPropertyOp2
 70
     1
102
RTVSPropertyOp3
 70
     1
102
RTVSPropertyOp4
 70
     1
102
RTVSPropertyOp5
 70
     1
102
RTVSPropertyOp6
 70
     1
102
RTVSPropertyOp7
 70
     1
102
RTVSPropertyOp8
 70
     1
102
RTVSPropertyOp9
 70
     1
102
RTVSPropertyOp10
 70
     1
102
RTVSPropertyOp11
 70
     1
102
RTVSPropertyOp12
 70
     1
102
RTVSPropertyOp13
 70
     1
102
RTVSPropertyOp14
 70
     1
102
RTVSPropertyOp15
 70
     1
102
RTVSPropertyOp16
 70
     1
102
RTVSPropertyOp17
 70
     1
102
RTVSPropertyOp18
 70
     1
102
RTVSPropertyOp19
 70
     1
102
RTVSPropertyOp20
 70
     1
102
RTVSPropertyOp21
 70
     1
102
RTVSPropertyOp22
 70
     1
102
RTVSPropertyOp23
 70
     1
102
RTVSPropertyOp24
 70
     1
102
RTVSPropertyOp25
 70
     1
102
RTVSPropertyOp26
 70
     1
102
RTVSPropertyOp27
 70
     1
102
RTVSPropertyOp28
 70
     1
102
RTVSPropertyOp29
 70
     1
102
RTVSPropertyOp30
 70
     1
102
RTVSPropertyOp31
 70
     1
102
RTVSPropertyOp32
 70
     1
102
RTVSPropertyOp33
 70
     1
102
RTVSPropertyOp34
 70
     1
102
RTVSPropertyOp35
 70
     1
102
RTVSPropertyOp36
 70
     1
102
RTVSPropertyOp37
 70
     1
102
RTVSPropertyOp38
 70
     1
102
RTVSPropertyOp39
 70
     1
102
RTVSPropertyOp40
 70
     1
102
RTVSPropertyOp41
 70
     1
102
RTVSPropertyOp42
 70
     1
102
RTVSPropertyOp43
 70
     1
102
RTVSPropertyOp44
 70
     1
102
RTVSPropertyOp45
 70
     1
102
RTVSPropertyOp46
 70
     1
102
RTVSPropertyOp47
 70
     1
102
RTVSPropertyOp48
 70
     1
102
RTVSPropertyOp49
 70
     1
102
RTVSPropertyOp50
 70
     1
102
RTVSPropertyOp51
 70
     0
102
RTVSPropertyOp52
 70
     0
102
RTVSPropertyOp53
 70
     1
102
RTVSPropertyOp54
 70
     1
102
RTVSPropertyOp55
 70
     1
102
RTVSPropertyOp56
 70
     1
102
RTVSPropertyOp57
 70
     1
102
RTVSPost2010Prop28
280
     0
102
RTVSPost2010PropOp28
 70
     1
102
RTVSPost2010Prop29
280
     1
102
RTVSPost2010PropOp29
 70
     1
102
RTVSPost2010Prop30
280
     1
102
RTVSPost2010PropOp30
 70
     1
102
RTVSPost2010Prop31
280
     0
102
RTVSPost2010PropOp31
 70
     1
102
RTVSPost2010Prop32
280
     0
102
RTVSPost2010PropOp32
 70
     1
102
RTVSPost2010Prop33
280
     0
102
RTVSPost2010PropOp33
 70
     1
102
RTVSPost2010Prop34
280
     0
102
RTVSPost2010PropOp34
 70
     1
102
RTVSPost2010Prop35
280
     0
102
RTVSPost2010PropOp35
 70
     1
102
RTVSPost2010Prop36
280
     0
102
RTVSPost2010PropOp36
 70
     1
102
RTVSPost2010Prop37
 90
       50
102
RTVSPost2010PropOp37
 70
     1
102
RTVSPost2010Prop38
140
0.0
102
RTVSPost2010PropOp38
 70
     1
102
RTVSPost2010Prop39
140
1.0
102
RTVSPost2010PropOp39
 70
     1
102
RTVSPost2010Prop40
 90
        0
102
RTVSPost2010PropOp40
 70
     1
102
RTVSPost2010Prop41ColorIndex
 90
       18
102
RTVSPost2010Prop41ColorRGB
 90
        0
102
RTVSPost2010PropOp41
 70
     1
102
RTVSPost2010Prop42
 90
       50
102
RTVSPost2010PropOp42
 70
     1
102
RTVSPost2010Prop43
 90
        3
102
RTVSPost2010PropOp43
 70
     1
102
RTVSPost2010Prop44ColorIndex
 90
        5
102
RTVSPost2010Prop44ColorRGB
 90
      255
102
RTVSPost2010PropOp44
 70
     1
102
RTVSPost2010Prop45
280
     0
102
RTVSPost2010PropOp45
 70
     1
102
RTVSPost2010Prop46
 90
       50
102
RTVSPost2010PropOp46
 70
     1
102
RTVSPost2010Prop47
 90
       50
102
RTVSPost2010PropOp47
 70
     1
102
RTVSPost2010Prop48
 90
       50
102
RTVSPost2010PropOp48
 70
     1
102
RTVSPost2010Prop49
280
     0
102
RTVSPost2010PropOp49
 70
     1
102
RTVSPost2010Prop50
 90
       50
102
RTVSPost2010PropOp50
 70
     1
102
RTVSPost2010Prop51ColorIndex
 90
      256
102
RTVSPost2010Prop51ColorRGB
 90
-16777216
102
RTVSPost2010PropOp51
 70
     0
102
RTVSPost2010Prop52
140
1.0
102
RTVSPost2010PropOp52
 70
     0
102
RTVSPost2010Prop53
 90
        2
102
RTVSPost2010PropOp53
 70
     1
102
RTVSPost2010Prop54
  1
strokes_ogs.tif
102
RTVSPost2010PropOp54
 70
     1
102
RTVSPost2010Prop55
280
     0
102
RTVSPost2010PropOp55
 70
     1
102
RTVSPost2010Prop56
140
1.0
102
RTVSPost2010PropOp56
 70
     1
102
RTVSPost2010Prop57
140
1.0
102
RTVSPost2010PropOp57
 70
     1
  0
XRECORD
  5
20F
102
{ACAD_REACTORS
330
20E
102
}
330
20E
100
AcDbXrecord
280
     1
102
RTVSPropertyOp0
 70
     1
102
RTVSPropertyOp1
 70
     1
102
RTVSPropertyOp2
 70
     1
102
RTVSPropertyOp3
 70
     1
102
RTVSPropertyOp4
 70
     1
102
RTVSPropertyOp5
 70
     1
102
RTVSPropertyOp6
 70
     1
102
RTVSPropertyOp7
 70
     1
102
RTVSPropertyOp8
 70
     1
102
RTVSPropertyOp9
 70
     1
102
RTVSPropertyOp10
 70
     1
102
RTVSPropertyOp11
 70
     1
102
RTVSPropertyOp12
 70
     1
102
RTVSPropertyOp13
 70
     1
102
RTVSPropertyOp14
 70
     1
102
RTVSPropertyOp15
 70
     1
102
RTVSPropertyOp16
 70
     1
102
RTVSPropertyOp17
 70
     1
102
RTVSPropertyOp18
 70
     1
102
RTVSPropertyOp19
 70
     1
102
RTVSPropertyOp20
 70
     1
102
RTVSPropertyOp21
 70
     1
102
RTVSPropertyOp22
 70
     1
102
RTVSPropertyOp23
 70
     1
102
RTVSPropertyOp24
 70
     1
102
RTVSPropertyOp25
 70
     1
102
RTVSPropertyOp26
 70
     1
102
RTVSPropertyOp27
 70
     1
102
RTVSPropertyOp28
 70
     1
102
RTVSPropertyOp29
 70
     1
102
RTVSPropertyOp30
 70
     1
102
RTVSPropertyOp31
 70
     1
102
RTVSPropertyOp32
 70
     1
102
RTVSPropertyOp33
 70
     1
102
RTVSPropertyOp34
 70
     1
102
RTVSPropertyOp35
 70
     1
102
RTVSPropertyOp36
 70
     1
102
RTVSPropertyOp37
 70
     1
102
RTVSPropertyOp38
 70
     1
102
RTVSPropertyOp39
 70
     1
102
RTVSPropertyOp40
 70
     1
102
RTVSPropertyOp41
 70
     1
102
RTVSPropertyOp42
 70
     1
102
RTVSPropertyOp43
 70
     1
102
RTVSPropertyOp44
 70
     1
102
RTVSPropertyOp45
 70
     1
102
RTVSPropertyOp46
 70
     1
102
RTVSPropertyOp47
 70
     1
102
RTVSPropertyOp48
 70
     1
102
RTVSPropertyOp49
 70
     1
102
RTVSPropertyOp50
 70
     1
102
RTVSPropertyOp51
 70
     0
102
RTVSPropertyOp52
 70
     0
102
RTVSPropertyOp53
 70
     1
102
RTVSPropertyOp54
 70
     1
102
RTVSPropertyOp55
 70
     1
102
RTVSPropertyOp56
 70
     1
102
RTVSPropertyOp57
 70
     1
102
RTVSPost2010Prop28
280
     0
102
RTVSPost2010PropOp28
 70
     1
102
RTVSPost2010Prop29
280
     1
102
RTVSPost2010PropOp29
 70
     1
102
RTVSPost2010Prop30
280
     1
102
RTVSPost2010PropOp30
 70
     1
102
RTVSPost2010Prop31
280
     0
102
RTVSPost2010PropOp31
 70
     1
102
RTVSPost2010Prop32
280
     0
102
RTVSPost2010PropOp32
 70
     1
102
RTVSPost2010Prop33
280
     0
102
RTVSPost2010PropOp33
 70
     1
102
RTVSPost2010Prop34
280
     0
102
RTVSPost2010PropOp34
 70
     1
102
RTVSPost2010Prop35
280
     0
102
RTVSPost2010PropOp35
 70
     1
102
RTVSPost2010Prop36
280
     0
102
RTVSPost2010PropOp36
 70
     1
102
RTVSPost2010Prop37
 90
       50
102
RTVSPost2010PropOp37
 70
     1
102
RTVSPost2010Prop38
140
0.0
102
RTVSPost2010PropOp38
 70
     1
102
RTVSPost2010Prop39
140
1.0
102
RTVSPost2010PropOp39
 70
     1
102
RTVSPost2010Prop40
 90
        0
102
RTVSPost2010PropOp40
 70
     1
102
RTVSPost2010Prop41ColorIndex
 90
       18
102
RTVSPost2010Prop41ColorRGB
 90
        0
102
RTVSPost2010PropOp41
 70
     1
102
RTVSPost2010Prop42
 90
       50
102
RTVSPost2010PropOp42
 70
     1
102
RTVSPost2010Prop43
 90
        3
102
RTVSPost2010PropOp43
 70
     1
102
RTVSPost2010Prop44ColorIndex
 90
        5
102
RTVSPost2010Prop44ColorRGB
 90
      255
102
RTVSPost2010PropOp44
 70
     1
102
RTVSPost2010Prop45
280
     0
102
RTVSPost2010PropOp45
 70
     1
102
RTVSPost2010Prop46
 90
       50
102
RTVSPost2010PropOp46
 70
     1
102
RTVSPost2010Prop47
 90
       50
102
RTVSPost2010PropOp47
 70
     1
102
RTVSPost2010Prop48
 90
       50
102
RTVSPost2010PropOp48
 70
     1
102
RTVSPost2010Prop49
280
     0
102
RTVSPost2010PropOp49
 70
     1
102
RTVSPost2010Prop50
 90
       50
102
RTVSPost2010PropOp50
 70
     1
102
RTVSPost2010Prop51ColorIndex
 90
      256
102
RTVSPost2010Prop51ColorRGB
 90
-16777216
102
RTVSPost2010PropOp51
 70
     0
102
RTVSPost2010Prop52
140
1.0
102
RTVSPost2010PropOp52
 70
     0
102
RTVSPost2010Prop53
 90
        2
102
RTVSPost2010PropOp53
 70
     1
102
RTVSPost2010Prop54
  1
strokes_ogs.tif
102
RTVSPost2010PropOp54
 70
     1
102
RTVSPost2010Prop55
280
     0
102
RTVSPost2010PropOp55
 70
     1
102
RTVSPost2010Prop56
140
1.0
102
RTVSPost2010PropOp56
 70
     1
102
RTVSPost2010Prop57
140
1.0
102
RTVSPost2010PropOp57
 70
     1
  0
XRECORD
  5
211
102
{ACAD_REACTORS
330
210
102
}
330
210
100
AcDbXrecord
280
     1
102
RTVSPropertyOp0
 70
     1
102
RTVSPropertyOp1
 70
     1
102
RTVSPropertyOp2
 70
     1
102
RTVSPropertyOp3
 70
     1
102
RTVSPropertyOp4
 70
     1
102
RTVSPropertyOp5
 70
     1
102
RTVSPropertyOp6
 70
     1
102
RTVSPropertyOp7
 70
     1
102
RTVSPropertyOp8
 70
     1
102
RTVSPropertyOp9
 70
     1
102
RTVSPropertyOp10
 70
     1
102
RTVSPropertyOp11
 70
     1
102
RTVSPropertyOp12
 70
     1
102
RTVSPropertyOp13
 70
     1
102
RTVSPropertyOp14
 70
     1
102
RTVSPropertyOp15
 70
     1
102
RTVSPropertyOp16
 70
     1
102
RTVSPropertyOp17
 70
     1
102
RTVSPropertyOp18
 70
     1
102
RTVSPropertyOp19
 70
     1
102
RTVSPropertyOp20
 70
     1
102
RTVSPropertyOp21
 70
     1
102
RTVSPropertyOp22
 70
     1
102
RTVSPropertyOp23
 70
     1
102
RTVSPropertyOp24
 70
     1
102
RTVSPropertyOp25
 70
     1
102
RTVSPropertyOp26
 70
     1
102
RTVSPropertyOp27
 70
     1
102
RTVSPropertyOp28
 70
     1
102
RTVSPropertyOp29
 70
     1
102
RTVSPropertyOp30
 70
     1
102
RTVSPropertyOp31
 70
     1
102
RTVSPropertyOp32
 70
     1
102
RTVSPropertyOp33
 70
     1
102
RTVSPropertyOp34
 70
     1
102
RTVSPropertyOp35
 70
     1
102
RTVSPropertyOp36
 70
     1
102
RTVSPropertyOp37
 70
     1
102
RTVSPropertyOp38
 70
     1
102
RTVSPropertyOp39
 70
     1
102
RTVSPropertyOp40
 70
     1
102
RTVSPropertyOp41
 70
     1
102
RTVSPropertyOp42
 70
     1
102
RTVSPropertyOp43
 70
     1
102
RTVSPropertyOp44
 70
     1
102
RTVSPropertyOp45
 70
     1
102
RTVSPropertyOp46
 70
     1
102
RTVSPropertyOp47
 70
     1
102
RTVSPropertyOp48
 70
     1
102
RTVSPropertyOp49
 70
     1
102
RTVSPropertyOp50
 70
     1
102
RTVSPropertyOp51
 70
     0
102
RTVSPropertyOp52
 70
     0
102
RTVSPropertyOp53
 70
     1
102
RTVSPropertyOp54
 70
     1
102
RTVSPropertyOp55
 70
     1
102
RTVSPropertyOp56
 70
     1
102
RTVSPropertyOp57
 70
     1
102
RTVSPost2010Prop28
280
     0
102
RTVSPost2010PropOp28
 70
     1
102
RTVSPost2010Prop29
280
     1
102
RTVSPost2010PropOp29
 70
     1
102
RTVSPost2010Prop30
280
     1
102
RTVSPost2010PropOp30
 70
     1
102
RTVSPost2010Prop31
280
     0
102
RTVSPost2010PropOp31
 70
     1
102
RTVSPost2010Prop32
280
     0
102
RTVSPost2010PropOp32
 70
     1
102
RTVSPost2010Prop33
280
     0
102
RTVSPost2010PropOp33
 70
     1
102
RTVSPost2010Prop34
280
     0
102
RTVSPost2010PropOp34
 70
     1
102
RTVSPost2010Prop35
280
     0
102
RTVSPost2010PropOp35
 70
     1
102
RTVSPost2010Prop36
280
     0
102
RTVSPost2010PropOp36
 70
     1
102
RTVSPost2010Prop37
 90
       50
102
RTVSPost2010PropOp37
 70
     1
102
RTVSPost2010Prop38
140
0.0
102
RTVSPost2010PropOp38
 70
     1
102
RTVSPost2010Prop39
140
1.0
102
RTVSPost2010PropOp39
 70
     1
102
RTVSPost2010Prop40
 90
        0
102
RTVSPost2010PropOp40
 70
     1
102
RTVSPost2010Prop41ColorIndex
 90
       18
102
RTVSPost2010Prop41ColorRGB
 90
        0
102
RTVSPost2010PropOp41
 70
     1
102
RTVSPost2010Prop42
 90
       50
102
RTVSPost2010PropOp42
 70
     1
102
RTVSPost2010Prop43
 90
        3
102
RTVSPost2010PropOp43
 70
     1
102
RTVSPost2010Prop44ColorIndex
 90
        5
102
RTVSPost2010Prop44ColorRGB
 90
      255
102
RTVSPost2010PropOp44
 70
     1
102
RTVSPost2010Prop45
280
     0
102
RTVSPost2010PropOp45
 70
     1
102
RTVSPost2010Prop46
 90
       50
102
RTVSPost2010PropOp46
 70
     1
102
RTVSPost2010Prop47
 90
       50
102
RTVSPost2010PropOp47
 70
     1
102
RTVSPost2010Prop48
 90
       50
102
RTVSPost2010PropOp48
 70
     1
102
RTVSPost2010Prop49
280
     0
102
RTVSPost2010PropOp49
 70
     1
102
RTVSPost2010Prop50
 90
       50
102
RTVSPost2010PropOp50
 70
     1
102
RTVSPost2010Prop51ColorIndex
 90
      256
102
RTVSPost2010Prop51ColorRGB
 90
-16777216
102
RTVSPost2010PropOp51
 70
     0
102
RTVSPost2010Prop52
140
1.0
102
RTVSPost2010PropOp52
 70
     0
102
RTVSPost2010Prop53
 90
        2
102
RTVSPost2010PropOp53
 70
     1
102
RTVSPost2010Prop54
  1
strokes_ogs.tif
102
RTVSPost2010PropOp54
 70
     1
102
RTVSPost2010Prop55
280
     0
102
RTVSPost2010PropOp55
 70
     1
102
RTVSPost2010Prop56
140
1.0
102
RTVSPost2010PropOp56
 70
     1
102
RTVSPost2010Prop57
140
1.0
102
RTVSPost2010PropOp57
 70
     1
  0
XRECORD
  5
201
102
{ACAD_REACTORS
330
200
102
}
330
200
100
AcDbXrecord
280
     1
102
RTVSPropertyOp0
 70
     1
102
RTVSPropertyOp1
 70
     1
102
RTVSPropertyOp2
 70
     1
102
RTVSPropertyOp3
 70
     1
102
RTVSPropertyOp4
 70
     1
102
RTVSPropertyOp5
 70
     1
102
RTVSPropertyOp6
 70
     1
102
RTVSPropertyOp7
 70
     1
102
RTVSPropertyOp8
 70
     1
102
RTVSPropertyOp9
 70
     1
102
RTVSPropertyOp10
 70
     1
102
RTVSPropertyOp11
 70
     1
102
RTVSPropertyOp12
 70
     1
102
RTVSPropertyOp13
 70
     1
102
RTVSPropertyOp14
 70
     1
102
RTVSPropertyOp15
 70
     1
102
RTVSPropertyOp16
 70
     1
102
RTVSPropertyOp17
 70
     1
102
RTVSPropertyOp18
 70
     1
102
RTVSPropertyOp19
 70
     1
102
RTVSPropertyOp20
 70
     1
102
RTVSPropertyOp21
 70
     1
102
RTVSPropertyOp22
 70
     1
102
RTVSPropertyOp23
 70
     1
102
RTVSPropertyOp24
 70
     1
102
RTVSPropertyOp25
 70
     1
102
RTVSPropertyOp26
 70
     1
102
RTVSPropertyOp27
 70
     1
102
RTVSPropertyOp28
 70
     1
102
RTVSPropertyOp29
 70
     1
102
RTVSPropertyOp30
 70
     1
102
RTVSPropertyOp31
 70
     1
102
RTVSPropertyOp32
 70
     1
102
RTVSPropertyOp33
 70
     1
102
RTVSPropertyOp34
 70
     1
102
RTVSPropertyOp35
 70
     1
102
RTVSPropertyOp36
 70
     1
102
RTVSPropertyOp37
 70
     1
102
RTVSPropertyOp38
 70
     1
102
RTVSPropertyOp39
 70
     1
102
RTVSPropertyOp40
 70
     1
102
RTVSPropertyOp41
 70
     1
102
RTVSPropertyOp42
 70
     1
102
RTVSPropertyOp43
 70
     1
102
RTVSPropertyOp44
 70
     1
102
RTVSPropertyOp45
 70
     1
102
RTVSPropertyOp46
 70
     1
102
RTVSPropertyOp47
 70
     1
102
RTVSPropertyOp48
 70
     1
102
RTVSPropertyOp49
 70
     1
102
RTVSPropertyOp50
 70
     1
102
RTVSPropertyOp51
 70
     0
102
RTVSPropertyOp52
 70
     0
102
RTVSPropertyOp53
 70
     1
102
RTVSPropertyOp54
 70
     1
102
RTVSPropertyOp55
 70
     1
102
RTVSPropertyOp56
 70
     1
102
RTVSPropertyOp57
 70
     1
102
RTVSPost2010Prop28
280
     0
102
RTVSPost2010PropOp28
 70
     1
102
RTVSPost2010Prop29
280
     1
102
RTVSPost2010PropOp29
 70
     1
102
RTVSPost2010Prop30
280
     1
102
RTVSPost2010PropOp30
 70
     1
102
RTVSPost2010Prop31
280
     0
102
RTVSPost2010PropOp31
 70
     1
102
RTVSPost2010Prop32
280
     0
102
RTVSPost2010PropOp32
 70
     1
102
RTVSPost2010Prop33
280
     0
102
RTVSPost2010PropOp33
 70
     1
102
RTVSPost2010Prop34
280
     0
102
RTVSPost2010PropOp34
 70
     1
102
RTVSPost2010Prop35
280
     0
102
RTVSPost2010PropOp35
 70
     1
102
RTVSPost2010Prop36
280
     0
102
RTVSPost2010PropOp36
 70
     1
102
RTVSPost2010Prop37
 90
       50
102
RTVSPost2010PropOp37
 70
     1
102
RTVSPost2010Prop38
140
0.0
102
RTVSPost2010PropOp38
 70
     1
102
RTVSPost2010Prop39
140
1.0
102
RTVSPost2010PropOp39
 70
     1
102
RTVSPost2010Prop40
 90
        0
102
RTVSPost2010PropOp40
 70
     1
102
RTVSPost2010Prop41ColorIndex
 90
       18
102
RTVSPost2010Prop41ColorRGB
 90
        0
102
RTVSPost2010PropOp41
 70
     1
102
RTVSPost2010Prop42
 90
       50
102
RTVSPost2010PropOp42
 70
     1
102
RTVSPost2010Prop43
 90
        3
102
RTVSPost2010PropOp43
 70
     1
102
RTVSPost2010Prop44ColorIndex
 90
        5
102
RTVSPost2010Prop44ColorRGB
 90
      255
102
RTVSPost2010PropOp44
 70
     1
102
RTVSPost2010Prop45
280
     0
102
RTVSPost2010PropOp45
 70
     1
102
RTVSPost2010Prop46
 90
       50
102
RTVSPost2010PropOp46
 70
     1
102
RTVSPost2010Prop47
 90
       50
102
RTVSPost2010PropOp47
 70
     1
102
RTVSPost2010Prop48
 90
       50
102
RTVSPost2010PropOp48
 70
     1
102
RTVSPost2010Prop49
280
     0
102
RTVSPost2010PropOp49
 70
     1
102
RTVSPost2010Prop50
 90
       50
102
RTVSPost2010PropOp50
 70
     1
102
RTVSPost2010Prop51ColorIndex
 90
      256
102
RTVSPost2010Prop51ColorRGB
 90
-16777216
102
RTVSPost2010PropOp51
 70
     0
102
RTVSPost2010Prop52
140
1.0
102
RTVSPost2010PropOp52
 70
     0
102
RTVSPost2010Prop53
 90
        2
102
RTVSPost2010PropOp53
 70
     1
102
RTVSPost2010Prop54
  1
strokes_ogs.tif
102
RTVSPost2010PropOp54
 70
     1
102
RTVSPost2010Prop55
280
     0
102
RTVSPost2010PropOp55
 70
     1
102
RTVSPost2010Prop56
140
1.0
102
RTVSPost2010PropOp56
 70
     1
102
RTVSPost2010Prop57
140
1.0
102
RTVSPost2010PropOp57
 70
     1
  0
XRECORD
  5
1F3
102
{ACAD_REACTORS
330
1F2
102
}
330
1F2
100
AcDbXrecord
280
     1
102
RTVSPropertyOp0
 70
     1
102
RTVSPropertyOp1
 70
     1
102
RTVSPropertyOp2
 70
     1
102
RTVSPropertyOp3
 70
     1
102
RTVSPropertyOp4
 70
     1
102
RTVSPropertyOp5
 70
     1
102
RTVSPropertyOp6
 70
     1
102
RTVSPropertyOp7
 70
     1
102
RTVSPropertyOp8
 70
     1
102
RTVSPropertyOp9
 70
     1
102
RTVSPropertyOp10
 70
     1
102
RTVSPropertyOp11
 70
     1
102
RTVSPropertyOp12
 70
     1
102
RTVSPropertyOp13
 70
     1
102
RTVSPropertyOp14
 70
     1
102
RTVSPropertyOp15
 70
     1
102
RTVSPropertyOp16
 70
     1
102
RTVSPropertyOp17
 70
     1
102
RTVSPropertyOp18
 70
     1
102
RTVSPropertyOp19
 70
     1
102
RTVSPropertyOp20
 70
     1
102
RTVSPropertyOp21
 70
     1
102
RTVSPropertyOp22
 70
     1
102
RTVSPropertyOp23
 70
     1
102
RTVSPropertyOp24
 70
     1
102
RTVSPropertyOp25
 70
     1
102
RTVSPropertyOp26
 70
     1
102
RTVSPropertyOp27
 70
     1
102
RTVSPropertyOp28
 70
     1
102
RTVSPropertyOp29
 70
     1
102
RTVSPropertyOp30
 70
     1
102
RTVSPropertyOp31
 70
     1
102
RTVSPropertyOp32
 70
     1
102
RTVSPropertyOp33
 70
     1
102
RTVSPropertyOp34
 70
     1
102
RTVSPropertyOp35
 70
     1
102
RTVSPropertyOp36
 70
     1
102
RTVSPropertyOp37
 70
     1
102
RTVSPropertyOp38
 70
     1
102
RTVSPropertyOp39
 70
     1
102
RTVSPropertyOp40
 70
     1
102
RTVSPropertyOp41
 70
     1
102
RTVSPropertyOp42
 70
     1
102
RTVSPropertyOp43
 70
     1
102
RTVSPropertyOp44
 70
     1
102
RTVSPropertyOp45
 70
     1
102
RTVSPropertyOp46
 70
     1
102
RTVSPropertyOp47
 70
     1
102
RTVSPropertyOp48
 70
     1
102
RTVSPropertyOp49
 70
     1
102
RTVSPropertyOp50
 70
     1
102
RTVSPropertyOp51
 70
     0
102
RTVSPropertyOp52
 70
     0
102
RTVSPropertyOp53
 70
     1
102
RTVSPropertyOp54
 70
     1
102
RTVSPropertyOp55
 70
     1
102
RTVSPropertyOp56
 70
     1
102
RTVSPropertyOp57
 70
     1
102
RTVSPost2010Prop28
280
     0
102
RTVSPost2010PropOp28
 70
     1
102
RTVSPost2010Prop29
280
     1
102
RTVSPost2010PropOp29
 70
     1
102
RTVSPost2010Prop30
280
     1
102
RTVSPost2010PropOp30
 70
     1
102
RTVSPost2010Prop31
280
     0
102
RTVSPost2010PropOp31
 70
     1
102
RTVSPost2010Prop32
280
     0
102
RTVSPost2010PropOp32
 70
     1
102
RTVSPost2010Prop33
280
     0
102
RTVSPost2010PropOp33
 70
     1
102
RTVSPost2010Prop34
280
     0
102
RTVSPost2010PropOp34
 70
     1
102
RTVSPost2010Prop35
280
     0
102
RTVSPost2010PropOp35
 70
     1
102
RTVSPost2010Prop36
280
     0
102
RTVSPost2010PropOp36
 70
     1
102
RTVSPost2010Prop37
 90
       50
102
RTVSPost2010PropOp37
 70
     1
102
RTVSPost2010Prop38
140
0.0
102
RTVSPost2010PropOp38
 70
     1
102
RTVSPost2010Prop39
140
1.0
102
RTVSPost2010PropOp39
 70
     1
102
RTVSPost2010Prop40
 90
        0
102
RTVSPost2010PropOp40
 70
     1
102
RTVSPost2010Prop41ColorIndex
 90
       18
102
RTVSPost2010Prop41ColorRGB
 90
        0
102
RTVSPost2010PropOp41
 70
     1
102
RTVSPost2010Prop42
 90
       50
102
RTVSPost2010PropOp42
 70
     1
102
RTVSPost2010Prop43
 90
        3
102
RTVSPost2010PropOp43
 70
     1
102
RTVSPost2010Prop44ColorIndex
 90
        5
102
RTVSPost2010Prop44ColorRGB
 90
      255
102
RTVSPost2010PropOp44
 70
     1
102
RTVSPost2010Prop45
280
     0
102
RTVSPost2010PropOp45
 70
     1
102
RTVSPost2010Prop46
 90
       50
102
RTVSPost2010PropOp46
 70
     1
102
RTVSPost2010Prop47
 90
       50
102
RTVSPost2010PropOp47
 70
     1
102
RTVSPost2010Prop48
 90
       50
102
RTVSPost2010PropOp48
 70
     1
102
RTVSPost2010Prop49
280
     0
102
RTVSPost2010PropOp49
 70
     1
102
RTVSPost2010Prop50
 90
       50
102
RTVSPost2010PropOp50
 70
     1
102
RTVSPost2010Prop51ColorIndex
 90
      256
102
RTVSPost2010Prop51ColorRGB
 90
-16777216
102
RTVSPost2010PropOp51
 70
     0
102
RTVSPost2010Prop52
140
1.0
102
RTVSPost2010PropOp52
 70
     0
102
RTVSPost2010Prop53
 90
        2
102
RTVSPost2010PropOp53
 70
     1
102
RTVSPost2010Prop54
  1
strokes_ogs.tif
102
RTVSPost2010PropOp54
 70
     1
102
RTVSPost2010Prop55
280
     0
102
RTVSPost2010PropOp55
 70
     1
102
RTVSPost2010Prop56
140
1.0
102
RTVSPost2010PropOp56
 70
     1
102
RTVSPost2010Prop57
140
1.0
102
RTVSPost2010PropOp57
 70
     1
  0
XRECORD
  5
213
102
{ACAD_REACTORS
330
212
102
}
330
212
100
AcDbXrecord
280
     1
102
RTVSPropertyOp0
 70
     1
102
RTVSPropertyOp1
 70
     1
102
RTVSPropertyOp2
 70
     1
102
RTVSPropertyOp3
 70
     1
102
RTVSPropertyOp4
 70
     1
102
RTVSPropertyOp5
 70
     1
102
RTVSPropertyOp6
 70
     1
102
RTVSPropertyOp7
 70
     1
102
RTVSPropertyOp8
 70
     1
102
RTVSPropertyOp9
 70
     1
102
RTVSPropertyOp10
 70
     1
102
RTVSPropertyOp11
 70
     1
102
RTVSPropertyOp12
 70
     1
102
RTVSPropertyOp13
 70
     1
102
RTVSPropertyOp14
 70
     1
102
RTVSPropertyOp15
 70
     1
102
RTVSPropertyOp16
 70
     1
102
RTVSPropertyOp17
 70
     1
102
RTVSPropertyOp18
 70
     1
102
RTVSPropertyOp19
 70
     1
102
RTVSPropertyOp20
 70
     1
102
RTVSPropertyOp21
 70
     1
102
RTVSPropertyOp22
 70
     1
102
RTVSPropertyOp23
 70
     1
102
RTVSPropertyOp24
 70
     1
102
RTVSPropertyOp25
 70
     1
102
RTVSPropertyOp26
 70
     1
102
RTVSPropertyOp27
 70
     1
102
RTVSPropertyOp28
 70
     1
102
RTVSPropertyOp29
 70
     1
102
RTVSPropertyOp30
 70
     1
102
RTVSPropertyOp31
 70
     1
102
RTVSPropertyOp32
 70
     1
102
RTVSPropertyOp33
 70
     1
102
RTVSPropertyOp34
 70
     1
102
RTVSPropertyOp35
 70
     1
102
RTVSPropertyOp36
 70
     1
102
RTVSPropertyOp37
 70
     1
102
RTVSPropertyOp38
 70
     1
102
RTVSPropertyOp39
 70
     1
102
RTVSPropertyOp40
 70
     1
102
RTVSPropertyOp41
 70
     1
102
RTVSPropertyOp42
 70
     1
102
RTVSPropertyOp43
 70
     1
102
RTVSPropertyOp44
 70
     1
102
RTVSPropertyOp45
 70
     1
102
RTVSPropertyOp46
 70
     1
102
RTVSPropertyOp47
 70
     1
102
RTVSPropertyOp48
 70
     1
102
RTVSPropertyOp49
 70
     1
102
RTVSPropertyOp50
 70
     1
102
RTVSPropertyOp51
 70
     0
102
RTVSPropertyOp52
 70
     0
102
RTVSPropertyOp53
 70
     1
102
RTVSPropertyOp54
 70
     1
102
RTVSPropertyOp55
 70
     1
102
RTVSPropertyOp56
 70
     1
102
RTVSPropertyOp57
 70
     1
102
RTVSPost2010Prop28
280
     0
102
RTVSPost2010PropOp28
 70
     1
102
RTVSPost2010Prop29
280
     1
102
RTVSPost2010PropOp29
 70
     1
102
RTVSPost2010Prop30
280
     1
102
RTVSPost2010PropOp30
 70
     1
102
RTVSPost2010Prop31
280
     0
102
RTVSPost2010PropOp31
 70
     1
102
RTVSPost2010Prop32
280
     0
102
RTVSPost2010PropOp32
 70
     1
102
RTVSPost2010Prop33
280
     0
102
RTVSPost2010PropOp33
 70
     1
102
RTVSPost2010Prop34
280
     0
102
RTVSPost2010PropOp34
 70
     1
102
RTVSPost2010Prop35
280
     0
102
RTVSPost2010PropOp35
 70
     1
102
RTVSPost2010Prop36
280
     0
102
RTVSPost2010PropOp36
 70
     1
102
RTVSPost2010Prop37
 90
       50
102
RTVSPost2010PropOp37
 70
     1
102
RTVSPost2010Prop38
140
0.0
102
RTVSPost2010PropOp38
 70
     1
102
RTVSPost2010Prop39
140
1.0
102
RTVSPost2010PropOp39
 70
     1
102
RTVSPost2010Prop40
 90
        0
102
RTVSPost2010PropOp40
 70
     1
102
RTVSPost2010Prop41ColorIndex
 90
       18
102
RTVSPost2010Prop41ColorRGB
 90
        0
102
RTVSPost2010PropOp41
 70
     1
102
RTVSPost2010Prop42
 90
       50
102
RTVSPost2010PropOp42
 70
     1
102
RTVSPost2010Prop43
 90
        3
102
RTVSPost2010PropOp43
 70
     1
102
RTVSPost2010Prop44ColorIndex
 90
        5
102
RTVSPost2010Prop44ColorRGB
 90
      255
102
RTVSPost2010PropOp44
 70
     1
102
RTVSPost2010Prop45
280
     0
102
RTVSPost2010PropOp45
 70
     1
102
RTVSPost2010Prop46
 90
       50
102
RTVSPost2010PropOp46
 70
     1
102
RTVSPost2010Prop47
 90
       50
102
RTVSPost2010PropOp47
 70
     1
102
RTVSPost2010Prop48
 90
       50
102
RTVSPost2010PropOp48
 70
     1
102
RTVSPost2010Prop49
280
     0
102
RTVSPost2010PropOp49
 70
     1
102
RTVSPost2010Prop50
 90
       50
102
RTVSPost2010PropOp50
 70
     1
102
RTVSPost2010Prop51ColorIndex
 90
      256
102
RTVSPost2010Prop51ColorRGB
 90
-16777216
102
RTVSPost2010PropOp51
 70
     0
102
RTVSPost2010Prop52
140
1.0
102
RTVSPost2010PropOp52
 70
     0
102
RTVSPost2010Prop53
 90
        2
102
RTVSPost2010PropOp53
 70
     1
102
RTVSPost2010Prop54
  1
strokes_ogs.tif
102
RTVSPost2010PropOp54
 70
     1
102
RTVSPost2010Prop55
280
     0
102
RTVSPost2010PropOp55
 70
     1
102
RTVSPost2010Prop56
140
1.0
102
RTVSPost2010PropOp56
 70
     1
102
RTVSPost2010Prop57
140
1.0
102
RTVSPost2010PropOp57
 70
     1
  0
ENDSEC
  0
EOF
