  0
SECTION
  2
HEADER
  9
$ACADVER
  1
AC1021
  9
$ACADMAINTVER
 70
    25
  9
$DWGCODEPAGE
  3
ANSI_1252
  9
$INSBASE
 10
0.0
 20
0.0
 30
0.0
  9
$EXTMIN
 10
0.0
 20
0.0
 30
0.0
  9
$EXTMAX
 10
210.0
 20
297.0
 30
0.0
  9
$LIMMIN
 10
0.0
 20
0.0
  9
$LIMMAX
 10
210.0
 20
297.0
  9
$ORTHOMODE
 70
     0
  9
$REGENMODE
 70
     1
  9
$FILLMODE
 70
     1
  9
$QTEXTMODE
 70
     0
  9
$MIRRTEXT
 70
     1
  9
$LTSCALE
 40
1.0
  9
$ATTMODE
 70
     1
  9
$TEXTSIZE
 40
2.2
  9
$TRACEWID
 40
1.0
  9
$TEXTSTYLE
  7
Standard
  9
$CLAYER
  8
0
  9
$CELTYPE
  6
ByLayer
  9
$CECOLOR
 62
   256
  9
$CELTSCALE
 40
1.0
  9
$DISPSILH
 70
     0
  9
$DIMSCALE
 40
1.0
  9
$DIMASZ
 40
2.5
  9
$DIMEXO
 40
0.625
  9
$DIMDLI
 40
3.75
  9
$DIMRND
 40
0.0
  9
$DIMDLE
 40
0.0
  9
$DIMEXE
 40
1.25
  9
$DIMTP
 40
0.0
  9
$DIMTM
 40
0.0
  9
$DIMTXT
 40
2.5
  9
$DIMCEN
 40
2.5
  9
$DIMTSZ
 40
0.0
  9
$DIMTOL
 70
     0
  9
$DIMLIM
 70
     0
  9
$DIMTIH
 70
     0
  9
$DIMTOH
 70
     0
  9
$DIMSE1
 70
     0
  9
$DIMSE2
 70
     0
  9
$DIMTAD
 70
     1
  9
$DIMZIN
 70
     8
  9
$DIMBLK
  1

  9
$DIMASO
 70
     1
  9
$DIMSHO
 70
     1
  9
$DIMPOST
  1

  9
$DIMAPOST
  1

  9
$DIMALT
 70
     0
  9
$DIMALTD
 70
     3
  9
$DIMALTF
 40
0.0393700787
  9
$DIMLFAC
 40
1.0
  9
$DIMTOFL
 70
     1
  9
$DIMTVP
 40
0.0
  9
$DIMTIX
 70
     0
  9
$DIMSOXD
 70
     0
  9
$DIMSAH
 70
     0
  9
$DIMBLK1
  1

  9
$DIMBLK2
  1

  9
$DIMSTYLE
  2
ISO-25
  9
$DIMCLRD
 70
     0
  9
$DIMCLRE
 70
     0
  9
$DIMCLRT
 70
     0
  9
$DIMTFAC
 40
1.0
  9
$DIMGAP
 40
0.625
  9
$DIMJUST
 70
     0
  9
$DIMSD1
 70
     0
  9
$DIMSD2
 70
     0
  9
$DIMTOLJ
 70
     0
  9
$DIMTZIN
 70
     8
  9
$DIMALTZ
 70
     0
  9
$DIMALTTZ
 70
     0
  9
$DIMUPT
 70
     0
  9
$DIMDEC
 70
     2
  9
$DIMTDEC
 70
     2
  9
$DIMALTU
 70
     2
  9
$DIMALTTD
 70
     3
  9
$DIMTXSTY
  7
Standard
  9
$DIMAUNIT
 70
     0
  9
$DIMADEC
 70
     0
  9
$DIMALTRND
 40
0.0
  9
$DIMAZIN
 70
     0
  9
$DIMDSEP
 70
    44
  9
$DIMATFIT
 70
     3
  9
$DIMFRAC
 70
     0
  9
$DIMLDRBLK
  1

  9
$DIMLUNIT
 70
     2
  9
$DIMLWD
 70
    -2
  9
$DIMLWE
 70
    -2
  9
$DIMTMOVE
 70
     0
  9
$DIMFXL
 40
1.0
  9
$DIMFXLON
 70
     0
  9
$DIMJOGANG
 40
0.7853981634
  9
$DIMTFILL
 70
     0
  9
$DIMTFILLCLR
 70
     0
  9
$DIMARCSYM
 70
     0
  9
$DIMLTYPE
  6

  9
$DIMLTEX1
  6

  9
$DIMLTEX2
  6

  9
$LUNITS
 70
     2
  9
$LUPREC
 70
     4
  9
$SKETCHINC
 40
1.0
  9
$FILLETRAD
 40
10.0
  9
$AUNITS
 70
     0
  9
$AUPREC
 70
     0
  9
$MENU
  1
.
  9
$ELEVATION
 40
0.0
  9
$PELEVATION
 40
0.0
  9
$THICKNESS
 40
0.0
  9
$LIMCHECK
 70
     0
  9
$CHAMFERA
 40
0.0
  9
$CHAMFERB
 40
0.0
  9
$CHAMFERC
 40
0.0
  9
$CHAMFERD
 40
0.0
  9
$SKPOLY
 70
     0
  9
$TDCREATE
 40
2460272.561827361
  9
$TDUCREATE
 40
2460272.520160695
  9
$TDUPDATE
 40
2460272.561839629
  9
$TDUUPDATE
 40
2460272.520172963
  9
$TDINDWG
 40
0.0000000116
  9
$TDUSRTIMER
 40
0.0000000116
  9
$USRTIMER
 70
     1
  9
$ANGBASE
 50
0.0
  9
$ANGDIR
 70
     0
  9
$PDMODE
 70
     0
  9
$PDSIZE
 40
0.0
  9
$PLINEWID
 40
0.0
  9
$SPLFRAME
 70
     0
  9
$SPLINETYPE
 70
     6
  9
$SPLINESEGS
 70
     8
  9
$HANDSEED
  5
376
  9
$SURFTAB1
 70
     6
  9
$SURFTAB2
 70
     6
  9
$SURFTYPE
 70
     6
  9
$SURFU
 70
     6
  9
$SURFV
 70
     6
  9
$UCSBASE
  2

  9
$UCSNAME
  2

  9
$UCSORG
 10
0.0
 20
0.0
 30
0.0
  9
$UCSXDIR
 10
1.0
 20
0.0
 30
0.0
  9
$UCSYDIR
 10
0.0
 20
1.0
 30
0.0
  9
$UCSORTHOREF
  2

  9
$UCSORTHOVIEW
 70
     0
  9
$UCSORGTOP
 10
0.0
 20
0.0
 30
0.0
  9
$UCSORGBOTTOM
 10
0.0
 20
0.0
 30
0.0
  9
$UCSORGLEFT
 10
0.0
 20
0.0
 30
0.0
  9
$UCSORGRIGHT
 10
0.0
 20
0.0
 30
0.0
  9
$UCSORGFRONT
 10
0.0
 20
0.0
 30
0.0
  9
$UCSORGBACK
 10
0.0
 20
0.0
 30
0.0
  9
$PUCSBASE
  2

  9
$PUCSNAME
  2

  9
$PUCSORG
 10
0.0
 20
0.0
 30
0.0
  9
$PUCSXDIR
 10
1.0
 20
0.0
 30
0.0
  9
$PUCSYDIR
 10
0.0
 20
1.0
 30
0.0
  9
$PUCSORTHOREF
  2

  9
$PUCSORTHOVIEW
 70
     0
  9
$PUCSORGTOP
 10
0.0
 20
0.0
 30
0.0
  9
$PUCSORGBOTTOM
 10
0.0
 20
0.0
 30
0.0
  9
$PUCSORGLEFT
 10
0.0
 20
0.0
 30
0.0
  9
$PUCSORGRIGHT
 10
0.0
 20
0.0
 30
0.0
  9
$PUCSORGFRONT
 10
0.0
 20
0.0
 30
0.0
  9
$PUCSORGBACK
 10
0.0
 20
0.0
 30
0.0
  9
$USERI1
 70
     0
  9
$USERI2
 70
     0
  9
$USERI3
 70
     0
  9
$USERI4
 70
     0
  9
$USERI5
 70
     0
  9
$USERR1
 40
0.0
  9
$USERR2
 40
0.0
  9
$USERR3
 40
0.0
  9
$USERR4
 40
0.0
  9
$USERR5
 40
0.0
  9
$WORLDVIEW
 70
     1
  9
$SHADEDGE
 70
     3
  9
$SHADEDIF
 70
    70
  9
$TILEMODE
 70
     1
  9
$MAXACTVP
 70
    64
  9
$PINSBASE
 10
0.0
 20
0.0
 30
0.0
  9
$PLIMCHECK
 70
     0
  9
$PEXTMIN
 10
0.0
 20
0.0
 30
0.0
  9
$PEXTMAX
 10
210.0
 20
297.0
 30
0.0
  9
$PLIMMIN
 10
0.0
 20
0.0
  9
$PLIMMAX
 10
210.0
 20
297.0
  9
$UNITMODE
 70
     0
  9
$VISRETAIN
 70
     1
  9
$PLINEGEN
 70
     0
  9
$PSLTSCALE
 70
     1
  9
$TREEDEPTH
 70
  3020
  9
$CMLSTYLE
  2
Standard
  9
$CMLJUST
 70
     0
  9
$CMLSCALE
 40
20.0
  9
$PROXYGRAPHICS
 70
     1
  9
$MEASUREMENT
 70
     1
  9
$CELWEIGHT
370
    -1
  9
$ENDCAPS
280
     0
  9
$JOINSTYLE
280
     0
  9
$LWDISPLAY
290
     0
  9
$INSUNITS
 70
     4
  9
$HYPERLINKBASE
  1

  9
$STYLESHEET
  1

  9
$XEDIT
290
     1
  9
$CEPSNTYPE
380
     0
  9
$PSTYLEMODE
290
     1
  9
$FINGERPRINTGUID
  2
{2d18ea0a-4730-4f93-b6b5-03436c3a6ea9}
  9
$VERSIONGUID
  2
{FAEB1C32-E019-11D5-929B-00C0DF256EC4}
  9
$EXTNAMES
290
     1
  9
$PSVPSCALE
 40
0.0
  9
$OLESTARTUP
290
     0
  9
$SORTENTS
280
   127
  9
$INDEXCTL
280
     0
  9
$HIDETEXT
280
     1
  9
$XCLIPFRAME
290
     0
  9
$HALOGAP
280
     0
  9
$OBSCOLOR
 70
   257
  9
$OBSLTYPE
280
     0
  9
$INTERSECTIONDISPLAY
280
     0
  9
$INTERSECTIONCOLOR
 70
   257
  9
$DIMASSOC
280
     2
  9
$PROJECTNAME
  1

  9
$CAMERADISPLAY
290
     0
  9
$LENSLENGTH
 40
50.0
  9
$CAMERAHEIGHT
 40
0.0
  9
$STEPSPERSEC
 40
2.0
  9
$STEPSIZE
 40
6.0
  9
$3DDWFPREC
 40
2.0
  9
$PSOLWIDTH
 40
5.0
  9
$PSOLHEIGHT
 40
80.0
  9
$LOFTANG1
 40
1.5707963268
  9
$LOFTANG2
 40
1.5707963268
  9
$LOFTMAG1
 40
0.0
  9
$LOFTMAG2
 40
0.0
  9
$LOFTPARAM
 70
     7
  9
$LOFTNORMALS
280
     1
  9
$LATITUDE
 40
37.795
  9
$LONGITUDE
 40
-122.394
  9
$NORTHDIRECTION
 40
0.0
  9
$TIMEZONE
 70
 -8000
  9
$LIGHTGLYPHDISPLAY
280
     1
  9
$TILEMODELIGHTSYNCH
280
     1
  9
$CMATERIAL
347
44
  9
$SOLIDHIST
280
     0
  9
$SHOWHIST
280
     1
  9
$DWFFRAME
280
     2
  9
$DGNFRAME
280
     2
  9
$REALWORLDSCALE
290
     1
  9
$INTERFERECOLOR
 62
   256
  9
$CSHADOW
280
     0
  9
$SHADOWPLANELOCATION
 40
0.0
  0
ENDSEC
  0
SECTION
  2
CLASSES
  0
CLASS
  1
ACDBDICTIONARYWDFLT
  2
AcDbDictionaryWithDefault
  3
ObjectDBX Classes
 90
        0
 91
        3
280
     0
281
     0
  0
CLASS
  1
VISUALSTYLE
  2
AcDbVisualStyle
  3
ObjectDBX Classes
 90
     4095
 91
        3
280
     0
281
     0
  0
CLASS
  1
MATERIAL
  2
AcDbMaterial
  3
ObjectDBX Classes
 90
     1153
 91
        3
280
     0
281
     0
  0
CLASS
  1
SCALE
  2
AcDbScale
  3
ObjectDBX Classes
 90
     1153
 91
        3
280
     0
281
     0
  0
CLASS
  1
TABLESTYLE
  2
AcDbTableStyle
  3
ObjectDBX Classes
 90
     4095
 91
        3
280
     0
281
     0
  0
CLASS
  1
MLEADERSTYLE
  2
AcDbMLeaderStyle
  3
ACDB_MLEADERSTYLE_CLASS
 90
     4095
 91
        3
280
     0
281
     0
  0
CLASS
  1
SUN
  2
AcDbSun
  3
SCENEOE
 90
     1153
 91
        3
280
     0
281
     0
  0
CLASS
  1
MULTILEADER
  2
AcDbMLeader
  3
ACDB_MLEADER_CLASS
 90
     1025
 91
        3
280
     0
281
     1
  0
CLASS
  1
RASTERVARIABLES
  2
AcDbRasterVariables
  3
ISM
 90
        0
 91
        3
280
     0
281
     0
  0
CLASS
  1
IMAGEDEF
  2
AcDbRasterImageDef
  3
ISM
 90
        0
 91
        3
280
     0
281
     0
  0
CLASS
  1
IMAGE
  2
AcDbRasterImage
  3
ISM
 90
      127
 91
        4
280
     0
281
     1
  0
CLASS
  1
IMAGEDEF_REACTOR
  2
AcDbRasterImageDefReactor
  3
ISM
 90
        1
 91
        3
280
     0
281
     0
  0
CLASS
  1
DICTIONARYVAR
  2
AcDbDictionaryVar
  3
ObjectDBX Classes
 90
        0
 91
        3
280
     0
281
     0
  0
CLASS
  1
CELLSTYLEMAP
  2
AcDbCellStyleMap
  3
ObjectDBX Classes
 90
     1152
 91
        3
280
     0
281
     0
  0
ENDSEC
  0
SECTION
  2
TABLES
  0
TABLE
  2
VPORT
  5
8
330
0
100
AcDbSymbolTable
 70
     1
  0
VPORT
  5
29
330
8
100
AcDbSymbolTableRecord
100
AcDbViewportTableRecord
  2
*Active
 70
     0
 10
0.0
 20
0.0
 11
1.0
 21
1.0
 12
344.1869158879
 22
148.5
 13
0.0
 23
0.0
 14
10.0
 24
10.0
 15
10.0
 25
10.0
 16
0.0
 26
0.0
 36
1.0
 17
0.0
 27
0.0
 37
0.0
 40
297.0
 41
1.9729729729
 42
50.0
 43
0.0
 44
0.0
 50
0.0
 51
0.0
 71
     0
 72
   100
 73
     1
 74
     3
 75
     0
 76
     0
 77
     0
 78
     0
281
     0
 65
     1
110
0.0
120
0.0
130
0.0
111
1.0
121
0.0
131
0.0
112
0.0
122
1.0
132
0.0
 79
     0
146
0.0
348
2F
 60
     3
 61
     5
292
     1
282
     1
141
0.0
142
0.0
 63
   250
361
6D
  0
ENDTAB
  0
TABLE
  2
LTYPE
  5
5
330
0
100
AcDbSymbolTable
 70
     2
  0
LTYPE
  5
14
330
5
100
AcDbSymbolTableRecord
100
AcDbLinetypeTableRecord
  2
ByBlock
 70
     0
  3

 72
    65
 73
     0
 40
0.0
  0
LTYPE
  5
15
330
5
100
AcDbSymbolTableRecord
100
AcDbLinetypeTableRecord
  2
ByLayer
 70
     0
  3

 72
    65
 73
     0
 40
0.0
  0
LTYPE
  5
16
330
5
100
AcDbSymbolTableRecord
100
AcDbLinetypeTableRecord
  2
Continuous
 70
     0
  3
Solid line
 72
    65
 73
     0
 40
0.0
  0
LTYPE
  5
100
330
5
100
AcDbSymbolTableRecord
100
AcDbLinetypeTableRecord
  2
HIDDEN2
 70
     0
  3
Hidden (.5x) _ _ _ _ _ _ _ _ _ _ _ _ _ _ _ _ _ 
 72
    65
 73
     2
 40
4.7625
 49
3.175
 74
     4
 75
     0
340
0
 46
0.0
 50
0.0
 44
0.0
 45
0.0
 49
-1.5875
 74
     4
 75
     0
340
0
 46
0.0
 50
0.0
 44
0.0
 45
0.0
  0
ENDTAB
  0
TABLE
  2
LAYER
  5
2
330
0
100
AcDbSymbolTable
 70
    13
  0
LAYER
  5
10
330
2
100
AcDbSymbolTableRecord
100
AcDbLayerTableRecord
  2
0
 70
     0
 62
     7
  6
Continuous
370
    -3
390
F
347
46
  0
LAYER
  5
6E
330
2
100
AcDbSymbolTableRecord
100
AcDbLayerTableRecord
  2
Standard
 70
     0
 62
     7
  6
Continuous
370
    -3
390
F
347
46
  0
LAYER
  5
71
330
2
100
AcDbSymbolTableRecord
100
AcDbLayerTableRecord
  2
DV1_Füllung
 70
     1
 62
    -7
  6
Continuous
370
    -3
390
F
347
46
  0
LAYER
  5
77
330
2
100
AcDbSymbolTableRecord
100
AcDbLayerTableRecord
  2
DV1_Standard
 70
     0
 62
     7
  6
Continuous
370
    -3
390
F
347
46
  0
LAYER
  5
F1
330
2
100
AcDbSymbolTableRecord
100
AcDbLayerTableRecord
  2
DV2_Füllung
 70
     1
 62
    -7
  6
Continuous
370
    -3
390
F
347
46
  0
LAYER
  5
FB
330
2
100
AcDbSymbolTableRecord
100
AcDbLayerTableRecord
  2
DV2_Standard
 70
     0
 62
     7
  6
Continuous
370
    -3
390
F
347
46
  0
LAYER
  5
193
330
2
100
AcDbSymbolTableRecord
100
AcDbLayerTableRecord
  2
DV3_Füllung
 70
     1
 62
    -7
  6
Continuous
370
    -3
390
F
347
46
  0
LAYER
  5
19D
330
2
100
AcDbSymbolTableRecord
100
AcDbLayerTableRecord
  2
DV3_Standard
 70
     0
 62
     7
  6
Continuous
370
    -3
390
F
347
46
  0
LAYER
  5
21A
330
2
100
AcDbSymbolTableRecord
100
AcDbLayerTableRecord
  2
DV4_Füllung
 70
     1
 62
    -7
  6
Continuous
370
    -3
390
F
347
46
  0
LAYER
  5
220
330
2
100
AcDbSymbolTableRecord
100
AcDbLayerTableRecord
  2
DV4_Standard
 70
     0
 62
     7
  6
Continuous
370
    -3
390
F
347
46
  0
LAYER
  5
29B
330
2
100
AcDbSymbolTableRecord
100
AcDbLayerTableRecord
  2
46616_BEFESTIGUN
 70
     0
 62
     7
  6
Continuous
370
    -3
390
F
347
46
  0
LAYER
  5
30E
330
2
100
AcDbSymbolTableRecord
100
AcDbLayerTableRecord
  2
Default
 70
     0
 62
     7
  6
Continuous
370
    -3
390
F
347
46
  0
LAYER
  5
32D
330
2
100
AcDbSymbolTableRecord
100
AcDbLayerTableRecord
  2
Skizziergeometrie(DIN)
 70
     0
 62
     7
  6
Continuous
370
    -3
390
F
347
46
  0
ENDTAB
  0
TABLE
  2
STYLE
  5
3
330
0
100
AcDbSymbolTable
 70
     2
  0
STYLE
  5
11
330
3
100
AcDbSymbolTableRecord
100
AcDbTextStyleTableRecord
  2
Standard
 70
     0
 40
0.0
 41
1.0
 50
0.0
 71
     0
 42
2.2
  3
txt
  4

  0
STYLE
  5
187
330
3
100
AcDbSymbolTableRecord
100
AcDbTextStyleTableRecord
  2
SEACAD_Arial
 70
     0
 40
0.0
 41
1.0
 50
0.0
 71
     0
 42
2.5
  3

  4

1001
ACAD
1000
Arial
1071
        0
  0
ENDTAB
  0
TABLE
  2
VIEW
  5
6
330
0
100
AcDbSymbolTable
 70
     0
  0
ENDTAB
  0
TABLE
  2
UCS
  5
7
330
0
100
AcDbSymbolTable
 70
     0
  0
ENDTAB
  0
TABLE
  2
APPID
  5
9
330
0
100
AcDbSymbolTable
 70
     2
  0
APPID
  5
12
330
9
100
AcDbSymbolTableRecord
100
AcDbRegAppTableRecord
  2
ACAD
 70
     0
  0
APPID
  5
337
330
9
100
AcDbSymbolTableRecord
100
AcDbRegAppTableRecord
  2
ACAD_MLEADERVER
 70
     0
  0
ENDTAB
  0
TABLE
  2
DIMSTYLE
  5
A
330
0
100
AcDbSymbolTable
 70
     3
100
AcDbDimStyleTable
  0
DIMSTYLE
105
27
330
A
100
AcDbSymbolTableRecord
100
AcDbDimStyleTableRecord
  2
ISO-25
 70
     0
 41
2.5
 42
0.625
 43
3.75
 44
1.25
 73
     0
 74
     0
 77
     1
 78
     8
140
2.5
141
2.5
143
0.0393700787
147
0.625
171
     3
172
     1
178
     0
271
     2
272
     2
274
     3
278
    44
283
     0
284
     8
340
11
  0
DIMSTYLE
105
177
330
A
100
AcDbSymbolTableRecord
100
AcDbDimStyleTableRecord
  2
Standard
 70
     0
178
     0
340
11
  0
DIMSTYLE
105
188
102
{ACAD_REACTORS
330
189
330
18A
330
18B
330
18C
330
18D
330
18E
330
18F
330
190
330
298
102
}
330
A
100
AcDbSymbolTableRecord
100
AcDbDimStyleTableRecord
  2
E-Katalog
 70
     0
 41
3.75
 42
0.75
 44
1.25
 73
     0
 74
     0
 77
     1
 78
     8
140
2.5
141
1.25
143
0.0393700787
146
0.7
147
0.625
172
     1
173
     1
178
     0
271
     2
272
     3
278
    44
283
     0
284
     8
340
187
343
181
344
181
  0
ENDTAB
  0
TABLE
  2
BLOCK_RECORD
  5
1
330
0
100
AcDbSymbolTable
 70
    13
  0
BLOCK_RECORD
  5
1F
330
1
100
AcDbSymbolTableRecord
100
AcDbBlockTableRecord
  2
*Model_Space
340
22
 70
     0
280
     1
281
     0
  0
BLOCK_RECORD
  5
1B
330
1
100
AcDbSymbolTableRecord
100
AcDbBlockTableRecord
  2
*Paper_Space
340
1E
 70
     0
280
     1
281
     0
  0
BLOCK_RECORD
  5
6F
330
1
100
AcDbSymbolTableRecord
100
AcDbBlockTableRecord
  2
SE
340
0
102
{BLKREFS
331
70
102
}
 70
     0
280
     1
281
     0
  0
BLOCK_RECORD
  5
EF
330
1
100
AcDbSymbolTableRecord
100
AcDbBlockTableRecord
  2
SE1
340
0
102
{BLKREFS
331
F0
102
}
 70
     0
280
     1
281
     0
  0
BLOCK_RECORD
  5
178
330
1
100
AcDbSymbolTableRecord
100
AcDbBlockTableRecord
  2
_Oblique
340
0
 70
     0
280
     1
281
     0
  0
BLOCK_RECORD
  5
17C
330
1
100
AcDbSymbolTableRecord
100
AcDbBlockTableRecord
  2
_Dot
340
0
 70
     0
280
     1
281
     0
  0
BLOCK_RECORD
  5
181
330
1
100
AcDbSymbolTableRecord
100
AcDbBlockTableRecord
  2
_SE_OPEN
340
0
 70
     0
280
     1
281
     0
  0
BLOCK_RECORD
  5
191
330
1
100
AcDbSymbolTableRecord
100
AcDbBlockTableRecord
  2
SE2
340
0
102
{BLKREFS
331
192
102
}
 70
     0
280
     1
281
     0
  0
BLOCK_RECORD
  5
218
330
1
100
AcDbSymbolTableRecord
100
AcDbBlockTableRecord
  2
SE3
340
0
102
{BLKREFS
331
219
102
}
 70
     0
280
     1
281
     0
  0
BLOCK_RECORD
  5
299
330
1
100
AcDbSymbolTableRecord
100
AcDbBlockTableRecord
  2
SE4
340
0
102
{BLKREFS
331
29A
102
}
 70
     0
280
     1
281
     0
  0
BLOCK_RECORD
  5
2B7
330
1
100
AcDbSymbolTableRecord
100
AcDbBlockTableRecord
  2
SE5
340
0
102
{BLKREFS
331
2B8
102
}
 70
     0
280
     1
281
     0
  0
BLOCK_RECORD
  5
2D4
330
1
100
AcDbSymbolTableRecord
100
AcDbBlockTableRecord
  2
SE6
340
0
102
{BLKREFS
331
2D5
102
}
 70
     0
280
     1
281
     0
  0
BLOCK_RECORD
  5
2F1
330
1
100
AcDbSymbolTableRecord
100
AcDbBlockTableRecord
  2
SE7
340
0
102
{BLKREFS
331
2F2
102
}
 70
     0
280
     1
281
     0
  0
BLOCK_RECORD
  5
316
330
1
100
AcDbSymbolTableRecord
100
AcDbBlockTableRecord
  2
SEANNOT_GROUP
340
0
102
{BLKREFS
331
317
102
}
 70
     0
280
     1
281
     0
  0
BLOCK_RECORD
  5
31A
330
1
100
AcDbSymbolTableRecord
100
AcDbBlockTableRecord
  2
_NONE
340
0
 70
     0
280
     1
281
     0
  0
ENDTAB
  0
ENDSEC
  0
SECTION
  2
BLOCKS
  0
BLOCK
  5
20
330
1F
100
AcDbEntity
  8
0
100
AcDbBlockBegin
  2
*Model_Space
 70
     0
 10
0.0
 20
0.0
 30
0.0
  3
*Model_Space
  1

  0
ENDBLK
  5
21
330
1F
100
AcDbEntity
  8
0
100
AcDbBlockEnd
  0
BLOCK
  5
1C
330
1B
100
AcDbEntity
 67
     1
  8
0
100
AcDbBlockBegin
  2
*Paper_Space
 70
     0
 10
0.0
 20
0.0
 30
0.0
  3
*Paper_Space
  1

  0
ENDBLK
  5
1D
330
1B
100
AcDbEntity
 67
     1
  8
0
100
AcDbBlockEnd
  0
BLOCK
  5
ED
330
6F
100
AcDbEntity
  8
0
100
AcDbBlockBegin
  2
SE
 70
     0
 10
0.0
 20
0.0
 30
0.0
  3
SE
  1

  0
HATCH
  5
72
330
6F
100
AcDbEntity
  8
DV1_Füllung
  6
Continuous
 62
     7
100
AcDbHatch
 10
0.0
 20
0.0
 30
0.0
210
0.0
220
0.0
230
1.0
  2
SOLID
 70
     1
 71
     0
 91
        1
 92
        1
 93
       36
 72
     2
 10
61.7351233139138
 20
123.4695663878293
 40
0.1999999999999997
 50
180.0
 51
270.0
 73
     0
 72
     1
 10
61.7351233139138
 20
123.6695663878293
 11
63.33512331391379
 21
123.6695663878293
 72
     2
 10
63.33512331391379
 20
123.8695663878293
 40
0.2000000000000005
 50
270.0
 51
360.0
 73
     1
 72
     1
 10
63.53512331391379
 20
123.8695663878293
 11
63.53512331391379
 21
124.4695663878293
 72
     2
 10
63.33512331391379
 20
124.4695663878293
 40
0.1999999999999997
 50
0.0
 51
90.0
 73
     1
 72
     1
 10
63.33512331391379
 20
124.6695663878293
 11
60.73512331391379
 21
124.6695663878293
 72
     2
 10
60.7351233139138
 20
124.4695663878293
 40
0.1999999999999988
 50
90.0
 51
180.0
 73
     1
 72
     1
 10
60.5351233139138
 20
124.4695663878293
 11
60.5351233139138
 21
112.9695663878293
 72
     2
 10
60.7351233139138
 20
112.9695663878293
 40
0.1999999999999997
 50
180.0
 51
270.0
 73
     1
 72
     1
 10
60.7351233139138
 20
112.7695663878293
 11
62.55114871769824
 21
112.7695663878293
 72
     2
 10
61.6851233139138
 20
113.2695663878293
 40
1.0
 50
329.9999999999999
 51
390.0000000000001
 73
     1
 72
     1
 10
62.55114871769823
 20
113.7695663878293
 11
61.7351233139138
 21
113.7695663878293
 72
     2
 10
61.7351233139138
 20
113.9695663878293
 40
0.2000000000000005
 50
90.0
 51
180.0
 73
     0
 72
     1
 10
61.5351233139138
 20
113.9695663878293
 11
61.5351233139138
 21
120.7695663878293
 72
     2
 10
61.7351233139138
 20
120.7695663878293
 40
0.1999999999999997
 50
180.0
 51
270.0
 73
     0
 72
     1
 10
61.7351233139138
 20
120.9695663878293
 11
74.13512331391381
 21
120.9695663878293
 72
     2
 10
74.1351233139138
 20
120.7695663878293
 40
0.1999999999999997
 50
270.0
 51
360.0
 73
     0
 72
     1
 10
74.3351233139138
 20
120.7695663878293
 11
74.3351233139138
 21
113.9695663878293
 72
     2
 10
74.1351233139138
 20
113.9695663878293
 40
0.1999999999999997
 50
0.0
 51
90.0
 73
     0
 72
     1
 10
74.1351233139138
 20
113.7695663878293
 11
73.31909791012934
 21
113.7695663878293
 72
     2
 10
74.18512331391379
 20
113.2695663878293
 40
1.0
 50
150.0000000000003
 51
209.9999999999997
 73
     1
 72
     1
 10
73.31909791012934
 20
112.7695663878293
 11
75.13512331391381
 21
112.7695663878293
 72
     2
 10
75.1351233139138
 20
112.9695663878293
 40
0.2000000000000005
 50
270.0
 51
360.0
 73
     1
 72
     1
 10
75.3351233139138
 20
112.9695663878293
 11
75.3351233139138
 21
124.4695663878293
 72
     2
 10
75.1351233139138
 20
124.4695663878293
 40
0.1999999999999997
 50
0.0
 51
90.0
 73
     1
 72
     1
 10
75.1351233139138
 20
124.6695663878293
 11
72.5351233139138
 21
124.6695663878293
 72
     2
 10
72.53512331391381
 20
124.4695663878293
 40
0.1999999999999988
 50
90.0
 51
180.0
 73
     1
 72
     1
 10
72.33512331391381
 20
124.4695663878293
 11
72.33512331391381
 21
123.8695663878293
 72
     2
 10
72.53512331391381
 20
123.8695663878293
 40
0.1999999999999997
 50
180.0
 51
270.0
 73
     1
 72
     1
 10
72.53512331391381
 20
123.6695663878293
 11
74.13512331391381
 21
123.6695663878293
 72
     2
 10
74.1351233139138
 20
123.4695663878293
 40
0.1999999999999988
 50
270.0
 51
360.0
 73
     0
 72
     1
 10
74.33512331391378
 20
123.4695663878293
 11
74.3351233139138
 21
122.1695663878293
 72
     2
 10
74.1351233139138
 20
122.1695663878293
 40
0.1999999999999997
 50
0.0
 51
90.0
 73
     0
 72
     1
 10
74.1351233139138
 20
121.9695663878293
 11
61.73512331391379
 21
121.9695663878293
 72
     2
 10
61.7351233139138
 20
122.1695663878293
 40
0.1999999999999997
 50
90.0
 51
180.0
 73
     0
 72
     1
 10
61.5351233139138
 20
122.1695663878293
 11
61.5351233139138
 21
123.4695663878293
 97
        0
 75
     0
 76
     1
 98
        0
  0
HATCH
  5
73
330
6F
100
AcDbEntity
  8
DV1_Füllung
  6
Continuous
 62
     7
100
AcDbHatch
 10
0.0
 20
0.0
 30
0.0
210
0.0
220
0.0
230
1.0
  2
SOLID
 70
     1
 71
     0
 91
        1
 92
        1
 93
       40
 72
     2
 10
62.03512331391379
 20
107.9226792752521
 40
0.1999999999999999
 50
116.3877999612423
 51
180.0
 73
     0
 72
     1
 10
61.8351233139138
 20
107.9226792752521
 11
61.8351233139138
 21
108.1164535004133
 72
     2
 10
62.03512331391379
 20
108.1164535004133
 40
0.1999999999999997
 50
180.0
 51
243.6122000390162
 73
     0
 72
     2
 10
61.83512331391562
 20
108.5195663878292
 40
0.2500000000000013
 50
296.3877999609841
 51
462.8012261207753
 73
     1
 72
     2
 10
67.53649697796635
 20
83.42736196827764
 40
25.98177771335835
 50
102.8012261207719
 51
125.308650978942
 73
     1
 72
     2
 10
52.63512331391379
 20
104.4665902094775
 40
0.2000000000000665
 50
125.3086509789419
 51
270.0
 73
     1
 72
     1
 10
52.63512331391379
 20
104.2665902094775
 11
54.68799487392806
 21
104.2665902094774
 72
     2
 10
67.53649697796635
 20
83.42736196827764
 40
24.48177771335847
 50
238.3439407603173
 51
252.5007365883792
 73
     0
 72
     2
 10
60.23512331391376
 20
106.5853988353964
 40
0.1999999999999969
 50
252.5007365883798
 51
360.0
 73
     0
 72
     1
 10
60.43512331391376
 20
106.5853988353964
 11
60.43512331391376
 21
104.4700319420129
 72
     2
 10
60.63512331391376
 20
104.4700319420129
 40
0.1999999999999997
 50
180.0
 51
270.0
 73
     1
 72
     1
 10
60.63512331391376
 20
104.2700319420129
 11
75.23512331391383
 21
104.2700319420129
 72
     2
 10
75.23512331391385
 20
104.4700319420129
 40
0.2000000000000005
 50
270.0
 51
360.0
 73
     1
 72
     1
 10
75.43512331391385
 20
104.4700319420129
 11
75.43512331391383
 21
106.5853988353964
 72
     2
 10
75.63512331391384
 20
106.5853988353964
 40
0.1999999999999997
 50
180.0
 51
287.4992634116202
 73
     0
 72
     2
 10
68.33374964986125
 20
83.42736196827764
 40
24.48177771335848
 50
287.4992634116208
 51
301.6560592396826
 73
     0
 72
     1
 10
81.18225175389952
 20
104.2665902094775
 11
83.2351233139138
 21
104.2665902094775
 72
     2
 10
83.2351233139138
 20
104.4665902094775
 40
0.2000000000001189
 50
270.0
 51
414.6913490210625
 73
     1
 72
     2
 10
68.33374964986125
 20
83.42736196827764
 40
25.98177771335848
 50
54.69134902105802
 51
77.19877387922817
 73
     1
 72
     2
 10
74.03512331391198
 20
108.5195663878292
 40
0.2500000000000002
 50
77.19877387922789
 51
243.6122000390174
 73
     1
 72
     2
 10
73.8351233139138
 20
108.1164535004133
 40
0.2
 50
296.3877999609874
 51
360.0
 73
     0
 72
     1
 10
74.0351233139138
 20
108.1164535004133
 11
74.03512331391379
 21
107.9226792752521
 72
     2
 10
73.8351233139138
 20
107.9226792752521
 40
0.1999999999999997
 50
0.0
 51
63.61220003875768
 73
     0
 72
     2
 10
74.03512331391379
 20
107.5195663878372
 40
0.2499999999999998
 50
116.3877999612405
 51
243.6122000387595
 73
     1
 72
     2
 10
73.8351233139138
 20
107.1164535004222
 40
0.1999999999999999
 50
296.3877999612441
 51
360.0
 73
     0
 72
     1
 10
74.0351233139138
 20
107.1164535004222
 11
74.03512331391379
 21
106.9226792752521
 72
     2
 10
73.8351233139138
 20
106.9226792752521
 40
0.1999999999999997
 50
0.0
 51
63.61220003875768
 73
     0
 72
     2
 10
74.03512331391379
 20
106.5195663878372
 40
0.2499999999999998
 50
116.3877999612405
 51
243.6122000387595
 73
     1
 72
     2
 10
73.8351233139138
 20
106.1164535004222
 40
0.1999999999999999
 50
296.3877999612423
 51
360.0
 73
     0
 72
     1
 10
74.0351233139138
 20
106.1164535004222
 11
74.03512331391379
 21
105.9695663878293
 72
     2
 10
73.8351233139138
 20
105.9695663878293
 40
0.1999999999999997
 50
0.0
 51
90.0
 73
     0
 72
     1
 10
73.8351233139138
 20
105.7695663878293
 11
62.03512331391379
 21
105.7695663878293
 72
     2
 10
62.03512331391379
 20
105.9695663878293
 40
0.2000000000000005
 50
90.0
 51
180.0
 73
     0
 72
     1
 10
61.8351233139138
 20
105.9695663878293
 11
61.8351233139138
 21
106.1164535004222
 72
     2
 10
62.03512331391379
 20
106.1164535004222
 40
0.1999999999999988
 50
180.0
 51
243.6122000387577
 73
     0
 72
     2
 10
61.8351233139138
 20
106.5195663878372
 40
0.2499999999999998
 50
296.387799961242
 51
423.6122000387566
 73
     1
 72
     2
 10
62.03512331391379
 20
106.9226792752521
 40
0.1999999999999999
 50
116.3877999612423
 51
180.0
 73
     0
 72
     1
 10
61.8351233139138
 20
106.9226792752521
 11
61.8351233139138
 21
107.1164535004222
 72
     2
 10
62.03512331391379
 20
107.1164535004222
 40
0.1999999999999997
 50
180.0
 51
243.6122000387559
 73
     0
 72
     2
 10
61.8351233139138
 20
107.5195663878372
 40
0.2499999999999998
 50
296.387799961242
 51
423.6122000387566
 73
     1
 97
        0
 75
     0
 76
     1
 98
        0
  0
HATCH
  5
74
330
6F
100
AcDbEntity
  8
DV1_Füllung
  6
Continuous
 62
     7
100
AcDbHatch
 10
0.0
 20
0.0
 30
0.0
210
0.0
220
0.0
230
1.0
  2
SOLID
 70
     1
 71
     0
 91
        1
 92
        1
 93
       12
 72
     1
 10
70.9351233139138
 20
123.2695663878293
 11
62.1351233139138
 21
123.2695663878293
 72
     2
 10
62.13512331391379
 20
123.0695663878293
 40
0.2000000000000023
 50
90.0
 51
180.0
 73
     1
 72
     1
 10
61.93512331391379
 20
123.0695663878293
 11
61.93512331391379
 21
122.1695663878293
 72
     2
 10
62.13512331391379
 20
122.1695663878293
 40
0.1999999999999988
 50
180.0
 51
270.0
 73
     1
 72
     1
 10
62.13512331391379
 20
121.9695663878293
 11
73.73512331391379
 21
121.9695663878293
 72
     2
 10
73.7351233139138
 20
122.1695663878293
 40
0.2000000000000005
 50
270.0
 51
360.0
 73
     1
 72
     1
 10
73.9351233139138
 20
122.1695663878293
 11
73.9351233139138
 21
123.0695663878293
 72
     2
 10
73.7351233139138
 20
123.0695663878293
 40
0.2000000000000005
 50
0.0
 51
90.0
 73
     1
 72
     1
 10
73.7351233139138
 20
123.2695663878293
 11
71.9351233139138
 21
123.2695663878293
 72
     1
 10
71.9351233139138
 20
123.2695663878293
 11
71.9351233139138
 21
123.0695663878293
 72
     1
 10
71.9351233139138
 20
123.0695663878293
 11
70.9351233139138
 21
123.0695663878293
 72
     1
 10
70.9351233139138
 20
123.0695663878293
 11
70.9351233139138
 21
123.2695663878293
 97
        0
 75
     0
 76
     1
 98
        0
  0
HATCH
  5
75
330
6F
100
AcDbEntity
  8
DV1_Füllung
  6
Continuous
 62
     7
100
AcDbHatch
 10
0.0
 20
0.0
 30
0.0
210
0.0
220
0.0
230
1.0
  2
SOLID
 70
     1
 71
     0
 91
        1
 92
        1
 93
       14
 72
     1
 10
67.93512340779529
 20
113.1375947090855
 11
69.94819339033819
 21
113.0524410895095
 72
     1
 10
69.94819339033819
 20
113.0524410895095
 11
70.13512331482683
 21
113.2393710139982
 72
     1
 10
70.13512331482683
 20
113.2393710139982
 11
70.35133925423119
 21
113.0231550745938
 72
     2
 10
67.25169131496466
 20
73.14343362806683
 40
39.99999999999977
 50
274.4443742068952
 51
277.839801581405
 73
     0
 72
     2
 10
72.73512331482699
 20
112.9676972559464
 40
0.199999999999827
 50
262.1601984185972
 51
360.0
 73
     1
 72
     1
 10
72.93512331482682
 20
112.9676972559464
 11
72.93512331482651
 21
119.9695666224581
 72
     1
 10
72.9351233148265
 20
119.9695666224582
 11
74.00114937783484
 21
119.9695666224582
 72
     2
 10
73.13512386950512
 20
120.4695664413804
 40
1.0
 50
330.0000119800087
 51
389.9999964570569
 73
     1
 72
     1
 10
74.00114930420756
 20
120.9695663878288
 11
61.86909821430279
 21
120.9695663878293
 72
     2
 10
62.73512373535489
 20
120.4695665909429
 40
1.000000000000001
 50
149.9999911203757
 51
209.9999983237053
 73
     1
 72
     1
 10
61.86909831694202
 20
119.9695666162801
 11
62.93512331391348
 21
119.9695666162801
 72
     1
 10
62.93512331391347
 20
119.9695666162801
 11
62.93512331391349
 21
112.967697252856
 72
     2
 10
63.1351233139135
 20
112.967697252856
 40
0.2000000000000063
 50
180.0
 51
277.839801580179
 73
     1
 72
     2
 10
68.61855531292572
 20
73.14343362485937
 40
39.99999999999978
 50
262.1601984198181
 51
269.0210082704037
 73
     0
 97
        0
 75
     0
 76
     1
 98
        0
  0
HATCH
  5
76
330
6F
100
AcDbEntity
  8
DV1_Füllung
  6
Continuous
 62
     7
100
AcDbHatch
 10
0.0
 20
0.0
 30
0.0
210
0.0
220
0.0
230
1.0
  2
SOLID
 70
     1
 71
     0
 91
        1
 92
        1
 93
        9
 72
     1
 10
62.68512331391379
 20
105.7695663878293
 11
73.18512331391379
 21
105.7695663878293
 72
     1
 10
73.18512331391379
 20
105.7695663878293
 11
73.68512331391379
 21
106.2695663878293
 72
     1
 10
73.68512331391379
 20
106.2695663878293
 11
73.68512331391379
 21
108.2768543878293
 72
     2
 10
73.18512331391382
 20
108.2768543878293
 40
0.4999999999999691
 50
0.0
 51
90.00002779558653
 73
     1
 72
     2
 10
67.695607009071
 20
69.155329765448
 40
39.99999999999999
 50
82.11195312687593
 51
89.65691666127483
 73
     1
 72
     2
 10
68.17463939969291
 20
69.15532976870378
 40
39.99999999999999
 50
90.34308411755687
 51
97.88804690710478
 73
     1
 72
     2
 10
62.68512331391379
 20
108.2768543878293
 40
0.5000000000000004
 50
90.0
 51
180.0
 73
     1
 72
     1
 10
62.18512331391379
 20
108.2768543878293
 11
62.18512331391379
 21
106.2695663878293
 72
     1
 10
62.18512331391379
 20
106.2695663878293
 11
62.68512331391379
 21
105.7695663878293
 97
        0
 75
     0
 76
     1
 98
        0
  0
ARC
  5
78
330
6F
100
AcDbEntity
  8
DV1_Standard
  6
Continuous
 62
     7
100
AcDbCircle
 10
61.8351233139
 20
108.5195663878
 30
0.0
 40
0.2500000000000013
100
AcDbArc
 50
296.387799961
 51
102.8012261208
  0
ARC
  5
79
330
6F
100
AcDbEntity
  8
DV1_Standard
  6
Continuous
 62
     7
100
AcDbCircle
 10
67.536496978
 20
83.4273619683
 30
0.0
 40
25.98177771335835
100
AcDbArc
 50
102.8012261208
 51
125.3086509789
  0
ARC
  5
7A
330
6F
100
AcDbEntity
  8
DV1_Standard
  6
Continuous
 62
     7
100
AcDbCircle
 10
52.6351233139
 20
104.4665902095
 30
0.0
 40
0.2000000000000665
100
AcDbArc
 50
125.3086509789
 51
270.0
  0
LINE
  5
7B
330
6F
100
AcDbEntity
  8
DV1_Standard
  6
Continuous
 62
     7
100
AcDbLine
 10
54.6879948739
 20
104.2665902095
 30
0.0
 11
52.6351233139
 21
104.2665902095
 31
0.0
  0
ARC
  5
7C
330
6F
100
AcDbEntity
  8
DV1_Standard
  6
Continuous
 62
     7
100
AcDbCircle
 10
68.3337496499
 20
83.4273619683
 30
0.0
 40
24.48177771335848
100
AcDbArc
 50
58.3439407603
 51
72.5007365884
  0
LINE
  5
7D
330
6F
100
AcDbEntity
  8
DV1_Standard
  6
Continuous
 62
     7
100
AcDbLine
 10
83.2351233139
 20
104.2665902095
 30
0.0
 11
81.1822517539
 21
104.2665902095
 31
0.0
  0
ARC
  5
7E
330
6F
100
AcDbEntity
  8
DV1_Standard
  6
Continuous
 62
     7
100
AcDbCircle
 10
83.2351233139
 20
104.4665902095
 30
0.0
 40
0.2000000000001189
100
AcDbArc
 50
270.0
 51
54.6913490211
  0
ARC
  5
7F
330
6F
100
AcDbEntity
  8
DV1_Standard
  6
Continuous
 62
     7
100
AcDbCircle
 10
68.3337496499
 20
83.4273619683
 30
0.0
 40
25.98177771335848
100
AcDbArc
 50
54.6913490211
 51
77.1987738792
  0
LINE
  5
80
330
6F
100
AcDbEntity
  8
DV1_Standard
  6
Continuous
 62
     7
100
AcDbLine
 10
61.8351233139
 20
108.1164535004
 30
0.0
 11
61.8351233139
 21
107.9226792753
 31
0.0
  0
ARC
  5
81
330
6F
100
AcDbEntity
  8
DV1_Standard
  6
Continuous
 62
     7
100
AcDbCircle
 10
62.0351233139
 20
108.1164535004
 30
0.0
 40
0.1999999999999997
100
AcDbArc
 50
116.387799961
 51
180.0
  0
LINE
  5
82
330
6F
100
AcDbEntity
  8
DV1_Standard
  6
Continuous
 62
     7
100
AcDbLine
 10
62.0351233139
 20
105.7695663878
 30
0.0
 11
73.8351233139
 21
105.7695663878
 31
0.0
  0
ARC
  5
83
330
6F
100
AcDbEntity
  8
DV1_Standard
  6
Continuous
 62
     7
100
AcDbCircle
 10
62.0351233139
 20
105.9695663878
 30
0.0
 40
0.2000000000000005
100
AcDbArc
 50
180.0
 51
270.0
  0
LINE
  5
84
330
6F
100
AcDbEntity
  8
DV1_Standard
  6
Continuous
 62
     7
100
AcDbLine
 10
61.8351233139
 20
106.1164535004
 30
0.0
 11
61.8351233139
 21
105.9695663878
 31
0.0
  0
ARC
  5
85
330
6F
100
AcDbEntity
  8
DV1_Standard
  6
Continuous
 62
     7
100
AcDbCircle
 10
62.0351233139
 20
106.1164535004
 30
0.0
 40
0.1999999999999988
100
AcDbArc
 50
116.3877999612
 51
180.0
  0
ARC
  5
86
330
6F
100
AcDbEntity
  8
DV1_Standard
  6
Continuous
 62
     7
100
AcDbCircle
 10
61.8351233139
 20
106.5195663878
 30
0.0
 40
0.2499999999999998
100
AcDbArc
 50
296.3877999612
 51
63.6122000388
  0
ARC
  5
87
330
6F
100
AcDbEntity
  8
DV1_Standard
  6
Continuous
 62
     7
100
AcDbCircle
 10
62.0351233139
 20
106.9226792753
 30
0.0
 40
0.1999999999999999
100
AcDbArc
 50
180.0
 51
243.6122000388
  0
LINE
  5
88
330
6F
100
AcDbEntity
  8
DV1_Standard
  6
Continuous
 62
     7
100
AcDbLine
 10
61.8351233139
 20
107.1164535004
 30
0.0
 11
61.8351233139
 21
106.9226792753
 31
0.0
  0
ARC
  5
89
330
6F
100
AcDbEntity
  8
DV1_Standard
  6
Continuous
 62
     7
100
AcDbCircle
 10
62.0351233139
 20
107.1164535004
 30
0.0
 40
0.1999999999999997
100
AcDbArc
 50
116.3877999612
 51
180.0
  0
ARC
  5
8A
330
6F
100
AcDbEntity
  8
DV1_Standard
  6
Continuous
 62
     7
100
AcDbCircle
 10
61.8351233139
 20
107.5195663878
 30
0.0
 40
0.2499999999999998
100
AcDbArc
 50
296.3877999612
 51
63.6122000388
  0
ARC
  5
8B
330
6F
100
AcDbEntity
  8
DV1_Standard
  6
Continuous
 62
     7
100
AcDbCircle
 10
62.0351233139
 20
107.9226792753
 30
0.0
 40
0.1999999999999999
100
AcDbArc
 50
180.0
 51
243.6122000388
  0
ARC
  5
8C
330
6F
100
AcDbEntity
  8
DV1_Standard
  6
Continuous
 62
     7
100
AcDbCircle
 10
74.0351233139
 20
108.5195663878
 30
0.0
 40
0.2500000000000002
100
AcDbArc
 50
77.1987738792
 51
243.612200039
  0
ARC
  5
8D
330
6F
100
AcDbEntity
  8
DV1_Standard
  6
Continuous
 62
     7
100
AcDbCircle
 10
73.8351233139
 20
108.1164535004
 30
0.0
 40
0.2
100
AcDbArc
 50
0.0
 51
63.612200039
  0
LINE
  5
8E
330
6F
100
AcDbEntity
  8
DV1_Standard
  6
Continuous
 62
     7
100
AcDbLine
 10
74.0351233139
 20
105.9695663878
 30
0.0
 11
74.0351233139
 21
106.1164535004
 31
0.0
  0
ARC
  5
8F
330
6F
100
AcDbEntity
  8
DV1_Standard
  6
Continuous
 62
     7
100
AcDbCircle
 10
73.8351233139
 20
105.9695663878
 30
0.0
 40
0.1999999999999997
100
AcDbArc
 50
270.0
 51
0.0
  0
ARC
  5
90
330
6F
100
AcDbEntity
  8
DV1_Standard
  6
Continuous
 62
     7
100
AcDbCircle
 10
74.0351233139
 20
106.5195663878
 30
0.0
 40
0.2499999999999998
100
AcDbArc
 50
116.3877999612
 51
243.6122000388
  0
ARC
  5
91
330
6F
100
AcDbEntity
  8
DV1_Standard
  6
Continuous
 62
     7
100
AcDbCircle
 10
73.8351233139
 20
106.1164535004
 30
0.0
 40
0.1999999999999999
100
AcDbArc
 50
0.0
 51
63.6122000388
  0
LINE
  5
92
330
6F
100
AcDbEntity
  8
DV1_Standard
  6
Continuous
 62
     7
100
AcDbLine
 10
74.0351233139
 20
106.9226792753
 30
0.0
 11
74.0351233139
 21
107.1164535004
 31
0.0
  0
ARC
  5
93
330
6F
100
AcDbEntity
  8
DV1_Standard
  6
Continuous
 62
     7
100
AcDbCircle
 10
73.8351233139
 20
106.9226792753
 30
0.0
 40
0.1999999999999997
100
AcDbArc
 50
296.3877999612
 51
0.0
  0
ARC
  5
94
330
6F
100
AcDbEntity
  8
DV1_Standard
  6
Continuous
 62
     7
100
AcDbCircle
 10
74.0351233139
 20
107.5195663878
 30
0.0
 40
0.2499999999999998
100
AcDbArc
 50
116.3877999612
 51
243.6122000388
  0
ARC
  5
95
330
6F
100
AcDbEntity
  8
DV1_Standard
  6
Continuous
 62
     7
100
AcDbCircle
 10
73.8351233139
 20
107.1164535004
 30
0.0
 40
0.1999999999999999
100
AcDbArc
 50
0.0
 51
63.6122000388
  0
LINE
  5
96
330
6F
100
AcDbEntity
  8
DV1_Standard
  6
Continuous
 62
     7
100
AcDbLine
 10
74.0351233139
 20
107.9226792753
 30
0.0
 11
74.0351233139
 21
108.1164535004
 31
0.0
  0
ARC
  5
97
330
6F
100
AcDbEntity
  8
DV1_Standard
  6
Continuous
 62
     7
100
AcDbCircle
 10
73.8351233139
 20
107.9226792753
 30
0.0
 40
0.1999999999999997
100
AcDbArc
 50
296.3877999612
 51
0.0
  0
LINE
  5
98
330
6F
100
AcDbEntity
  8
DV1_Standard
  6
Continuous
 62
     7
100
AcDbLine
 10
60.4351233139
 20
104.470031942
 30
0.0
 11
60.4351233139
 21
106.5853988354
 31
0.0
  0
ARC
  5
99
330
6F
100
AcDbEntity
  8
DV1_Standard
  6
Continuous
 62
     7
100
AcDbCircle
 10
60.6351233139
 20
104.470031942
 30
0.0
 40
0.1999999999999997
100
AcDbArc
 50
180.0
 51
270.0
  0
LINE
  5
9A
330
6F
100
AcDbEntity
  8
DV1_Standard
  6
Continuous
 62
     7
100
AcDbLine
 10
75.2351233139
 20
104.270031942
 30
0.0
 11
60.6351233139
 21
104.270031942
 31
0.0
  0
ARC
  5
9B
330
6F
100
AcDbEntity
  8
DV1_Standard
  6
Continuous
 62
     7
100
AcDbCircle
 10
75.2351233139
 20
104.470031942
 30
0.0
 40
0.2000000000000005
100
AcDbArc
 50
270.0
 51
0.0
  0
LINE
  5
9C
330
6F
100
AcDbEntity
  8
DV1_Standard
  6
Continuous
 62
     7
100
AcDbLine
 10
75.4351233139
 20
106.5853988354
 30
0.0
 11
75.4351233139
 21
104.470031942
 31
0.0
  0
ARC
  5
9D
330
6F
100
AcDbEntity
  8
DV1_Standard
  6
Continuous
 62
     7
100
AcDbCircle
 10
75.6351233139
 20
106.5853988354
 30
0.0
 40
0.1999999999999997
100
AcDbArc
 50
72.5007365884
 51
180.0
  0
ARC
  5
9E
330
6F
100
AcDbEntity
  8
DV1_Standard
  6
Continuous
 62
     7
100
AcDbCircle
 10
67.536496978
 20
83.4273619683
 30
0.0
 40
24.48177771335847
100
AcDbArc
 50
107.4992634116
 51
121.6560592397
  0
ARC
  5
9F
330
6F
100
AcDbEntity
  8
DV1_Standard
  6
Continuous
 62
     7
100
AcDbCircle
 10
60.2351233139
 20
106.5853988354
 30
0.0
 40
0.1999999999999969
100
AcDbArc
 50
0.0
 51
107.4992634116
  0
LINE
  5
A0
330
6F
100
AcDbEntity
  8
DV1_Standard
  6
Continuous
 62
     7
100
AcDbLine
 10
62.9351233139
 20
119.9695666163
 30
0.0
 11
61.8690983169
 21
119.9695666163
 31
0.0
  0
LINE
  5
A1
330
6F
100
AcDbEntity
  8
DV1_Standard
  6
Continuous
 62
     7
100
AcDbLine
 10
62.9351233139
 20
112.9676972529
 30
0.0
 11
62.9351233139
 21
119.9695666163
 31
0.0
  0
ARC
  5
A2
330
6F
100
AcDbEntity
  8
DV1_Standard
  6
Continuous
 62
     7
100
AcDbCircle
 10
63.1351233139
 20
112.9676972529
 30
0.0
 40
0.2000000000000063
100
AcDbArc
 50
180.0
 51
277.8398015802
  0
ARC
  5
A3
330
6F
100
AcDbEntity
  8
DV1_Standard
  6
Continuous
 62
     7
100
AcDbCircle
 10
68.6185553129
 20
73.1434336249
 30
0.0
 40
39.99999999999978
100
AcDbArc
 50
90.9789917296
 51
97.8398015802
  0
ARC
  5
A4
330
6F
100
AcDbEntity
  8
DV1_Standard
  6
Continuous
 62
     7
100
AcDbCircle
 10
67.251691315
 20
73.1434336281
 30
0.0
 40
39.99999999999977
100
AcDbArc
 50
82.1601984186
 51
85.5556257931
  0
ARC
  5
A5
330
6F
100
AcDbEntity
  8
DV1_Standard
  6
Continuous
 62
     7
100
AcDbCircle
 10
72.7351233148
 20
112.9676972559
 30
0.0
 40
0.199999999999827
100
AcDbArc
 50
262.1601984186
 51
0.0
  0
LINE
  5
A6
330
6F
100
AcDbEntity
  8
DV1_Standard
  6
Continuous
 62
     7
100
AcDbLine
 10
72.9351233148
 20
119.9695666225
 30
0.0
 11
72.9351233148
 21
112.9676972559
 31
0.0
  0
LINE
  5
A7
330
6F
100
AcDbEntity
  8
DV1_Standard
  6
Continuous
 62
     7
100
AcDbLine
 10
74.0011493778
 20
119.9695666225
 30
0.0
 11
72.9351233148
 21
119.9695666225
 31
0.0
  0
ARC
  5
A8
330
6F
100
AcDbEntity
  8
DV1_Standard
  6
Continuous
 62
     7
100
AcDbCircle
 10
73.1351238695
 20
120.4695664414
 30
0.0
 40
1.0
100
AcDbArc
 50
330.00001198
 51
29.9999964571
  0
ARC
  5
A9
330
6F
100
AcDbEntity
  8
DV1_Standard
  6
Continuous
 62
     7
100
AcDbCircle
 10
69.6475879314
 20
120.7695663878
 30
0.0
 40
0.2000000000000054
100
AcDbArc
 50
90.0
 51
201.2138611147
  0
LINE
  5
AA
330
6F
100
AcDbEntity
  8
DV1_Standard
  6
Continuous
 62
     7
100
AcDbLine
 10
70.4141565717
 20
118.2419366284
 30
0.0
 11
69.4611406736
 21
120.697196366
 31
0.0
  0
ARC
  5
AB
330
6F
100
AcDbEntity
  8
DV1_Standard
  6
Continuous
 62
     7
100
AcDbCircle
 10
70.2277093139
 20
118.1695666066
 30
0.0
 40
0.2000000000000057
100
AcDbArc
 50
270.0
 51
21.2138611147
  0
LINE
  5
AC
330
6F
100
AcDbEntity
  8
DV1_Standard
  6
Continuous
 62
     7
100
AcDbLine
 10
65.6425373139
 20
117.9695666066
 30
0.0
 11
70.2277093139
 21
117.9695666066
 31
0.0
  0
ARC
  5
AD
330
6F
100
AcDbEntity
  8
DV1_Standard
  6
Continuous
 62
     7
100
AcDbCircle
 10
65.6425373139
 20
118.1695666066
 30
0.0
 40
0.2000000000000056
100
AcDbArc
 50
158.7861388853
 51
270.0
  0
LINE
  5
AE
330
6F
100
AcDbEntity
  8
DV1_Standard
  6
Continuous
 62
     7
100
AcDbLine
 10
66.4091060852
 20
120.6971967033
 30
0.0
 11
65.4560900561
 21
118.2419366284
 31
0.0
  0
ARC
  5
AF
330
6F
100
AcDbEntity
  8
DV1_Standard
  6
Continuous
 62
     7
100
AcDbCircle
 10
66.2226588274
 20
120.7695667252
 30
0.0
 40
0.2000000000000057
100
AcDbArc
 50
338.7861388853
 51
90.0
  0
ARC
  5
B0
330
6F
100
AcDbEntity
  8
DV1_Standard
  6
Continuous
 62
     7
100
AcDbCircle
 10
62.7351237354
 20
120.4695665909
 30
0.0
 40
1.000000000000001
100
AcDbArc
 50
149.9999911204
 51
209.9999983237
  0
ARC
  5
B1
330
6F
100
AcDbEntity
  8
DV1_Standard
  6
Continuous
 62
     7
100
AcDbCircle
 10
67.251691315
 20
73.1434336281
 30
0.0
 40
39.99999999999979
100
AcDbArc
 50
86.1346138352
 51
89.0210080015
  0
LINE
  5
B2
330
6F
100
AcDbEntity
  8
DV1_Standard
  6
Continuous
 62
     7
100
AcDbLine
 10
70.1351233148
 20
113.239371014
 30
0.0
 11
69.9481933903
 21
113.0524410895
 31
0.0
  0
LINE
  5
B3
330
6F
100
AcDbEntity
  8
DV1_Standard
  6
Continuous
 62
     7
100
AcDbLine
 10
70.1351233148
 20
113.239371014
 30
0.0
 11
70.3513392542
 21
113.0231550746
 31
0.0
  0
LINE
  5
B4
330
6F
100
AcDbEntity
  8
DV1_Standard
  6
Continuous
 62
     7
100
AcDbLine
 10
62.5511487177
 20
113.7695663878
 30
0.0
 11
61.7351233139
 21
113.7695663878
 31
0.0
  0
ARC
  5
B5
330
6F
100
AcDbEntity
  8
DV1_Standard
  6
Continuous
 62
     7
100
AcDbCircle
 10
61.6851233139
 20
113.2695663878
 30
0.0
 40
1.0
100
AcDbArc
 50
330.0
 51
30.0
  0
LINE
  5
B6
330
6F
100
AcDbEntity
  8
DV1_Standard
  6
Continuous
 62
     7
100
AcDbLine
 10
73.3190979101
 20
112.7695663878
 30
0.0
 11
75.1351233139
 21
112.7695663878
 31
0.0
  0
ARC
  5
B7
330
6F
100
AcDbEntity
  8
DV1_Standard
  6
Continuous
 62
     7
100
AcDbCircle
 10
74.1851233139
 20
113.2695663878
 30
0.0
 40
1.0
100
AcDbArc
 50
150.0
 51
210.0
  0
LINE
  5
B8
330
6F
100
AcDbEntity
  8
DV1_Standard
  6
Continuous
 62
     7
100
AcDbLine
 10
60.5351233139
 20
124.4695663878
 30
0.0
 11
60.5351233139
 21
112.9695663878
 31
0.0
  0
ARC
  5
B9
330
6F
100
AcDbEntity
  8
DV1_Standard
  6
Continuous
 62
     7
100
AcDbCircle
 10
60.7351233139
 20
124.4695663878
 30
0.0
 40
0.1999999999999988
100
AcDbArc
 50
90.0
 51
180.0
  0
LINE
  5
BA
330
6F
100
AcDbEntity
  8
DV1_Standard
  6
Continuous
 62
     7
100
AcDbLine
 10
60.7351233139
 20
112.7695663878
 30
0.0
 11
62.5511487177
 21
112.7695663878
 31
0.0
  0
ARC
  5
BB
330
6F
100
AcDbEntity
  8
DV1_Standard
  6
Continuous
 62
     7
100
AcDbCircle
 10
60.7351233139
 20
112.9695663878
 30
0.0
 40
0.1999999999999997
100
AcDbArc
 50
180.0
 51
270.0
  0
LINE
  5
BC
330
6F
100
AcDbEntity
  8
DV1_Standard
  6
Continuous
 62
     7
100
AcDbLine
 10
61.5351233139
 20
113.9695663878
 30
0.0
 11
61.5351233139
 21
120.7695663878
 31
0.0
  0
ARC
  5
BD
330
6F
100
AcDbEntity
  8
DV1_Standard
  6
Continuous
 62
     7
100
AcDbCircle
 10
61.7351233139
 20
113.9695663878
 30
0.0
 40
0.2000000000000005
100
AcDbArc
 50
180.0
 51
270.0
  0
LINE
  5
BE
330
6F
100
AcDbEntity
  8
DV1_Standard
  6
Continuous
 62
     7
100
AcDbLine
 10
61.7351233139
 20
120.9695663878
 30
0.0
 11
74.1351233139
 21
120.9695663878
 31
0.0
  0
ARC
  5
BF
330
6F
100
AcDbEntity
  8
DV1_Standard
  6
Continuous
 62
     7
100
AcDbCircle
 10
61.7351233139
 20
120.7695663878
 30
0.0
 40
0.1999999999999997
100
AcDbArc
 50
90.0
 51
180.0
  0
LINE
  5
C0
330
6F
100
AcDbEntity
  8
DV1_Standard
  6
Continuous
 62
     7
100
AcDbLine
 10
61.5351233139
 20
122.1695663878
 30
0.0
 11
61.5351233139
 21
123.4695663878
 31
0.0
  0
ARC
  5
C1
330
6F
100
AcDbEntity
  8
DV1_Standard
  6
Continuous
 62
     7
100
AcDbCircle
 10
61.7351233139
 20
122.1695663878
 30
0.0
 40
0.1999999999999997
100
AcDbArc
 50
180.0
 51
270.0
  0
LINE
  5
C2
330
6F
100
AcDbEntity
  8
DV1_Standard
  6
Continuous
 62
     7
100
AcDbLine
 10
61.7351233139
 20
123.6695663878
 30
0.0
 11
63.3351233139
 21
123.6695663878
 31
0.0
  0
ARC
  5
C3
330
6F
100
AcDbEntity
  8
DV1_Standard
  6
Continuous
 62
     7
100
AcDbCircle
 10
61.7351233139
 20
123.4695663878
 30
0.0
 40
0.1999999999999997
100
AcDbArc
 50
90.0
 51
180.0
  0
LINE
  5
C4
330
6F
100
AcDbEntity
  8
DV1_Standard
  6
Continuous
 62
     7
100
AcDbLine
 10
63.3351233139
 20
124.6695663878
 30
0.0
 11
60.7351233139
 21
124.6695663878
 31
0.0
  0
ARC
  5
C5
330
6F
100
AcDbEntity
  8
DV1_Standard
  6
Continuous
 62
     7
100
AcDbCircle
 10
63.3351233139
 20
124.4695663878
 30
0.0
 40
0.1999999999999997
100
AcDbArc
 50
0.0
 51
90.0
  0
LINE
  5
C6
330
6F
100
AcDbEntity
  8
DV1_Standard
  6
Continuous
 62
     7
100
AcDbLine
 10
63.5351233139
 20
123.8695663878
 30
0.0
 11
63.5351233139
 21
124.4695663878
 31
0.0
  0
ARC
  5
C7
330
6F
100
AcDbEntity
  8
DV1_Standard
  6
Continuous
 62
     7
100
AcDbCircle
 10
63.3351233139
 20
123.8695663878
 30
0.0
 40
0.2000000000000005
100
AcDbArc
 50
270.0
 51
0.0
  0
LINE
  5
C8
330
6F
100
AcDbEntity
  8
DV1_Standard
  6
Continuous
 62
     7
100
AcDbLine
 10
72.3351233139
 20
124.4695663878
 30
0.0
 11
72.3351233139
 21
123.8695663878
 31
0.0
  0
ARC
  5
C9
330
6F
100
AcDbEntity
  8
DV1_Standard
  6
Continuous
 62
     7
100
AcDbCircle
 10
72.5351233139
 20
124.4695663878
 30
0.0
 40
0.1999999999999988
100
AcDbArc
 50
90.0
 51
180.0
  0
LINE
  5
CA
330
6F
100
AcDbEntity
  8
DV1_Standard
  6
Continuous
 62
     7
100
AcDbLine
 10
74.3351233139
 20
120.7695663878
 30
0.0
 11
74.3351233139
 21
113.9695663878
 31
0.0
  0
ARC
  5
CB
330
6F
100
AcDbEntity
  8
DV1_Standard
  6
Continuous
 62
     7
100
AcDbCircle
 10
74.1351233139
 20
120.7695663878
 30
0.0
 40
0.1999999999999997
100
AcDbArc
 50
0.0
 51
90.0
  0
LINE
  5
CC
330
6F
100
AcDbEntity
  8
DV1_Standard
  6
Continuous
 62
     7
100
AcDbLine
 10
75.1351233139
 20
124.6695663878
 30
0.0
 11
72.5351233139
 21
124.6695663878
 31
0.0
  0
ARC
  5
CD
330
6F
100
AcDbEntity
  8
DV1_Standard
  6
Continuous
 62
     7
100
AcDbCircle
 10
75.1351233139
 20
124.4695663878
 30
0.0
 40
0.1999999999999997
100
AcDbArc
 50
0.0
 51
90.0
  0
LINE
  5
CE
330
6F
100
AcDbEntity
  8
DV1_Standard
  6
Continuous
 62
     7
100
AcDbLine
 10
72.5351233139
 20
123.6695663878
 30
0.0
 11
74.1351233139
 21
123.6695663878
 31
0.0
  0
ARC
  5
CF
330
6F
100
AcDbEntity
  8
DV1_Standard
  6
Continuous
 62
     7
100
AcDbCircle
 10
72.5351233139
 20
123.8695663878
 30
0.0
 40
0.1999999999999997
100
AcDbArc
 50
180.0
 51
270.0
  0
LINE
  5
D0
330
6F
100
AcDbEntity
  8
DV1_Standard
  6
Continuous
 62
     7
100
AcDbLine
 10
74.3351233139
 20
123.4695663878
 30
0.0
 11
74.3351233139
 21
122.1695663878
 31
0.0
  0
ARC
  5
D1
330
6F
100
AcDbEntity
  8
DV1_Standard
  6
Continuous
 62
     7
100
AcDbCircle
 10
74.1351233139
 20
123.4695663878
 30
0.0
 40
0.1999999999999988
100
AcDbArc
 50
0.0
 51
90.0
  0
LINE
  5
D2
330
6F
100
AcDbEntity
  8
DV1_Standard
  6
Continuous
 62
     7
100
AcDbLine
 10
74.1351233139
 20
121.9695663878
 30
0.0
 11
61.7351233139
 21
121.9695663878
 31
0.0
  0
ARC
  5
D3
330
6F
100
AcDbEntity
  8
DV1_Standard
  6
Continuous
 62
     7
100
AcDbCircle
 10
74.1351233139
 20
122.1695663878
 30
0.0
 40
0.1999999999999997
100
AcDbArc
 50
270.0
 51
0.0
  0
LINE
  5
D4
330
6F
100
AcDbEntity
  8
DV1_Standard
  6
Continuous
 62
     7
100
AcDbLine
 10
75.3351233139
 20
112.9695663878
 30
0.0
 11
75.3351233139
 21
124.4695663878
 31
0.0
  0
ARC
  5
D5
330
6F
100
AcDbEntity
  8
DV1_Standard
  6
Continuous
 62
     7
100
AcDbCircle
 10
75.1351233139
 20
112.9695663878
 30
0.0
 40
0.2000000000000005
100
AcDbArc
 50
270.0
 51
0.0
  0
LINE
  5
D6
330
6F
100
AcDbEntity
  8
DV1_Standard
  6
Continuous
 62
     7
100
AcDbLine
 10
74.1351233139
 20
113.7695663878
 30
0.0
 11
73.3190979101
 21
113.7695663878
 31
0.0
  0
ARC
  5
D7
330
6F
100
AcDbEntity
  8
DV1_Standard
  6
Continuous
 62
     7
100
AcDbCircle
 10
74.1351233139
 20
113.9695663878
 30
0.0
 40
0.1999999999999997
100
AcDbArc
 50
270.0
 51
0.0
  0
ARC
  5
D8
330
6F
100
AcDbEntity
  8
DV1_Standard
  6
Continuous
 62
     7
100
AcDbCircle
 10
67.6956070091
 20
69.1553297654
 30
0.0
 40
39.99999999999999
100
AcDbArc
 50
82.1119531269
 51
89.6569166613
  0
ARC
  5
D9
330
6F
100
AcDbEntity
  8
DV1_Standard
  6
Continuous
 62
     7
100
AcDbCircle
 10
73.1851233139
 20
108.2768543878
 30
0.0
 40
0.4999999999999691
100
AcDbArc
 50
0.0
 51
90.0000277956
  0
LINE
  5
DA
330
6F
100
AcDbEntity
  8
DV1_Standard
  6
Continuous
 62
     7
100
AcDbLine
 10
73.6851233139
 20
108.2768543878
 30
0.0
 11
73.6851233139
 21
106.2695663878
 31
0.0
  0
LINE
  5
DB
330
6F
100
AcDbEntity
  8
DV1_Standard
  6
Continuous
 62
     7
100
AcDbLine
 10
73.6851233139
 20
106.2695663878
 30
0.0
 11
73.1851233139
 21
105.7695663878
 31
0.0
  0
LINE
  5
DC
330
6F
100
AcDbEntity
  8
DV1_Standard
  6
Continuous
 62
     7
100
AcDbLine
 10
73.1851233139
 20
105.7695663878
 30
0.0
 11
65.1851233139
 21
105.7695663878
 31
0.0
  0
LINE
  5
DD
330
6F
100
AcDbEntity
  8
DV1_Standard
  6
Continuous
 62
     7
100
AcDbLine
 10
62.6851233139
 20
105.7695663878
 30
0.0
 11
62.1851233139
 21
106.2695663878
 31
0.0
  0
LINE
  5
DE
330
6F
100
AcDbEntity
  8
DV1_Standard
  6
Continuous
 62
     7
100
AcDbLine
 10
62.1851233139
 20
106.2695663878
 30
0.0
 11
62.1851233139
 21
108.2768543878
 31
0.0
  0
ARC
  5
DF
330
6F
100
AcDbEntity
  8
DV1_Standard
  6
Continuous
 62
     7
100
AcDbCircle
 10
62.6851233139
 20
108.2768543878
 30
0.0
 40
0.5000000000000004
100
AcDbArc
 50
90.0
 51
180.0
  0
ARC
  5
E0
330
6F
100
AcDbEntity
  8
DV1_Standard
  6
Continuous
 62
     7
100
AcDbCircle
 10
68.1746393997
 20
69.1553297687
 30
0.0
 40
39.99999999999999
100
AcDbArc
 50
90.3430841176
 51
97.8880469071
  0
LINE
  5
E1
330
6F
100
AcDbEntity
  8
DV1_Standard
  6
Continuous
 62
     7
100
AcDbLine
 10
64.1851233139
 20
105.7695663878
 30
0.0
 11
62.6851233139
 21
105.7695663878
 31
0.0
  0
ARC
  5
E2
330
6F
100
AcDbEntity
  8
DV1_Standard
  6
Continuous
 62
     7
100
AcDbCircle
 10
62.1351233139
 20
122.1695663878
 30
0.0
 40
0.1999999999999988
100
AcDbArc
 50
180.0
 51
270.0
  0
LINE
  5
E3
330
6F
100
AcDbEntity
  8
DV1_Standard
  6
Continuous
 62
     7
100
AcDbLine
 10
61.9351233139
 20
123.0695663878
 30
0.0
 11
61.9351233139
 21
122.1695663878
 31
0.0
  0
ARC
  5
E4
330
6F
100
AcDbEntity
  8
DV1_Standard
  6
Continuous
 62
     7
100
AcDbCircle
 10
62.1351233139
 20
123.0695663878
 30
0.0
 40
0.2000000000000023
100
AcDbArc
 50
90.0
 51
180.0
  0
LINE
  5
E5
330
6F
100
AcDbEntity
  8
DV1_Standard
  6
Continuous
 62
     7
100
AcDbLine
 10
70.9351233139
 20
123.2695663878
 30
0.0
 11
62.1351233139
 21
123.2695663878
 31
0.0
  0
LINE
  5
E6
330
6F
100
AcDbEntity
  8
DV1_Standard
  6
Continuous
 62
     7
100
AcDbLine
 10
70.9351233139
 20
123.0695663878
 30
0.0
 11
70.9351233139
 21
123.2695663878
 31
0.0
  0
LINE
  5
E7
330
6F
100
AcDbEntity
  8
DV1_Standard
  6
Continuous
 62
     7
100
AcDbLine
 10
71.9351233139
 20
123.0695663878
 30
0.0
 11
70.9351233139
 21
123.0695663878
 31
0.0
  0
LINE
  5
E8
330
6F
100
AcDbEntity
  8
DV1_Standard
  6
Continuous
 62
     7
100
AcDbLine
 10
71.9351233139
 20
123.2695663878
 30
0.0
 11
71.9351233139
 21
123.0695663878
 31
0.0
  0
LINE
  5
E9
330
6F
100
AcDbEntity
  8
DV1_Standard
  6
Continuous
 62
     7
100
AcDbLine
 10
73.7351233139
 20
123.2695663878
 30
0.0
 11
71.9351233139
 21
123.2695663878
 31
0.0
  0
ARC
  5
EA
330
6F
100
AcDbEntity
  8
DV1_Standard
  6
Continuous
 62
     7
100
AcDbCircle
 10
73.7351233139
 20
123.0695663878
 30
0.0
 40
0.2000000000000005
100
AcDbArc
 50
0.0
 51
90.0
  0
LINE
  5
EB
330
6F
100
AcDbEntity
  8
DV1_Standard
  6
Continuous
 62
     7
100
AcDbLine
 10
73.9351233139
 20
122.1695663878
 30
0.0
 11
73.9351233139
 21
123.0695663878
 31
0.0
  0
ARC
  5
EC
330
6F
100
AcDbEntity
  8
DV1_Standard
  6
Continuous
 62
     7
100
AcDbCircle
 10
73.7351233139
 20
122.1695663878
 30
0.0
 40
0.2000000000000005
100
AcDbArc
 50
270.0
 51
0.0
  0
ENDBLK
  5
EE
330
6F
100
AcDbEntity
  8
0
100
AcDbBlockEnd
  0
BLOCK
  5
175
330
EF
100
AcDbEntity
  8
0
100
AcDbBlockBegin
  2
SE1
 70
     0
 10
0.0
 20
0.0
 30
0.0
  3
SE1
  1

  0
HATCH
  5
F2
330
EF
100
AcDbEntity
  8
DV2_Füllung
  6
Continuous
 62
     7
100
AcDbHatch
 10
0.0
 20
0.0
 30
0.0
210
0.0
220
0.0
230
1.0
  2
SOLID
 70
     1
 71
     0
 91
        1
 92
        1
 93
       10
 72
     2
 10
68.17463939969291
 20
142.7351570680875
 40
39.99999999999999
 50
90.34308411755687
 51
97.88804690710478
 73
     1
 72
     2
 10
62.68512331391379
 20
181.8566816872131
 40
0.5000000000000004
 50
90.0
 51
180.0
 73
     1
 72
     1
 10
62.18512331391379
 20
181.8566816872131
 11
62.18512331391379
 21
179.8493936872131
 72
     1
 10
62.18512331391379
 20
179.8493936872131
 11
62.68512331391379
 21
179.349393687213
 72
     1
 10
62.68512331391379
 20
179.349393687213
 11
64.18512331391379
 21
179.349393687213
 72
     1
 10
64.18512331391379
 20
179.349393687213
 11
73.18512331391379
 21
179.349393687213
 72
     1
 10
73.18512331391379
 20
179.349393687213
 11
73.68512331391379
 21
179.849393687213
 72
     1
 10
73.68512331391379
 20
179.849393687213
 11
73.68512331391379
 21
181.856681687213
 72
     2
 10
73.18512331391382
 20
181.8566816872131
 40
0.4999999999999691
 50
0.0
 51
90.00002779558653
 73
     1
 72
     2
 10
67.695607009071
 20
142.7351570648317
 40
39.99999999999999
 50
82.11195312687595
 51
89.65691666127483
 73
     1
 97
        0
 75
     0
 76
     1
 98
        0
  0
HATCH
  5
F3
330
EF
100
AcDbEntity
  8
DV2_Füllung
  6
Continuous
 62
     7
100
AcDbHatch
 10
0.0
 20
0.0
 30
0.0
210
0.0
220
0.0
230
1.0
  2
SOLID
 70
     1
 71
     0
 91
        1
 92
        1
 93
        6
 72
     2
 10
68.61855531292572
 20
146.7232609242431
 40
39.99999999999978
 50
262.1601984198181
 51
269.0210082704037
 73
     0
 72
     1
 10
67.93512340779529
 20
186.7174220084693
 11
69.94819339033819
 21
186.6322683888933
 72
     1
 10
69.94819339033819
 20
186.6322683888932
 11
70.06531868865798
 21
186.7493936872131
 72
     1
 10
70.06531868865798
 20
186.7493936872131
 11
62.93512331391348
 21
186.7493936872131
 72
     1
 10
62.93512331391347
 20
186.7493936872131
 11
62.93512331391349
 21
186.5475245522397
 72
     2
 10
63.1351233139135
 20
186.5475245522397
 40
0.2000000000000063
 50
180.0
 51
277.8398015801801
 73
     1
 97
        0
 75
     0
 76
     1
 98
        0
  0
HATCH
  5
F4
330
EF
100
AcDbEntity
  8
DV2_Füllung
  6
Continuous
 62
     7
100
AcDbHatch
 10
0.0
 20
0.0
 30
0.0
210
0.0
220
0.0
230
1.0
  2
SOLID
 70
     1
 71
     0
 91
        1
 92
        1
 93
        5
 72
     2
 10
67.25169131496466
 20
146.7232609274506
 40
39.99999999999977
 50
274.4443742068952
 51
277.839801581405
 73
     0
 72
     2
 10
72.73512331482699
 20
186.5475245553301
 40
0.199999999999827
 50
262.1601984185983
 51
360.0
 73
     1
 72
     1
 10
72.93512331482682
 20
186.5475245553301
 11
72.93512331482681
 21
186.7493936872131
 72
     1
 10
72.93512331482681
 20
186.7493936872131
 11
70.20492794099567
 21
186.7493936872131
 72
     1
 10
70.20492794099567
 20
186.7493936872131
 11
70.35133925423119
 21
186.6029823739775
 97
        0
 75
     0
 76
     1
 98
        0
  0
HATCH
  5
F5
330
EF
100
AcDbEntity
  8
DV2_Füllung
  6
Continuous
 62
     7
100
AcDbHatch
 10
0.0
 20
0.0
 30
0.0
210
0.0
220
0.0
230
1.0
  2
SOLID
 70
     1
 71
     0
 91
        1
 92
        1
 93
        5
 72
     1
 10
62.68011075102042
 20
186.7493936872131
 11
60.5351233139138
 21
186.7493936872131
 72
     1
 10
60.5351233139138
 20
186.7493936872131
 11
60.5351233139138
 21
186.549393687213
 72
     2
 10
60.7351233139138
 20
186.549393687213
 40
0.1999999999999997
 50
180.0
 51
270.0
 73
     1
 72
     1
 10
60.7351233139138
 20
186.3493936872131
 11
62.55114871769824
 21
186.3493936872131
 72
     2
 10
61.6851233139138
 20
186.8493936872131
 40
1.0
 50
329.9999999999999
 51
354.2608295227336
 73
     1
 97
        0
 75
     0
 76
     1
 98
        0
  0
HATCH
  5
F6
330
EF
100
AcDbEntity
  8
DV2_Füllung
  6
Continuous
 62
     7
100
AcDbHatch
 10
0.0
 20
0.0
 30
0.0
210
0.0
220
0.0
230
1.0
  2
SOLID
 70
     1
 71
     0
 91
        1
 92
        1
 93
        5
 72
     1
 10
73.31909791012936
 20
186.3493936872131
 11
75.13512331391381
 21
186.3493936872131
 72
     2
 10
75.1351233139138
 20
186.549393687213
 40
0.2000000000000005
 50
270.0
 51
360.0
 73
     1
 72
     1
 10
75.3351233139138
 20
186.549393687213
 11
75.3351233139138
 21
186.7493936872131
 72
     1
 10
75.3351233139138
 20
186.7493936872131
 11
73.19013587680716
 21
186.7493936872131
 72
     2
 10
74.18512331391379
 20
186.8493936872131
 40
1.0
 50
185.7391704772665
 51
209.9999999999997
 73
     1
 97
        0
 75
     0
 76
     1
 98
        0
  0
HATCH
  5
F7
330
EF
100
AcDbEntity
  8
DV2_Füllung
  6
Continuous
 62
     7
100
AcDbHatch
 10
0.0
 20
0.0
 30
0.0
210
0.0
220
0.0
230
1.0
  2
SOLID
 70
     1
 71
     0
 91
        1
 92
        1
 93
       40
 72
     2
 10
60.23512331391376
 20
180.1652261347801
 40
0.1999999999999969
 50
252.500736588379
 51
360.0
 73
     0
 72
     1
 10
60.43512331391376
 20
180.1652261347801
 11
60.43512331391376
 21
178.0498592413967
 72
     2
 10
60.63512331391376
 20
178.0498592413967
 40
0.1999999999999997
 50
180.0
 51
270.0
 73
     1
 72
     1
 10
60.63512331391376
 20
177.8498592413966
 11
75.23512331391383
 21
177.8498592413966
 72
     2
 10
75.23512331391385
 20
178.0498592413967
 40
0.2000000000000005
 50
270.0
 51
360.0
 73
     1
 72
     1
 10
75.43512331391385
 20
178.0498592413967
 11
75.43512331391383
 21
180.1652261347801
 72
     2
 10
75.63512331391384
 20
180.1652261347801
 40
0.1999999999999997
 50
180.0
 51
287.4992634116229
 73
     0
 72
     2
 10
68.33374964986125
 20
157.0071892676614
 40
24.48177771335848
 50
287.4992634116208
 51
301.6560592396826
 73
     0
 72
     1
 10
81.18225175389954
 20
177.8464175088612
 11
83.2351233139138
 21
177.8464175088612
 72
     2
 10
83.2351233139138
 20
178.0464175088613
 40
0.2000000000001189
 50
270.0
 51
414.6913490210625
 73
     1
 72
     2
 10
68.33374964986125
 20
157.0071892676614
 40
25.98177771335848
 50
54.69134902105803
 51
77.19877387922817
 73
     1
 72
     2
 10
74.03512331391198
 20
182.0993936872129
 40
0.2500000000000002
 50
77.19877387922789
 51
243.6122000390216
 73
     1
 72
     2
 10
73.8351233139138
 20
181.6962807997971
 40
0.2
 50
296.3877999609892
 51
360.0
 73
     0
 72
     1
 10
74.0351233139138
 20
181.6962807997971
 11
74.03512331391379
 21
181.5025065746358
 72
     2
 10
73.8351233139138
 20
181.5025065746358
 40
0.1999999999999997
 50
0.0
 51
63.61220003875953
 73
     0
 72
     2
 10
74.03512331391379
 20
181.0993936872209
 40
0.2499999999999998
 50
116.3877999612434
 51
243.6122000387624
 73
     1
 72
     2
 10
73.8351233139138
 20
180.6962807998059
 40
0.1999999999999999
 50
296.3877999612441
 51
360.0
 73
     0
 72
     1
 10
74.0351233139138
 20
180.6962807998059
 11
74.03512331391379
 21
180.5025065746358
 72
     2
 10
73.8351233139138
 20
180.5025065746358
 40
0.1999999999999997
 50
0.0
 51
63.61220003875953
 73
     0
 72
     2
 10
74.03512331391379
 20
180.0993936872209
 40
0.2499999999999998
 50
116.3877999612434
 51
243.6122000387624
 73
     1
 72
     2
 10
73.8351233139138
 20
179.6962807998059
 40
0.1999999999999999
 50
296.3877999612441
 51
360.0
 73
     0
 72
     1
 10
74.0351233139138
 20
179.6962807998059
 11
74.03512331391379
 21
179.5493936872131
 72
     2
 10
73.8351233139138
 20
179.549393687213
 40
0.1999999999999997
 50
0.0
 51
90.0
 73
     0
 72
     1
 10
73.8351233139138
 20
179.349393687213
 11
62.03512331391379
 21
179.349393687213
 72
     2
 10
62.03512331391379
 20
179.549393687213
 40
0.2000000000000005
 50
90.0
 51
180.0
 73
     0
 72
     1
 10
61.8351233139138
 20
179.549393687213
 11
61.8351233139138
 21
179.6962807998059
 72
     2
 10
62.03512331391379
 20
179.6962807998059
 40
0.1999999999999988
 50
180.0
 51
243.612200038754
 73
     0
 72
     2
 10
61.8351233139138
 20
180.0993936872209
 40
0.2499999999999998
 50
296.3877999612376
 51
423.6122000387538
 73
     1
 72
     2
 10
62.03512331391379
 20
180.5025065746358
 40
0.1999999999999999
 50
116.3877999612387
 51
180.0
 73
     0
 72
     1
 10
61.8351233139138
 20
180.5025065746358
 11
61.8351233139138
 21
180.6962807998059
 72
     2
 10
62.03512331391379
 20
180.6962807998059
 40
0.1999999999999997
 50
180.0
 51
243.612200038754
 73
     0
 72
     2
 10
61.8351233139138
 20
181.0993936872209
 40
0.2499999999999998
 50
296.3877999612376
 51
423.6122000387538
 73
     1
 72
     2
 10
62.03512331391379
 20
181.5025065746358
 40
0.1999999999999999
 50
116.3877999612387
 51
180.0
 73
     0
 72
     1
 10
61.8351233139138
 20
181.5025065746358
 11
61.8351233139138
 21
181.6962807997971
 72
     2
 10
62.03512331391379
 20
181.6962807997971
 40
0.1999999999999997
 50
180.0
 51
243.6122000390144
 73
     0
 72
     2
 10
61.83512331391562
 20
182.0993936872129
 40
0.2500000000000013
 50
296.3877999609783
 51
462.8012261207753
 73
     1
 72
     2
 10
67.53649697796635
 20
157.0071892676614
 40
25.98177771335835
 50
102.8012261207719
 51
125.308650978942
 73
     1
 72
     2
 10
52.63512331391379
 20
178.0464175088613
 40
0.2000000000000665
 50
125.3086509789419
 51
270.0
 73
     1
 72
     1
 10
52.63512331391379
 20
177.8464175088612
 11
54.68799487392806
 21
177.8464175088612
 72
     2
 10
67.53649697796635
 20
157.0071892676614
 40
24.48177771335847
 50
238.3439407603173
 51
252.5007365883791
 73
     0
 97
        0
 75
     0
 76
     1
 98
        0
  0
HATCH
  5
F8
330
EF
100
AcDbEntity
  8
DV2_Füllung
  6
Continuous
 62
     7
100
AcDbHatch
 10
0.0
 20
0.0
 30
0.0
210
0.0
220
0.0
230
1.0
  2
SOLID
 70
     1
 71
     0
 91
        3
 92
        1
 93
        4
 72
     1
 10
60.5351233139138
 20
219.3493936872131
 11
60.5351233139138
 21
186.7493936872131
 72
     1
 10
60.5351233139138
 20
186.7493936872131
 11
75.3351233139138
 21
186.7493936872131
 72
     1
 10
75.3351233139138
 20
186.7493936872131
 11
75.3351233139138
 21
219.3493936872131
 72
     2
 10
67.93512331391379
 20
219.3493936872131
 40
7.400000000000001
 50
0.0
 51
180.0
 73
     1
 97
        0
 92
        1
 93
        1
 72
     3
 10
70.4351233139138
 20
206.2493936872131
 11
3.065933786798643
 21
0.0
 40
1.0
 50
0.0
 51
360.0
 73
     1
 97
        0
 92
        1
 93
        1
 72
     3
 10
65.43512331391379
 20
214.2493936872131
 11
3.065933786798643
 21
0.0
 40
1.0
 50
0.0
 51
360.0
 73
     1
 97
        0
 75
     0
 76
     1
 98
        0
  0
HATCH
  5
F9
330
EF
100
AcDbEntity
  8
DV2_Füllung
  6
Continuous
 62
     7
100
AcDbHatch
 10
0.0
 20
0.0
 30
0.0
210
0.0
220
0.0
230
1.0
  2
SOLID
 70
     1
 71
     0
 91
        1
 92
        1
 93
        1
 72
     3
 10
65.43512331391379
 20
214.2493936872131
 11
3.065933786798643
 21
0.0
 40
1.0
 50
0.0
 51
360.0
 73
     1
 97
        0
 75
     0
 76
     1
 98
        0
  0
HATCH
  5
FA
330
EF
100
AcDbEntity
  8
DV2_Füllung
  6
Continuous
 62
     7
100
AcDbHatch
 10
0.0
 20
0.0
 30
0.0
210
0.0
220
0.0
230
1.0
  2
SOLID
 70
     1
 71
     0
 91
        1
 92
        1
 93
        1
 72
     3
 10
70.4351233139138
 20
206.2493936872131
 11
3.065933786798643
 21
0.0
 40
1.0
 50
0.0
 51
360.0
 73
     1
 97
        0
 75
     0
 76
     1
 98
        0
  0
LINE
  5
FC
330
EF
100
AcDbEntity
  8
DV2_Standard
  6
Continuous
 62
     7
100
AcDbLine
 10
60.5351233139
 20
219.3493936872
 30
0.0
 11
60.5351233139
 21
186.7493936872
 31
0.0
  0
LINE
  5
FD
330
EF
100
AcDbEntity
  8
DV2_Standard
  6
Continuous
 62
     7
100
AcDbLine
 10
60.5351233139
 20
186.7493936872
 30
0.0
 11
75.3351233139
 21
186.7493936872
 31
0.0
  0
LINE
  5
FE
330
EF
100
AcDbEntity
  8
DV2_Standard
  6
Continuous
 62
     7
100
AcDbLine
 10
75.3351233139
 20
186.7493936872
 30
0.0
 11
75.3351233139
 21
219.3493936872
 31
0.0
  0
ARC
  5
FF
330
EF
100
AcDbEntity
  8
DV2_Standard
  6
Continuous
 62
     7
100
AcDbCircle
 10
67.9351233139
 20
219.3493936872
 30
0.0
 40
7.400000000000001
100
AcDbArc
 50
0.0
 51
180.0
  0
LINE
  5
101
330
EF
100
AcDbEntity
  8
DV2_Standard
  6
HIDDEN2
 62
     7
100
AcDbLine
 10
61.6851233139
 20
197.2493936872
 30
0.0
 11
61.7351233139
 21
197.2493936872
 31
0.0
  0
LINE
  5
102
330
EF
100
AcDbEntity
  8
DV2_Standard
  6
HIDDEN2
 62
     7
100
AcDbLine
 10
74.1351233139
 20
197.2493936872
 30
0.0
 11
74.1851233139
 21
197.2493936872
 31
0.0
  0
CIRCLE
  5
103
330
EF
100
AcDbEntity
  8
DV2_Standard
  6
Continuous
 62
     7
100
AcDbCircle
 10
70.4351233139
 20
206.2493936872
 30
0.0
 40
3.065933786798643
  0
CIRCLE
  5
104
330
EF
100
AcDbEntity
  8
DV2_Standard
  6
Continuous
 62
     7
100
AcDbCircle
 10
65.4351233139
 20
214.2493936872
 30
0.0
 40
3.065933786798643
  0
ARC
  5
105
330
EF
100
AcDbEntity
  8
DV2_Standard
  6
Continuous
 62
     7
100
AcDbCircle
 10
61.8351233139
 20
182.0993936872
 30
0.0
 40
0.2500000000000013
100
AcDbArc
 50
296.387799961
 51
102.8012261208
  0
ARC
  5
106
330
EF
100
AcDbEntity
  8
DV2_Standard
  6
Continuous
 62
     7
100
AcDbCircle
 10
67.536496978
 20
157.0071892677
 30
0.0
 40
25.98177771335835
100
AcDbArc
 50
102.8012261208
 51
125.3086509789
  0
ARC
  5
107
330
EF
100
AcDbEntity
  8
DV2_Standard
  6
Continuous
 62
     7
100
AcDbCircle
 10
52.6351233139
 20
178.0464175089
 30
0.0
 40
0.2000000000000665
100
AcDbArc
 50
125.3086509789
 51
270.0
  0
LINE
  5
108
330
EF
100
AcDbEntity
  8
DV2_Standard
  6
Continuous
 62
     7
100
AcDbLine
 10
54.6879948739
 20
177.8464175089
 30
0.0
 11
52.6351233139
 21
177.8464175089
 31
0.0
  0
ARC
  5
109
330
EF
100
AcDbEntity
  8
DV2_Standard
  6
Continuous
 62
     7
100
AcDbCircle
 10
68.3337496499
 20
157.0071892677
 30
0.0
 40
24.48177771335848
100
AcDbArc
 50
58.3439407603
 51
72.5007365884
  0
LINE
  5
10A
330
EF
100
AcDbEntity
  8
DV2_Standard
  6
Continuous
 62
     7
100
AcDbLine
 10
83.2351233139
 20
177.8464175089
 30
0.0
 11
81.1822517539
 21
177.8464175089
 31
0.0
  0
ARC
  5
10B
330
EF
100
AcDbEntity
  8
DV2_Standard
  6
Continuous
 62
     7
100
AcDbCircle
 10
83.2351233139
 20
178.0464175089
 30
0.0
 40
0.2000000000001189
100
AcDbArc
 50
270.0
 51
54.6913490211
  0
ARC
  5
10C
330
EF
100
AcDbEntity
  8
DV2_Standard
  6
Continuous
 62
     7
100
AcDbCircle
 10
68.3337496499
 20
157.0071892677
 30
0.0
 40
25.98177771335848
100
AcDbArc
 50
54.6913490211
 51
77.1987738792
  0
LINE
  5
10D
330
EF
100
AcDbEntity
  8
DV2_Standard
  6
Continuous
 62
     7
100
AcDbLine
 10
61.8351233139
 20
181.6962807998
 30
0.0
 11
61.8351233139
 21
181.5025065746
 31
0.0
  0
ARC
  5
10E
330
EF
100
AcDbEntity
  8
DV2_Standard
  6
Continuous
 62
     7
100
AcDbCircle
 10
62.0351233139
 20
181.6962807998
 30
0.0
 40
0.1999999999999997
100
AcDbArc
 50
116.387799961
 51
180.0
  0
LINE
  5
10F
330
EF
100
AcDbEntity
  8
DV2_Standard
  6
Continuous
 62
     7
100
AcDbLine
 10
62.0351233139
 20
179.3493936872
 30
0.0
 11
73.8351233139
 21
179.3493936872
 31
0.0
  0
ARC
  5
110
330
EF
100
AcDbEntity
  8
DV2_Standard
  6
Continuous
 62
     7
100
AcDbCircle
 10
62.0351233139
 20
179.5493936872
 30
0.0
 40
0.2000000000000005
100
AcDbArc
 50
180.0
 51
270.0
  0
LINE
  5
111
330
EF
100
AcDbEntity
  8
DV2_Standard
  6
Continuous
 62
     7
100
AcDbLine
 10
61.8351233139
 20
179.6962807998
 30
0.0
 11
61.8351233139
 21
179.5493936872
 31
0.0
  0
ARC
  5
112
330
EF
100
AcDbEntity
  8
DV2_Standard
  6
Continuous
 62
     7
100
AcDbCircle
 10
62.0351233139
 20
179.6962807998
 30
0.0
 40
0.1999999999999988
100
AcDbArc
 50
116.3877999612
 51
180.0
  0
ARC
  5
113
330
EF
100
AcDbEntity
  8
DV2_Standard
  6
Continuous
 62
     7
100
AcDbCircle
 10
61.8351233139
 20
180.0993936872
 30
0.0
 40
0.2499999999999998
100
AcDbArc
 50
296.3877999612
 51
63.6122000388
  0
ARC
  5
114
330
EF
100
AcDbEntity
  8
DV2_Standard
  6
Continuous
 62
     7
100
AcDbCircle
 10
62.0351233139
 20
180.5025065746
 30
0.0
 40
0.1999999999999999
100
AcDbArc
 50
180.0
 51
243.6122000388
  0
LINE
  5
115
330
EF
100
AcDbEntity
  8
DV2_Standard
  6
Continuous
 62
     7
100
AcDbLine
 10
61.8351233139
 20
180.6962807998
 30
0.0
 11
61.8351233139
 21
180.5025065746
 31
0.0
  0
ARC
  5
116
330
EF
100
AcDbEntity
  8
DV2_Standard
  6
Continuous
 62
     7
100
AcDbCircle
 10
62.0351233139
 20
180.6962807998
 30
0.0
 40
0.1999999999999997
100
AcDbArc
 50
116.3877999612
 51
180.0
  0
ARC
  5
117
330
EF
100
AcDbEntity
  8
DV2_Standard
  6
Continuous
 62
     7
100
AcDbCircle
 10
61.8351233139
 20
181.0993936872
 30
0.0
 40
0.2499999999999998
100
AcDbArc
 50
296.3877999612
 51
63.6122000388
  0
ARC
  5
118
330
EF
100
AcDbEntity
  8
DV2_Standard
  6
Continuous
 62
     7
100
AcDbCircle
 10
62.0351233139
 20
181.5025065746
 30
0.0
 40
0.1999999999999999
100
AcDbArc
 50
180.0
 51
243.6122000388
  0
ARC
  5
119
330
EF
100
AcDbEntity
  8
DV2_Standard
  6
Continuous
 62
     7
100
AcDbCircle
 10
74.0351233139
 20
182.0993936872
 30
0.0
 40
0.2500000000000002
100
AcDbArc
 50
77.1987738792
 51
243.612200039
  0
ARC
  5
11A
330
EF
100
AcDbEntity
  8
DV2_Standard
  6
Continuous
 62
     7
100
AcDbCircle
 10
73.8351233139
 20
181.6962807998
 30
0.0
 40
0.2
100
AcDbArc
 50
0.0
 51
63.612200039
  0
LINE
  5
11B
330
EF
100
AcDbEntity
  8
DV2_Standard
  6
Continuous
 62
     7
100
AcDbLine
 10
74.0351233139
 20
179.5493936872
 30
0.0
 11
74.0351233139
 21
179.6962807998
 31
0.0
  0
ARC
  5
11C
330
EF
100
AcDbEntity
  8
DV2_Standard
  6
Continuous
 62
     7
100
AcDbCircle
 10
73.8351233139
 20
179.5493936872
 30
0.0
 40
0.1999999999999997
100
AcDbArc
 50
270.0
 51
0.0
  0
ARC
  5
11D
330
EF
100
AcDbEntity
  8
DV2_Standard
  6
Continuous
 62
     7
100
AcDbCircle
 10
74.0351233139
 20
180.0993936872
 30
0.0
 40
0.2499999999999998
100
AcDbArc
 50
116.3877999612
 51
243.6122000388
  0
ARC
  5
11E
330
EF
100
AcDbEntity
  8
DV2_Standard
  6
Continuous
 62
     7
100
AcDbCircle
 10
73.8351233139
 20
179.6962807998
 30
0.0
 40
0.1999999999999999
100
AcDbArc
 50
0.0
 51
63.6122000388
  0
LINE
  5
11F
330
EF
100
AcDbEntity
  8
DV2_Standard
  6
Continuous
 62
     7
100
AcDbLine
 10
74.0351233139
 20
180.5025065746
 30
0.0
 11
74.0351233139
 21
180.6962807998
 31
0.0
  0
ARC
  5
120
330
EF
100
AcDbEntity
  8
DV2_Standard
  6
Continuous
 62
     7
100
AcDbCircle
 10
73.8351233139
 20
180.5025065746
 30
0.0
 40
0.1999999999999997
100
AcDbArc
 50
296.3877999612
 51
0.0
  0
ARC
  5
121
330
EF
100
AcDbEntity
  8
DV2_Standard
  6
Continuous
 62
     7
100
AcDbCircle
 10
74.0351233139
 20
181.0993936872
 30
0.0
 40
0.2499999999999998
100
AcDbArc
 50
116.3877999612
 51
243.6122000388
  0
ARC
  5
122
330
EF
100
AcDbEntity
  8
DV2_Standard
  6
Continuous
 62
     7
100
AcDbCircle
 10
73.8351233139
 20
180.6962807998
 30
0.0
 40
0.1999999999999999
100
AcDbArc
 50
0.0
 51
63.6122000388
  0
LINE
  5
123
330
EF
100
AcDbEntity
  8
DV2_Standard
  6
Continuous
 62
     7
100
AcDbLine
 10
74.0351233139
 20
181.5025065746
 30
0.0
 11
74.0351233139
 21
181.6962807998
 31
0.0
  0
ARC
  5
124
330
EF
100
AcDbEntity
  8
DV2_Standard
  6
Continuous
 62
     7
100
AcDbCircle
 10
73.8351233139
 20
181.5025065746
 30
0.0
 40
0.1999999999999997
100
AcDbArc
 50
296.3877999612
 51
0.0
  0
LINE
  5
125
330
EF
100
AcDbEntity
  8
DV2_Standard
  6
Continuous
 62
     7
100
AcDbLine
 10
60.4351233139
 20
178.0498592414
 30
0.0
 11
60.4351233139
 21
180.1652261348
 31
0.0
  0
ARC
  5
126
330
EF
100
AcDbEntity
  8
DV2_Standard
  6
Continuous
 62
     7
100
AcDbCircle
 10
60.6351233139
 20
178.0498592414
 30
0.0
 40
0.1999999999999997
100
AcDbArc
 50
180.0
 51
270.0
  0
LINE
  5
127
330
EF
100
AcDbEntity
  8
DV2_Standard
  6
Continuous
 62
     7
100
AcDbLine
 10
75.2351233139
 20
177.8498592414
 30
0.0
 11
60.6351233139
 21
177.8498592414
 31
0.0
  0
ARC
  5
128
330
EF
100
AcDbEntity
  8
DV2_Standard
  6
Continuous
 62
     7
100
AcDbCircle
 10
75.2351233139
 20
178.0498592414
 30
0.0
 40
0.2000000000000005
100
AcDbArc
 50
270.0
 51
0.0
  0
LINE
  5
129
330
EF
100
AcDbEntity
  8
DV2_Standard
  6
Continuous
 62
     7
100
AcDbLine
 10
75.4351233139
 20
180.1652261348
 30
0.0
 11
75.4351233139
 21
178.0498592414
 31
0.0
  0
ARC
  5
12A
330
EF
100
AcDbEntity
  8
DV2_Standard
  6
Continuous
 62
     7
100
AcDbCircle
 10
75.6351233139
 20
180.1652261348
 30
0.0
 40
0.1999999999999997
100
AcDbArc
 50
72.5007365884
 51
180.0
  0
ARC
  5
12B
330
EF
100
AcDbEntity
  8
DV2_Standard
  6
Continuous
 62
     7
100
AcDbCircle
 10
67.536496978
 20
157.0071892677
 30
0.0
 40
24.48177771335847
100
AcDbArc
 50
107.4992634116
 51
121.6560592397
  0
ARC
  5
12C
330
EF
100
AcDbEntity
  8
DV2_Standard
  6
Continuous
 62
     7
100
AcDbCircle
 10
60.2351233139
 20
180.1652261348
 30
0.0
 40
0.1999999999999969
100
AcDbArc
 50
0.0
 51
107.4992634116
  0
LINE
  5
12D
330
EF
100
AcDbEntity
  8
DV2_Standard
  6
HIDDEN2
 62
     7
100
AcDbLine
 10
62.9351233139
 20
193.5493939157
 30
0.0
 11
61.8690983169
 21
193.5493939157
 31
0.0
  0
LINE
  5
12E
330
EF
100
AcDbEntity
  8
DV2_Standard
  6
Continuous
 62
     7
100
AcDbLine
 10
62.9351233139
 20
186.5475245522
 30
0.0
 11
62.9351233139
 21
186.7493936872
 31
0.0
  0
LINE
  5
12F
330
EF
100
AcDbEntity
  8
DV2_Standard
  6
HIDDEN2
 62
     7
100
AcDbLine
 10
62.9351233139
 20
186.7493936872
 30
0.0
 11
62.9351233139
 21
193.5493939157
 31
0.0
  0
ARC
  5
130
330
EF
100
AcDbEntity
  8
DV2_Standard
  6
Continuous
 62
     7
100
AcDbCircle
 10
63.1351233139
 20
186.5475245522
 30
0.0
 40
0.2000000000000063
100
AcDbArc
 50
180.0
 51
277.8398015802
  0
ARC
  5
131
330
EF
100
AcDbEntity
  8
DV2_Standard
  6
Continuous
 62
     7
100
AcDbCircle
 10
68.6185553129
 20
146.7232609242
 30
0.0
 40
39.99999999999978
100
AcDbArc
 50
90.9789917296
 51
97.8398015802
  0
ARC
  5
132
330
EF
100
AcDbEntity
  8
DV2_Standard
  6
Continuous
 62
     7
100
AcDbCircle
 10
67.251691315
 20
146.7232609275
 30
0.0
 40
39.99999999999977
100
AcDbArc
 50
82.1601984186
 51
85.5556257931
  0
ARC
  5
133
330
EF
100
AcDbEntity
  8
DV2_Standard
  6
Continuous
 62
     7
100
AcDbCircle
 10
72.7351233148
 20
186.5475245553
 30
0.0
 40
0.199999999999827
100
AcDbArc
 50
262.1601984186
 51
0.0
  0
LINE
  5
134
330
EF
100
AcDbEntity
  8
DV2_Standard
  6
HIDDEN2
 62
     7
100
AcDbLine
 10
72.9351233148
 20
193.5493939218
 30
0.0
 11
72.9351233148
 21
186.7493936872
 31
0.0
  0
LINE
  5
135
330
EF
100
AcDbEntity
  8
DV2_Standard
  6
Continuous
 62
     7
100
AcDbLine
 10
72.9351233148
 20
186.7493936872
 30
0.0
 11
72.9351233148
 21
186.5475245553
 31
0.0
  0
LINE
  5
136
330
EF
100
AcDbEntity
  8
DV2_Standard
  6
HIDDEN2
 62
     7
100
AcDbLine
 10
74.0011493778
 20
193.5493939218
 30
0.0
 11
72.9351233148
 21
193.5493939218
 31
0.0
  0
ARC
  5
137
330
EF
100
AcDbEntity
  8
DV2_Standard
  6
HIDDEN2
 62
     7
100
AcDbCircle
 10
73.1351238695
 20
194.0493937408
 30
0.0
 40
1.0
100
AcDbArc
 50
330.00001198
 51
29.9999964571
  0
ARC
  5
138
330
EF
100
AcDbEntity
  8
DV2_Standard
  6
HIDDEN2
 62
     7
100
AcDbCircle
 10
69.6475879314
 20
194.3493936872
 30
0.0
 40
0.2000000000000054
100
AcDbArc
 50
90.0
 51
201.2138611147
  0
LINE
  5
139
330
EF
100
AcDbEntity
  8
DV2_Standard
  6
HIDDEN2
 62
     7
100
AcDbLine
 10
70.4141565717
 20
191.8217639278
 30
0.0
 11
69.4611406736
 21
194.2770236654
 31
0.0
  0
ARC
  5
13A
330
EF
100
AcDbEntity
  8
DV2_Standard
  6
HIDDEN2
 62
     7
100
AcDbCircle
 10
70.2277093139
 20
191.749393906
 30
0.0
 40
0.2000000000000057
100
AcDbArc
 50
270.0
 51
21.2138611147
  0
LINE
  5
13B
330
EF
100
AcDbEntity
  8
DV2_Standard
  6
HIDDEN2
 62
     7
100
AcDbLine
 10
65.6425373139
 20
191.549393906
 30
0.0
 11
70.2277093139
 21
191.549393906
 31
0.0
  0
ARC
  5
13C
330
EF
100
AcDbEntity
  8
DV2_Standard
  6
HIDDEN2
 62
     7
100
AcDbCircle
 10
65.6425373139
 20
191.749393906
 30
0.0
 40
0.2000000000000056
100
AcDbArc
 50
158.7861388853
 51
270.0
  0
LINE
  5
13D
330
EF
100
AcDbEntity
  8
DV2_Standard
  6
HIDDEN2
 62
     7
100
AcDbLine
 10
66.4091060852
 20
194.2770240027
 30
0.0
 11
65.4560900561
 21
191.8217639278
 31
0.0
  0
ARC
  5
13E
330
EF
100
AcDbEntity
  8
DV2_Standard
  6
HIDDEN2
 62
     7
100
AcDbCircle
 10
66.2226588274
 20
194.3493940245
 30
0.0
 40
0.2000000000000057
100
AcDbArc
 50
338.7861388853
 51
90.0
  0
ARC
  5
13F
330
EF
100
AcDbEntity
  8
DV2_Standard
  6
HIDDEN2
 62
     7
100
AcDbCircle
 10
62.7351237354
 20
194.0493938903
 30
0.0
 40
1.000000000000001
100
AcDbArc
 50
149.9999911204
 51
209.9999983237
  0
ARC
  5
140
330
EF
100
AcDbEntity
  8
DV2_Standard
  6
Continuous
 62
     7
100
AcDbCircle
 10
67.251691315
 20
146.7232609275
 30
0.0
 40
39.99999999999979
100
AcDbArc
 50
86.1346138352
 51
89.0210080015
  0
LINE
  5
141
330
EF
100
AcDbEntity
  8
DV2_Standard
  6
HIDDEN2
 62
     7
100
AcDbLine
 10
70.1351233148
 20
186.8191983134
 30
0.0
 11
70.0653186887
 21
186.7493936872
 31
0.0
  0
LINE
  5
142
330
EF
100
AcDbEntity
  8
DV2_Standard
  6
Continuous
 62
     7
100
AcDbLine
 10
70.0653186887
 20
186.7493936872
 30
0.0
 11
69.9481933903
 21
186.6322683889
 31
0.0
  0
LINE
  5
143
330
EF
100
AcDbEntity
  8
DV2_Standard
  6
HIDDEN2
 62
     7
100
AcDbLine
 10
70.1351233148
 20
186.8191983134
 30
0.0
 11
70.204927941
 21
186.7493936872
 31
0.0
  0
LINE
  5
144
330
EF
100
AcDbEntity
  8
DV2_Standard
  6
Continuous
 62
     7
100
AcDbLine
 10
70.204927941
 20
186.7493936872
 30
0.0
 11
70.3513392542
 21
186.602982374
 31
0.0
  0
LINE
  5
145
330
EF
100
AcDbEntity
  8
DV2_Standard
  6
HIDDEN2
 62
     7
100
AcDbLine
 10
62.5511487177
 20
187.3493936872
 30
0.0
 11
61.7351233139
 21
187.3493936872
 31
0.0
  0
ARC
  5
146
330
EF
100
AcDbEntity
  8
DV2_Standard
  6
Continuous
 62
     7
100
AcDbCircle
 10
61.6851233139
 20
186.8493936872
 30
0.0
 40
1.0
100
AcDbArc
 50
330.0
 51
354.2608295227
  0
ARC
  5
147
330
EF
100
AcDbEntity
  8
DV2_Standard
  6
HIDDEN2
 62
     7
100
AcDbCircle
 10
61.6851233139
 20
186.8493936872
 30
0.0
 40
1.0
100
AcDbArc
 50
354.2608295227
 51
30.0
  0
LINE
  5
148
330
EF
100
AcDbEntity
  8
DV2_Standard
  6
Continuous
 62
     7
100
AcDbLine
 10
73.3190979101
 20
186.3493936872
 30
0.0
 11
75.1351233139
 21
186.3493936872
 31
0.0
  0
ARC
  5
149
330
EF
100
AcDbEntity
  8
DV2_Standard
  6
HIDDEN2
 62
     7
100
AcDbCircle
 10
74.1851233139
 20
186.8493936872
 30
0.0
 40
1.0
100
AcDbArc
 50
150.0
 51
185.7391704773
  0
ARC
  5
14A
330
EF
100
AcDbEntity
  8
DV2_Standard
  6
Continuous
 62
     7
100
AcDbCircle
 10
74.1851233139
 20
186.8493936872
 30
0.0
 40
1.0
100
AcDbArc
 50
185.7391704773
 51
210.0
  0
LINE
  5
14B
330
EF
100
AcDbEntity
  8
DV2_Standard
  6
Continuous
 62
     7
100
AcDbLine
 10
60.5351233139
 20
186.7493936872
 30
0.0
 11
60.5351233139
 21
186.5493936872
 31
0.0
  0
ARC
  5
14C
330
EF
100
AcDbEntity
  8
DV2_Standard
  6
HIDDEN2
 62
     7
100
AcDbCircle
 10
60.7351233139
 20
198.0493936872
 30
0.0
 40
0.1999999999999988
100
AcDbArc
 50
90.0
 51
180.0
  0
LINE
  5
14D
330
EF
100
AcDbEntity
  8
DV2_Standard
  6
Continuous
 62
     7
100
AcDbLine
 10
60.7351233139
 20
186.3493936872
 30
0.0
 11
62.5511487177
 21
186.3493936872
 31
0.0
  0
ARC
  5
14E
330
EF
100
AcDbEntity
  8
DV2_Standard
  6
Continuous
 62
     7
100
AcDbCircle
 10
60.7351233139
 20
186.5493936872
 30
0.0
 40
0.1999999999999997
100
AcDbArc
 50
180.0
 51
270.0
  0
LINE
  5
14F
330
EF
100
AcDbEntity
  8
DV2_Standard
  6
HIDDEN2
 62
     7
100
AcDbLine
 10
61.5351233139
 20
187.5493936872
 30
0.0
 11
61.5351233139
 21
194.3493936872
 31
0.0
  0
ARC
  5
150
330
EF
100
AcDbEntity
  8
DV2_Standard
  6
HIDDEN2
 62
     7
100
AcDbCircle
 10
61.7351233139
 20
187.5493936872
 30
0.0
 40
0.2000000000000005
100
AcDbArc
 50
180.0
 51
270.0
  0
LINE
  5
151
330
EF
100
AcDbEntity
  8
DV2_Standard
  6
HIDDEN2
 62
     7
100
AcDbLine
 10
61.7351233139
 20
194.5493936872
 30
0.0
 11
74.1351233139
 21
194.5493936872
 31
0.0
  0
ARC
  5
152
330
EF
100
AcDbEntity
  8
DV2_Standard
  6
HIDDEN2
 62
     7
100
AcDbCircle
 10
61.7351233139
 20
194.3493936872
 30
0.0
 40
0.1999999999999997
100
AcDbArc
 50
90.0
 51
180.0
  0
LINE
  5
153
330
EF
100
AcDbEntity
  8
DV2_Standard
  6
HIDDEN2
 62
     7
100
AcDbLine
 10
61.5351233139
 20
195.7493936872
 30
0.0
 11
61.5351233139
 21
197.0493936872
 31
0.0
  0
ARC
  5
154
330
EF
100
AcDbEntity
  8
DV2_Standard
  6
HIDDEN2
 62
     7
100
AcDbCircle
 10
61.7351233139
 20
195.7493936872
 30
0.0
 40
0.1999999999999997
100
AcDbArc
 50
180.0
 51
270.0
  0
LINE
  5
155
330
EF
100
AcDbEntity
  8
DV2_Standard
  6
HIDDEN2
 62
     7
100
AcDbLine
 10
61.7351233139
 20
197.2493936872
 30
0.0
 11
63.3351233139
 21
197.2493936872
 31
0.0
  0
ARC
  5
156
330
EF
100
AcDbEntity
  8
DV2_Standard
  6
HIDDEN2
 62
     7
100
AcDbCircle
 10
61.7351233139
 20
197.0493936872
 30
0.0
 40
0.1999999999999997
100
AcDbArc
 50
90.0
 51
180.0
  0
LINE
  5
157
330
EF
100
AcDbEntity
  8
DV2_Standard
  6
HIDDEN2
 62
     7
100
AcDbLine
 10
63.3351233139
 20
198.2493936872
 30
0.0
 11
60.7351233139
 21
198.2493936872
 31
0.0
  0
ARC
  5
158
330
EF
100
AcDbEntity
  8
DV2_Standard
  6
HIDDEN2
 62
     7
100
AcDbCircle
 10
63.3351233139
 20
198.0493936872
 30
0.0
 40
0.1999999999999997
100
AcDbArc
 50
0.0
 51
90.0
  0
LINE
  5
159
330
EF
100
AcDbEntity
  8
DV2_Standard
  6
HIDDEN2
 62
     7
100
AcDbLine
 10
63.5351233139
 20
197.4493936872
 30
0.0
 11
63.5351233139
 21
198.0493936872
 31
0.0
  0
ARC
  5
15A
330
EF
100
AcDbEntity
  8
DV2_Standard
  6
HIDDEN2
 62
     7
100
AcDbCircle
 10
63.3351233139
 20
197.4493936872
 30
0.0
 40
0.2000000000000005
100
AcDbArc
 50
270.0
 51
0.0
  0
LINE
  5
15B
330
EF
100
AcDbEntity
  8
DV2_Standard
  6
HIDDEN2
 62
     7
100
AcDbLine
 10
72.3351233139
 20
198.0493936872
 30
0.0
 11
72.3351233139
 21
197.4493936872
 31
0.0
  0
ARC
  5
15C
330
EF
100
AcDbEntity
  8
DV2_Standard
  6
HIDDEN2
 62
     7
100
AcDbCircle
 10
72.5351233139
 20
198.0493936872
 30
0.0
 40
0.1999999999999988
100
AcDbArc
 50
90.0
 51
180.0
  0
LINE
  5
15D
330
EF
100
AcDbEntity
  8
DV2_Standard
  6
HIDDEN2
 62
     7
100
AcDbLine
 10
74.3351233139
 20
194.3493936872
 30
0.0
 11
74.3351233139
 21
187.5493936872
 31
0.0
  0
ARC
  5
15E
330
EF
100
AcDbEntity
  8
DV2_Standard
  6
HIDDEN2
 62
     7
100
AcDbCircle
 10
74.1351233139
 20
194.3493936872
 30
0.0
 40
0.1999999999999997
100
AcDbArc
 50
0.0
 51
90.0
  0
LINE
  5
15F
330
EF
100
AcDbEntity
  8
DV2_Standard
  6
HIDDEN2
 62
     7
100
AcDbLine
 10
75.1351233139
 20
198.2493936872
 30
0.0
 11
72.5351233139
 21
198.2493936872
 31
0.0
  0
ARC
  5
160
330
EF
100
AcDbEntity
  8
DV2_Standard
  6
HIDDEN2
 62
     7
100
AcDbCircle
 10
75.1351233139
 20
198.0493936872
 30
0.0
 40
0.1999999999999997
100
AcDbArc
 50
0.0
 51
90.0
  0
LINE
  5
161
330
EF
100
AcDbEntity
  8
DV2_Standard
  6
HIDDEN2
 62
     7
100
AcDbLine
 10
72.5351233139
 20
197.2493936872
 30
0.0
 11
74.1351233139
 21
197.2493936872
 31
0.0
  0
ARC
  5
162
330
EF
100
AcDbEntity
  8
DV2_Standard
  6
HIDDEN2
 62
     7
100
AcDbCircle
 10
72.5351233139
 20
197.4493936872
 30
0.0
 40
0.1999999999999997
100
AcDbArc
 50
180.0
 51
270.0
  0
LINE
  5
163
330
EF
100
AcDbEntity
  8
DV2_Standard
  6
HIDDEN2
 62
     7
100
AcDbLine
 10
74.3351233139
 20
197.0493936872
 30
0.0
 11
74.3351233139
 21
195.7493936872
 31
0.0
  0
ARC
  5
164
330
EF
100
AcDbEntity
  8
DV2_Standard
  6
HIDDEN2
 62
     7
100
AcDbCircle
 10
74.1351233139
 20
197.0493936872
 30
0.0
 40
0.1999999999999988
100
AcDbArc
 50
0.0
 51
90.0
  0
LINE
  5
165
330
EF
100
AcDbEntity
  8
DV2_Standard
  6
HIDDEN2
 62
     7
100
AcDbLine
 10
74.1351233139
 20
195.5493936872
 30
0.0
 11
61.7351233139
 21
195.5493936872
 31
0.0
  0
ARC
  5
166
330
EF
100
AcDbEntity
  8
DV2_Standard
  6
HIDDEN2
 62
     7
100
AcDbCircle
 10
74.1351233139
 20
195.7493936872
 30
0.0
 40
0.1999999999999997
100
AcDbArc
 50
270.0
 51
0.0
  0
LINE
  5
167
330
EF
100
AcDbEntity
  8
DV2_Standard
  6
Continuous
 62
     7
100
AcDbLine
 10
75.3351233139
 20
186.5493936872
 30
0.0
 11
75.3351233139
 21
186.7493936872
 31
0.0
  0
ARC
  5
168
330
EF
100
AcDbEntity
  8
DV2_Standard
  6
Continuous
 62
     7
100
AcDbCircle
 10
75.1351233139
 20
186.5493936872
 30
0.0
 40
0.2000000000000005
100
AcDbArc
 50
270.0
 51
0.0
  0
LINE
  5
169
330
EF
100
AcDbEntity
  8
DV2_Standard
  6
HIDDEN2
 62
     7
100
AcDbLine
 10
74.1351233139
 20
187.3493936872
 30
0.0
 11
73.3190979101
 21
187.3493936872
 31
0.0
  0
ARC
  5
16A
330
EF
100
AcDbEntity
  8
DV2_Standard
  6
HIDDEN2
 62
     7
100
AcDbCircle
 10
74.1351233139
 20
187.5493936872
 30
0.0
 40
0.1999999999999997
100
AcDbArc
 50
270.0
 51
0.0
  0
ARC
  5
16B
330
EF
100
AcDbEntity
  8
DV2_Standard
  6
Continuous
 62
     7
100
AcDbCircle
 10
67.6956070091
 20
142.7351570648
 30
0.0
 40
39.99999999999999
100
AcDbArc
 50
82.1119531269
 51
89.6569166613
  0
ARC
  5
16C
330
EF
100
AcDbEntity
  8
DV2_Standard
  6
Continuous
 62
     7
100
AcDbCircle
 10
73.1851233139
 20
181.8566816872
 30
0.0
 40
0.4999999999999691
100
AcDbArc
 50
0.0
 51
90.0000277956
  0
LINE
  5
16D
330
EF
100
AcDbEntity
  8
DV2_Standard
  6
Continuous
 62
     7
100
AcDbLine
 10
73.6851233139
 20
181.8566816872
 30
0.0
 11
73.6851233139
 21
179.8493936872
 31
0.0
  0
LINE
  5
16E
330
EF
100
AcDbEntity
  8
DV2_Standard
  6
Continuous
 62
     7
100
AcDbLine
 10
73.6851233139
 20
179.8493936872
 30
0.0
 11
73.1851233139
 21
179.3493936872
 31
0.0
  0
LINE
  5
16F
330
EF
100
AcDbEntity
  8
DV2_Standard
  6
Continuous
 62
     7
100
AcDbLine
 10
73.1851233139
 20
179.3493936872
 30
0.0
 11
65.1851233139
 21
179.3493936872
 31
0.0
  0
LINE
  5
170
330
EF
100
AcDbEntity
  8
DV2_Standard
  6
Continuous
 62
     7
100
AcDbLine
 10
62.6851233139
 20
179.3493936872
 30
0.0
 11
62.1851233139
 21
179.8493936872
 31
0.0
  0
LINE
  5
171
330
EF
100
AcDbEntity
  8
DV2_Standard
  6
Continuous
 62
     7
100
AcDbLine
 10
62.1851233139
 20
179.8493936872
 30
0.0
 11
62.1851233139
 21
181.8566816872
 31
0.0
  0
ARC
  5
172
330
EF
100
AcDbEntity
  8
DV2_Standard
  6
Continuous
 62
     7
100
AcDbCircle
 10
62.6851233139
 20
181.8566816872
 30
0.0
 40
0.5000000000000004
100
AcDbArc
 50
90.0
 51
180.0
  0
ARC
  5
173
330
EF
100
AcDbEntity
  8
DV2_Standard
  6
Continuous
 62
     7
100
AcDbCircle
 10
68.1746393997
 20
142.7351570681
 30
0.0
 40
39.99999999999999
100
AcDbArc
 50
90.3430841176
 51
97.8880469071
  0
LINE
  5
174
330
EF
100
AcDbEntity
  8
DV2_Standard
  6
Continuous
 62
     7
100
AcDbLine
 10
64.1851233139
 20
179.3493936872
 30
0.0
 11
62.6851233139
 21
179.3493936872
 31
0.0
  0
ENDBLK
  5
176
330
EF
100
AcDbEntity
  8
0
100
AcDbBlockEnd
  0
BLOCK
  5
179
330
178
100
AcDbEntity
  8
0
100
AcDbBlockBegin
  2
_Oblique
 70
     0
 10
0.0
 20
0.0
 30
0.0
  3
_Oblique
  1

  0
LINE
  5
17B
330
178
100
AcDbEntity
  8
0
  6
ByBlock
 62
     0
370
    -2
100
AcDbLine
 10
-0.5
 20
-0.5
 30
0.0
 11
0.5
 21
0.5
 31
0.0
  0
ENDBLK
  5
17A
330
178
100
AcDbEntity
  8
0
100
AcDbBlockEnd
  0
BLOCK
  5
17D
330
17C
100
AcDbEntity
  8
0
100
AcDbBlockBegin
  2
_Dot
 70
     0
 10
0.0
 20
0.0
 30
0.0
  3
_Dot
  1

  0
LWPOLYLINE
  5
17F
330
17C
100
AcDbEntity
  8
0
  6
ByBlock
 62
     0
100
AcDbPolyline
 90
        2
 70
     1
 43
0.5
 10
-0.25
 20
0.0
 42
1.0
 10
0.25
 20
0.0
 42
1.0
  0
LINE
  5
180
330
17C
100
AcDbEntity
  8
0
  6
ByBlock
 62
     0
370
    -2
100
AcDbLine
 10
-0.5
 20
0.0
 30
0.0
 11
-1.0
 21
0.0
 31
0.0
  0
ENDBLK
  5
17E
330
17C
100
AcDbEntity
  8
0
100
AcDbBlockEnd
  0
BLOCK
  5
185
330
181
100
AcDbEntity
  8
0
100
AcDbBlockBegin
  2
_SE_OPEN
 70
     0
 10
0.0
 20
0.0
 30
0.0
  3
_SE_OPEN
  1

  0
LINE
  5
182
330
181
100
AcDbEntity
  8
0
 62
     0
100
AcDbLine
 10
0.0
 20
0.0
 30
0.0
 11
-1.0
 21
-0.1665
 31
0.0
  0
LINE
  5
183
330
181
100
AcDbEntity
  8
0
 62
     0
100
AcDbLine
 10
-1.0
 20
0.1665
 30
0.0
 11
0.0
 21
0.0
 31
0.0
  0
LINE
  5
184
330
181
100
AcDbEntity
  8
0
 62
     0
100
AcDbLine
 10
0.0
 20
0.0
 30
0.0
 11
-1.0
 21
0.0
 31
0.0
  0
ENDBLK
  5
186
330
181
100
AcDbEntity
  8
0
100
AcDbBlockEnd
  0
BLOCK
  5
216
330
191
100
AcDbEntity
  8
0
100
AcDbBlockBegin
  2
SE2
 70
     0
 10
0.0
 20
0.0
 30
0.0
  3
SE2
  1

  0
HATCH
  5
194
330
191
100
AcDbEntity
  8
DV3_Füllung
  6
Continuous
 62
     7
100
AcDbHatch
 10
0.0
 20
0.0
 30
0.0
210
0.0
220
0.0
230
1.0
  2
SOLID
 70
     1
 71
     0
 91
        1
 92
        1
 93
       10
 72
     2
 10
143.7165084970836
 20
142.7351570680875
 40
39.99999999999999
 50
90.34308411755687
 51
97.88804690710478
 73
     1
 72
     2
 10
138.2269924113045
 20
181.8566816872131
 40
0.5000000000000004
 50
90.0
 51
180.0
 73
     1
 72
     1
 10
137.7269924113045
 20
181.8566816872131
 11
137.7269924113045
 21
179.8493936872131
 72
     1
 10
137.7269924113045
 20
179.8493936872131
 11
138.2269924113045
 21
179.349393687213
 72
     1
 10
138.2269924113045
 20
179.349393687213
 11
139.7269924113045
 21
179.349393687213
 72
     1
 10
139.7269924113045
 20
179.349393687213
 11
148.7269924113045
 21
179.349393687213
 72
     1
 10
148.7269924113045
 20
179.349393687213
 11
149.2269924113045
 21
179.849393687213
 72
     1
 10
149.2269924113045
 20
179.849393687213
 11
149.2269924113045
 21
181.856681687213
 72
     2
 10
148.7269924113045
 20
181.8566816872131
 40
0.4999999999999691
 50
0.0
 51
90.0000277955849
 73
     1
 72
     2
 10
143.2374761064617
 20
142.7351570648317
 40
39.99999999999999
 50
82.111953126876
 51
89.65691666127489
 73
     1
 97
        0
 75
     0
 76
     1
 98
        0
  0
HATCH
  5
195
330
191
100
AcDbEntity
  8
DV3_Füllung
  6
Continuous
 62
     7
100
AcDbHatch
 10
0.0
 20
0.0
 30
0.0
210
0.0
220
0.0
230
1.0
  2
SOLID
 70
     1
 71
     0
 91
        1
 92
        1
 93
        6
 72
     2
 10
144.1604244103164
 20
146.7232609242431
 40
39.99999999999978
 50
262.1601984198181
 51
269.0210082704037
 73
     0
 72
     1
 10
143.476992505186
 20
186.7174220084693
 11
145.4900624877289
 21
186.6322683888933
 72
     1
 10
145.4900624877289
 20
186.6322683888932
 11
145.6071877860487
 21
186.7493936872131
 72
     1
 10
145.6071877860487
 20
186.7493936872131
 11
138.4769924113042
 21
186.7493936872131
 72
     1
 10
138.4769924113042
 20
186.7493936872131
 11
138.4769924113042
 21
186.5475245522397
 72
     2
 10
138.6769924113042
 20
186.5475245522397
 40
0.2000000000000063
 50
180.0
 51
277.8398015801841
 73
     1
 97
        0
 75
     0
 76
     1
 98
        0
  0
HATCH
  5
196
330
191
100
AcDbEntity
  8
DV3_Füllung
  6
Continuous
 62
     7
100
AcDbHatch
 10
0.0
 20
0.0
 30
0.0
210
0.0
220
0.0
230
1.0
  2
SOLID
 70
     1
 71
     0
 91
        1
 92
        1
 93
        5
 72
     2
 10
142.7935604123554
 20
146.7232609274506
 40
39.99999999999977
 50
274.4443742068953
 51
277.839801581405
 73
     0
 72
     2
 10
148.2769924122177
 20
186.5475245553301
 40
0.199999999999827
 50
262.1601984185851
 51
360.0
 73
     1
 72
     1
 10
148.4769924122176
 20
186.5475245553301
 11
148.4769924122175
 21
186.7493936872131
 72
     1
 10
148.4769924122175
 20
186.7493936872131
 11
145.7467970383864
 21
186.7493936872131
 72
     1
 10
145.7467970383864
 20
186.7493936872131
 11
145.8932083516219
 21
186.6029823739775
 97
        0
 75
     0
 76
     1
 98
        0
  0
HATCH
  5
197
330
191
100
AcDbEntity
  8
DV3_Füllung
  6
Continuous
 62
     7
100
AcDbHatch
 10
0.0
 20
0.0
 30
0.0
210
0.0
220
0.0
230
1.0
  2
SOLID
 70
     1
 71
     0
 91
        1
 92
        1
 93
        5
 72
     1
 10
138.2219798484111
 20
186.7493936872131
 11
136.0769924113045
 21
186.7493936872131
 72
     1
 10
136.0769924113045
 20
186.7493936872131
 11
136.0769924113045
 21
186.549393687213
 72
     2
 10
136.2769924113045
 20
186.549393687213
 40
0.1999999999999997
 50
180.0
 51
270.0
 73
     1
 72
     1
 10
136.2769924113045
 20
186.3493936872131
 11
138.093017815089
 21
186.3493936872131
 72
     2
 10
137.2269924113045
 20
186.8493936872131
 40
1.0
 50
330.0000000000003
 51
354.2608295227336
 73
     1
 97
        0
 75
     0
 76
     1
 98
        0
  0
HATCH
  5
198
330
191
100
AcDbEntity
  8
DV3_Füllung
  6
Continuous
 62
     7
100
AcDbHatch
 10
0.0
 20
0.0
 30
0.0
210
0.0
220
0.0
230
1.0
  2
SOLID
 70
     1
 71
     0
 91
        1
 92
        1
 93
        5
 72
     1
 10
148.8609670075201
 20
186.3493936872131
 11
150.6769924113045
 21
186.3493936872131
 72
     2
 10
150.6769924113045
 20
186.549393687213
 40
0.2000000000000005
 50
270.0
 51
360.0
 73
     1
 72
     1
 10
150.8769924113045
 20
186.549393687213
 11
150.8769924113045
 21
186.7493936872131
 72
     1
 10
150.8769924113045
 20
186.7493936872131
 11
148.7320049741979
 21
186.7493936872131
 72
     2
 10
149.7269924113045
 20
186.8493936872131
 40
1.0
 50
185.7391704772664
 51
210.0000000000005
 73
     1
 97
        0
 75
     0
 76
     1
 98
        0
  0
HATCH
  5
199
330
191
100
AcDbEntity
  8
DV3_Füllung
  6
Continuous
 62
     7
100
AcDbHatch
 10
0.0
 20
0.0
 30
0.0
210
0.0
220
0.0
230
1.0
  2
SOLID
 70
     1
 71
     0
 91
        1
 92
        1
 93
       40
 72
     2
 10
135.7769924113045
 20
180.1652261347801
 40
0.1999999999999969
 50
252.5007365883887
 51
360.0
 73
     0
 72
     1
 10
135.9769924113045
 20
180.1652261347801
 11
135.9769924113045
 21
178.0498592413967
 72
     2
 10
136.1769924113045
 20
178.0498592413967
 40
0.1999999999999997
 50
180.0
 51
270.0
 73
     1
 72
     1
 10
136.1769924113045
 20
177.8498592413966
 11
150.7769924113046
 21
177.8498592413966
 72
     2
 10
150.7769924113045
 20
178.0498592413967
 40
0.2000000000000005
 50
270.0
 51
360.0
 73
     1
 72
     1
 10
150.9769924113045
 20
178.0498592413967
 11
150.9769924113045
 21
180.1652261347801
 72
     2
 10
151.1769924113046
 20
180.1652261347801
 40
0.1999999999999997
 50
180.0
 51
287.499263411619
 73
     0
 72
     2
 10
143.875618747252
 20
157.0071892676614
 40
24.48177771335848
 50
287.4992634116208
 51
301.6560592396825
 73
     0
 72
     1
 10
156.7241208512902
 20
177.8464175088612
 11
158.7769924113045
 21
177.8464175088612
 72
     2
 10
158.7769924113045
 20
178.0464175088613
 40
0.2000000000001189
 50
270.0
 51
414.6913490210593
 73
     1
 72
     2
 10
143.875618747252
 20
157.0071892676614
 40
25.98177771335848
 50
54.691349021058
 51
77.1987738792282
 73
     1
 72
     2
 10
149.5769924113027
 20
182.0993936872129
 40
0.2500000000000002
 50
77.19877387923424
 51
243.6122000390129
 73
     1
 72
     2
 10
149.3769924113045
 20
181.6962807997971
 40
0.2
 50
296.3877999609856
 51
360.0
 73
     0
 72
     1
 10
149.5769924113045
 20
181.6962807997971
 11
149.5769924113045
 21
181.5025065746358
 72
     2
 10
149.3769924113045
 20
181.5025065746358
 40
0.1999999999999997
 50
0.0
 51
63.61220003876313
 73
     0
 72
     2
 10
149.5769924113045
 20
181.0993936872209
 40
0.2499999999999998
 50
116.3877999612463
 51
243.6122000387566
 73
     1
 72
     2
 10
149.3769924113045
 20
180.6962807998059
 40
0.1999999999999999
 50
296.3877999612405
 51
360.0
 73
     0
 72
     1
 10
149.5769924113045
 20
180.6962807998059
 11
149.5769924113045
 21
180.5025065746358
 72
     2
 10
149.3769924113045
 20
180.5025065746358
 40
0.1999999999999997
 50
0.0
 51
63.61220003876313
 73
     0
 72
     2
 10
149.5769924113045
 20
180.0993936872209
 40
0.2499999999999998
 50
116.3877999612463
 51
243.6122000387566
 73
     1
 72
     2
 10
149.3769924113045
 20
179.6962807998059
 40
0.1999999999999999
 50
296.3877999612405
 51
360.0
 73
     0
 72
     1
 10
149.5769924113045
 20
179.6962807998059
 11
149.5769924113045
 21
179.5493936872131
 72
     2
 10
149.3769924113045
 20
179.549393687213
 40
0.1999999999999997
 50
0.0
 51
90.0
 73
     0
 72
     1
 10
149.3769924113045
 20
179.349393687213
 11
137.5769924113045
 21
179.349393687213
 72
     2
 10
137.5769924113045
 20
179.549393687213
 40
0.2000000000000005
 50
90.0
 51
180.0
 73
     0
 72
     1
 10
137.3769924113045
 20
179.549393687213
 11
137.3769924113045
 21
179.6962807998059
 72
     2
 10
137.5769924113045
 20
179.6962807998059
 40
0.1999999999999988
 50
180.0
 51
243.6122000387522
 73
     0
 72
     2
 10
137.3769924113045
 20
180.0993936872209
 40
0.2499999999999998
 50
296.3877999612434
 51
423.6122000387538
 73
     1
 72
     2
 10
137.5769924113045
 20
180.5025065746358
 40
0.1999999999999999
 50
116.3877999612442
 51
180.0
 73
     0
 72
     1
 10
137.3769924113045
 20
180.5025065746358
 11
137.3769924113045
 21
180.6962807998059
 72
     2
 10
137.5769924113045
 20
180.6962807998059
 40
0.1999999999999997
 50
180.0
 51
243.6122000387522
 73
     0
 72
     2
 10
137.3769924113045
 20
181.0993936872209
 40
0.2499999999999998
 50
296.3877999612434
 51
423.6122000387538
 73
     1
 72
     2
 10
137.5769924113045
 20
181.5025065746358
 40
0.1999999999999999
 50
116.3877999612442
 51
180.0
 73
     0
 72
     1
 10
137.3769924113045
 20
181.5025065746358
 11
137.3769924113045
 21
181.6962807997971
 72
     2
 10
137.5769924113045
 20
181.6962807997971
 40
0.1999999999999997
 50
180.0
 51
243.6122000390144
 73
     0
 72
     2
 10
137.3769924113063
 20
182.0993936872129
 40
0.2500000000000013
 50
296.3877999609871
 51
462.8012261207721
 73
     1
 72
     2
 10
143.0783660753571
 20
157.0071892676614
 40
25.98177771335835
 50
102.8012261207718
 51
125.308650978942
 73
     1
 72
     2
 10
128.1769924113045
 20
178.0464175088613
 40
0.2000000000000665
 50
125.3086509789369
 51
270.0
 73
     1
 72
     1
 10
128.1769924113045
 20
177.8464175088612
 11
130.2298639713188
 21
177.8464175088612
 72
     2
 10
143.0783660753571
 20
157.0071892676614
 40
24.48177771335847
 50
238.3439407603174
 51
252.5007365883792
 73
     0
 97
        0
 75
     0
 76
     1
 98
        0
  0
HATCH
  5
19A
330
191
100
AcDbEntity
  8
DV3_Füllung
  6
Continuous
 62
     7
100
AcDbHatch
 10
0.0
 20
0.0
 30
0.0
210
0.0
220
0.0
230
1.0
  2
SOLID
 70
     1
 71
     0
 91
        3
 92
        1
 93
        4
 72
     1
 10
136.0769924113045
 20
219.3493936872131
 11
136.0769924113045
 21
186.7493936872131
 72
     1
 10
136.0769924113045
 20
186.7493936872131
 11
150.8769924113045
 21
186.7493936872131
 72
     1
 10
150.8769924113045
 20
186.7493936872131
 11
150.8769924113045
 21
219.3493936872131
 72
     2
 10
143.4769924113045
 20
219.3493936872131
 40
7.400000000000001
 50
0.0
 51
180.0
 73
     1
 97
        0
 92
        1
 93
        1
 72
     3
 10
145.9769924113045
 20
206.2493936872131
 11
3.065933786798643
 21
0.0
 40
1.0
 50
0.0
 51
360.0
 73
     1
 97
        0
 92
        1
 93
        1
 72
     3
 10
140.9769924113045
 20
214.2493936872131
 11
3.065933786798643
 21
0.0
 40
1.0
 50
0.0
 51
360.0
 73
     1
 97
        0
 75
     0
 76
     1
 98
        0
  0
HATCH
  5
19B
330
191
100
AcDbEntity
  8
DV3_Füllung
  6
Continuous
 62
     7
100
AcDbHatch
 10
0.0
 20
0.0
 30
0.0
210
0.0
220
0.0
230
1.0
  2
SOLID
 70
     1
 71
     0
 91
        1
 92
        1
 93
        1
 72
     3
 10
140.9769924113045
 20
214.2493936872131
 11
3.065933786798643
 21
0.0
 40
1.0
 50
0.0
 51
360.0
 73
     1
 97
        0
 75
     0
 76
     1
 98
        0
  0
HATCH
  5
19C
330
191
100
AcDbEntity
  8
DV3_Füllung
  6
Continuous
 62
     7
100
AcDbHatch
 10
0.0
 20
0.0
 30
0.0
210
0.0
220
0.0
230
1.0
  2
SOLID
 70
     1
 71
     0
 91
        1
 92
        1
 93
        1
 72
     3
 10
145.9769924113045
 20
206.2493936872131
 11
3.065933786798643
 21
0.0
 40
1.0
 50
0.0
 51
360.0
 73
     1
 97
        0
 75
     0
 76
     1
 98
        0
  0
LINE
  5
19E
330
191
100
AcDbEntity
  8
DV3_Standard
  6
Continuous
 62
     7
100
AcDbLine
 10
136.0769924113
 20
219.3493936872
 30
0.0
 11
136.0769924113
 21
186.7493936872
 31
0.0
  0
LINE
  5
19F
330
191
100
AcDbEntity
  8
DV3_Standard
  6
Continuous
 62
     7
100
AcDbLine
 10
136.0769924113
 20
186.7493936872
 30
0.0
 11
150.8769924113
 21
186.7493936872
 31
0.0
  0
LINE
  5
1A0
330
191
100
AcDbEntity
  8
DV3_Standard
  6
Continuous
 62
     7
100
AcDbLine
 10
150.8769924113
 20
186.7493936872
 30
0.0
 11
150.8769924113
 21
219.3493936872
 31
0.0
  0
ARC
  5
1A1
330
191
100
AcDbEntity
  8
DV3_Standard
  6
Continuous
 62
     7
100
AcDbCircle
 10
143.4769924113
 20
219.3493936872
 30
0.0
 40
7.400000000000001
100
AcDbArc
 50
0.0
 51
180.0
  0
LINE
  5
1A2
330
191
100
AcDbEntity
  8
DV3_Standard
  6
HIDDEN2
 62
     7
100
AcDbLine
 10
137.2269924113
 20
197.2493936872
 30
0.0
 11
137.2769924113
 21
197.2493936872
 31
0.0
  0
LINE
  5
1A3
330
191
100
AcDbEntity
  8
DV3_Standard
  6
HIDDEN2
 62
     7
100
AcDbLine
 10
149.6769924113
 20
197.2493936872
 30
0.0
 11
149.7269924113
 21
197.2493936872
 31
0.0
  0
CIRCLE
  5
1A4
330
191
100
AcDbEntity
  8
DV3_Standard
  6
Continuous
 62
     7
100
AcDbCircle
 10
145.9769924113
 20
206.2493936872
 30
0.0
 40
3.065933786798643
  0
CIRCLE
  5
1A5
330
191
100
AcDbEntity
  8
DV3_Standard
  6
Continuous
 62
     7
100
AcDbCircle
 10
140.9769924113
 20
214.2493936872
 30
0.0
 40
3.065933786798643
  0
ARC
  5
1A6
330
191
100
AcDbEntity
  8
DV3_Standard
  6
Continuous
 62
     7
100
AcDbCircle
 10
137.3769924113
 20
182.0993936872
 30
0.0
 40
0.2500000000000013
100
AcDbArc
 50
296.387799961
 51
102.8012261208
  0
ARC
  5
1A7
330
191
100
AcDbEntity
  8
DV3_Standard
  6
Continuous
 62
     7
100
AcDbCircle
 10
143.0783660754
 20
157.0071892677
 30
0.0
 40
25.98177771335835
100
AcDbArc
 50
102.8012261208
 51
125.3086509789
  0
ARC
  5
1A8
330
191
100
AcDbEntity
  8
DV3_Standard
  6
Continuous
 62
     7
100
AcDbCircle
 10
128.1769924113
 20
178.0464175089
 30
0.0
 40
0.2000000000000665
100
AcDbArc
 50
125.3086509789
 51
270.0
  0
LINE
  5
1A9
330
191
100
AcDbEntity
  8
DV3_Standard
  6
Continuous
 62
     7
100
AcDbLine
 10
130.2298639713
 20
177.8464175089
 30
0.0
 11
128.1769924113
 21
177.8464175089
 31
0.0
  0
ARC
  5
1AA
330
191
100
AcDbEntity
  8
DV3_Standard
  6
Continuous
 62
     7
100
AcDbCircle
 10
143.8756187473
 20
157.0071892677
 30
0.0
 40
24.48177771335848
100
AcDbArc
 50
58.3439407603
 51
72.5007365884
  0
LINE
  5
1AB
330
191
100
AcDbEntity
  8
DV3_Standard
  6
Continuous
 62
     7
100
AcDbLine
 10
158.7769924113
 20
177.8464175089
 30
0.0
 11
156.7241208513
 21
177.8464175089
 31
0.0
  0
ARC
  5
1AC
330
191
100
AcDbEntity
  8
DV3_Standard
  6
Continuous
 62
     7
100
AcDbCircle
 10
158.7769924113
 20
178.0464175089
 30
0.0
 40
0.2000000000001189
100
AcDbArc
 50
270.0
 51
54.6913490211
  0
ARC
  5
1AD
330
191
100
AcDbEntity
  8
DV3_Standard
  6
Continuous
 62
     7
100
AcDbCircle
 10
143.8756187473
 20
157.0071892677
 30
0.0
 40
25.98177771335848
100
AcDbArc
 50
54.6913490211
 51
77.1987738792
  0
LINE
  5
1AE
330
191
100
AcDbEntity
  8
DV3_Standard
  6
Continuous
 62
     7
100
AcDbLine
 10
137.3769924113
 20
181.6962807998
 30
0.0
 11
137.3769924113
 21
181.5025065746
 31
0.0
  0
ARC
  5
1AF
330
191
100
AcDbEntity
  8
DV3_Standard
  6
Continuous
 62
     7
100
AcDbCircle
 10
137.5769924113
 20
181.6962807998
 30
0.0
 40
0.1999999999999997
100
AcDbArc
 50
116.387799961
 51
180.0
  0
LINE
  5
1B0
330
191
100
AcDbEntity
  8
DV3_Standard
  6
Continuous
 62
     7
100
AcDbLine
 10
137.5769924113
 20
179.3493936872
 30
0.0
 11
149.3769924113
 21
179.3493936872
 31
0.0
  0
ARC
  5
1B1
330
191
100
AcDbEntity
  8
DV3_Standard
  6
Continuous
 62
     7
100
AcDbCircle
 10
137.5769924113
 20
179.5493936872
 30
0.0
 40
0.2000000000000005
100
AcDbArc
 50
180.0
 51
270.0
  0
LINE
  5
1B2
330
191
100
AcDbEntity
  8
DV3_Standard
  6
Continuous
 62
     7
100
AcDbLine
 10
137.3769924113
 20
179.6962807998
 30
0.0
 11
137.3769924113
 21
179.5493936872
 31
0.0
  0
ARC
  5
1B3
330
191
100
AcDbEntity
  8
DV3_Standard
  6
Continuous
 62
     7
100
AcDbCircle
 10
137.5769924113
 20
179.6962807998
 30
0.0
 40
0.1999999999999988
100
AcDbArc
 50
116.3877999612
 51
180.0
  0
ARC
  5
1B4
330
191
100
AcDbEntity
  8
DV3_Standard
  6
Continuous
 62
     7
100
AcDbCircle
 10
137.3769924113
 20
180.0993936872
 30
0.0
 40
0.2499999999999998
100
AcDbArc
 50
296.3877999612
 51
63.6122000388
  0
ARC
  5
1B5
330
191
100
AcDbEntity
  8
DV3_Standard
  6
Continuous
 62
     7
100
AcDbCircle
 10
137.5769924113
 20
180.5025065746
 30
0.0
 40
0.1999999999999999
100
AcDbArc
 50
180.0
 51
243.6122000388
  0
LINE
  5
1B6
330
191
100
AcDbEntity
  8
DV3_Standard
  6
Continuous
 62
     7
100
AcDbLine
 10
137.3769924113
 20
180.6962807998
 30
0.0
 11
137.3769924113
 21
180.5025065746
 31
0.0
  0
ARC
  5
1B7
330
191
100
AcDbEntity
  8
DV3_Standard
  6
Continuous
 62
     7
100
AcDbCircle
 10
137.5769924113
 20
180.6962807998
 30
0.0
 40
0.1999999999999997
100
AcDbArc
 50
116.3877999612
 51
180.0
  0
ARC
  5
1B8
330
191
100
AcDbEntity
  8
DV3_Standard
  6
Continuous
 62
     7
100
AcDbCircle
 10
137.3769924113
 20
181.0993936872
 30
0.0
 40
0.2499999999999998
100
AcDbArc
 50
296.3877999612
 51
63.6122000388
  0
ARC
  5
1B9
330
191
100
AcDbEntity
  8
DV3_Standard
  6
Continuous
 62
     7
100
AcDbCircle
 10
137.5769924113
 20
181.5025065746
 30
0.0
 40
0.1999999999999999
100
AcDbArc
 50
180.0
 51
243.6122000388
  0
ARC
  5
1BA
330
191
100
AcDbEntity
  8
DV3_Standard
  6
Continuous
 62
     7
100
AcDbCircle
 10
149.5769924113
 20
182.0993936872
 30
0.0
 40
0.2500000000000002
100
AcDbArc
 50
77.1987738792
 51
243.612200039
  0
ARC
  5
1BB
330
191
100
AcDbEntity
  8
DV3_Standard
  6
Continuous
 62
     7
100
AcDbCircle
 10
149.3769924113
 20
181.6962807998
 30
0.0
 40
0.2
100
AcDbArc
 50
0.0
 51
63.612200039
  0
LINE
  5
1BC
330
191
100
AcDbEntity
  8
DV3_Standard
  6
Continuous
 62
     7
100
AcDbLine
 10
149.5769924113
 20
179.5493936872
 30
0.0
 11
149.5769924113
 21
179.6962807998
 31
0.0
  0
ARC
  5
1BD
330
191
100
AcDbEntity
  8
DV3_Standard
  6
Continuous
 62
     7
100
AcDbCircle
 10
149.3769924113
 20
179.5493936872
 30
0.0
 40
0.1999999999999997
100
AcDbArc
 50
270.0
 51
0.0
  0
ARC
  5
1BE
330
191
100
AcDbEntity
  8
DV3_Standard
  6
Continuous
 62
     7
100
AcDbCircle
 10
149.5769924113
 20
180.0993936872
 30
0.0
 40
0.2499999999999998
100
AcDbArc
 50
116.3877999612
 51
243.6122000388
  0
ARC
  5
1BF
330
191
100
AcDbEntity
  8
DV3_Standard
  6
Continuous
 62
     7
100
AcDbCircle
 10
149.3769924113
 20
179.6962807998
 30
0.0
 40
0.1999999999999999
100
AcDbArc
 50
0.0
 51
63.6122000388
  0
LINE
  5
1C0
330
191
100
AcDbEntity
  8
DV3_Standard
  6
Continuous
 62
     7
100
AcDbLine
 10
149.5769924113
 20
180.5025065746
 30
0.0
 11
149.5769924113
 21
180.6962807998
 31
0.0
  0
ARC
  5
1C1
330
191
100
AcDbEntity
  8
DV3_Standard
  6
Continuous
 62
     7
100
AcDbCircle
 10
149.3769924113
 20
180.5025065746
 30
0.0
 40
0.1999999999999997
100
AcDbArc
 50
296.3877999612
 51
0.0
  0
ARC
  5
1C2
330
191
100
AcDbEntity
  8
DV3_Standard
  6
Continuous
 62
     7
100
AcDbCircle
 10
149.5769924113
 20
181.0993936872
 30
0.0
 40
0.2499999999999998
100
AcDbArc
 50
116.3877999612
 51
243.6122000388
  0
ARC
  5
1C3
330
191
100
AcDbEntity
  8
DV3_Standard
  6
Continuous
 62
     7
100
AcDbCircle
 10
149.3769924113
 20
180.6962807998
 30
0.0
 40
0.1999999999999999
100
AcDbArc
 50
0.0
 51
63.6122000388
  0
LINE
  5
1C4
330
191
100
AcDbEntity
  8
DV3_Standard
  6
Continuous
 62
     7
100
AcDbLine
 10
149.5769924113
 20
181.5025065746
 30
0.0
 11
149.5769924113
 21
181.6962807998
 31
0.0
  0
ARC
  5
1C5
330
191
100
AcDbEntity
  8
DV3_Standard
  6
Continuous
 62
     7
100
AcDbCircle
 10
149.3769924113
 20
181.5025065746
 30
0.0
 40
0.1999999999999997
100
AcDbArc
 50
296.3877999612
 51
0.0
  0
LINE
  5
1C6
330
191
100
AcDbEntity
  8
DV3_Standard
  6
Continuous
 62
     7
100
AcDbLine
 10
135.9769924113
 20
178.0498592414
 30
0.0
 11
135.9769924113
 21
180.1652261348
 31
0.0
  0
ARC
  5
1C7
330
191
100
AcDbEntity
  8
DV3_Standard
  6
Continuous
 62
     7
100
AcDbCircle
 10
136.1769924113
 20
178.0498592414
 30
0.0
 40
0.1999999999999997
100
AcDbArc
 50
180.0
 51
270.0
  0
LINE
  5
1C8
330
191
100
AcDbEntity
  8
DV3_Standard
  6
Continuous
 62
     7
100
AcDbLine
 10
150.7769924113
 20
177.8498592414
 30
0.0
 11
136.1769924113
 21
177.8498592414
 31
0.0
  0
ARC
  5
1C9
330
191
100
AcDbEntity
  8
DV3_Standard
  6
Continuous
 62
     7
100
AcDbCircle
 10
150.7769924113
 20
178.0498592414
 30
0.0
 40
0.2000000000000005
100
AcDbArc
 50
270.0
 51
0.0
  0
LINE
  5
1CA
330
191
100
AcDbEntity
  8
DV3_Standard
  6
Continuous
 62
     7
100
AcDbLine
 10
150.9769924113
 20
180.1652261348
 30
0.0
 11
150.9769924113
 21
178.0498592414
 31
0.0
  0
ARC
  5
1CB
330
191
100
AcDbEntity
  8
DV3_Standard
  6
Continuous
 62
     7
100
AcDbCircle
 10
151.1769924113
 20
180.1652261348
 30
0.0
 40
0.1999999999999997
100
AcDbArc
 50
72.5007365884
 51
180.0
  0
ARC
  5
1CC
330
191
100
AcDbEntity
  8
DV3_Standard
  6
Continuous
 62
     7
100
AcDbCircle
 10
143.0783660754
 20
157.0071892677
 30
0.0
 40
24.48177771335847
100
AcDbArc
 50
107.4992634116
 51
121.6560592397
  0
ARC
  5
1CD
330
191
100
AcDbEntity
  8
DV3_Standard
  6
Continuous
 62
     7
100
AcDbCircle
 10
135.7769924113
 20
180.1652261348
 30
0.0
 40
0.1999999999999969
100
AcDbArc
 50
0.0
 51
107.4992634116
  0
LINE
  5
1CE
330
191
100
AcDbEntity
  8
DV3_Standard
  6
HIDDEN2
 62
     7
100
AcDbLine
 10
138.4769924113
 20
193.5493939157
 30
0.0
 11
137.4109674143
 21
193.5493939157
 31
0.0
  0
LINE
  5
1CF
330
191
100
AcDbEntity
  8
DV3_Standard
  6
Continuous
 62
     7
100
AcDbLine
 10
138.4769924113
 20
186.5475245522
 30
0.0
 11
138.4769924113
 21
186.7493936872
 31
0.0
  0
LINE
  5
1D0
330
191
100
AcDbEntity
  8
DV3_Standard
  6
HIDDEN2
 62
     7
100
AcDbLine
 10
138.4769924113
 20
186.7493936872
 30
0.0
 11
138.4769924113
 21
193.5493939157
 31
0.0
  0
ARC
  5
1D1
330
191
100
AcDbEntity
  8
DV3_Standard
  6
Continuous
 62
     7
100
AcDbCircle
 10
138.6769924113
 20
186.5475245522
 30
0.0
 40
0.2000000000000063
100
AcDbArc
 50
180.0
 51
277.8398015802
  0
ARC
  5
1D2
330
191
100
AcDbEntity
  8
DV3_Standard
  6
Continuous
 62
     7
100
AcDbCircle
 10
144.1604244103
 20
146.7232609242
 30
0.0
 40
39.99999999999978
100
AcDbArc
 50
90.9789917296
 51
97.8398015802
  0
ARC
  5
1D3
330
191
100
AcDbEntity
  8
DV3_Standard
  6
Continuous
 62
     7
100
AcDbCircle
 10
142.7935604124
 20
146.7232609275
 30
0.0
 40
39.99999999999977
100
AcDbArc
 50
82.1601984186
 51
85.5556257931
  0
ARC
  5
1D4
330
191
100
AcDbEntity
  8
DV3_Standard
  6
Continuous
 62
     7
100
AcDbCircle
 10
148.2769924122
 20
186.5475245553
 30
0.0
 40
0.199999999999827
100
AcDbArc
 50
262.1601984186
 51
0.0
  0
LINE
  5
1D5
330
191
100
AcDbEntity
  8
DV3_Standard
  6
HIDDEN2
 62
     7
100
AcDbLine
 10
148.4769924122
 20
193.5493939218
 30
0.0
 11
148.4769924122
 21
186.7493936872
 31
0.0
  0
LINE
  5
1D6
330
191
100
AcDbEntity
  8
DV3_Standard
  6
Continuous
 62
     7
100
AcDbLine
 10
148.4769924122
 20
186.7493936872
 30
0.0
 11
148.4769924122
 21
186.5475245553
 31
0.0
  0
LINE
  5
1D7
330
191
100
AcDbEntity
  8
DV3_Standard
  6
HIDDEN2
 62
     7
100
AcDbLine
 10
149.5430184752
 20
193.5493939218
 30
0.0
 11
148.4769924122
 21
193.5493939218
 31
0.0
  0
ARC
  5
1D8
330
191
100
AcDbEntity
  8
DV3_Standard
  6
HIDDEN2
 62
     7
100
AcDbCircle
 10
148.6769929669
 20
194.0493937408
 30
0.0
 40
1.0
100
AcDbArc
 50
330.00001198
 51
29.9999964571
  0
ARC
  5
1D9
330
191
100
AcDbEntity
  8
DV3_Standard
  6
HIDDEN2
 62
     7
100
AcDbCircle
 10
145.1894570288
 20
194.3493936872
 30
0.0
 40
0.2000000000000054
100
AcDbArc
 50
90.0
 51
201.2138611147
  0
LINE
  5
1DA
330
191
100
AcDbEntity
  8
DV3_Standard
  6
HIDDEN2
 62
     7
100
AcDbLine
 10
145.9560256691
 20
191.8217639278
 30
0.0
 11
145.003009771
 21
194.2770236654
 31
0.0
  0
ARC
  5
1DB
330
191
100
AcDbEntity
  8
DV3_Standard
  6
HIDDEN2
 62
     7
100
AcDbCircle
 10
145.7695784113
 20
191.749393906
 30
0.0
 40
0.2000000000000057
100
AcDbArc
 50
270.0
 51
21.2138611147
  0
LINE
  5
1DC
330
191
100
AcDbEntity
  8
DV3_Standard
  6
HIDDEN2
 62
     7
100
AcDbLine
 10
141.1844064113
 20
191.549393906
 30
0.0
 11
145.7695784113
 21
191.549393906
 31
0.0
  0
ARC
  5
1DD
330
191
100
AcDbEntity
  8
DV3_Standard
  6
HIDDEN2
 62
     7
100
AcDbCircle
 10
141.1844064113
 20
191.749393906
 30
0.0
 40
0.2000000000000056
100
AcDbArc
 50
158.7861388853
 51
270.0
  0
LINE
  5
1DE
330
191
100
AcDbEntity
  8
DV3_Standard
  6
HIDDEN2
 62
     7
100
AcDbLine
 10
141.9509751826
 20
194.2770240027
 30
0.0
 11
140.9979591535
 21
191.8217639278
 31
0.0
  0
ARC
  5
1DF
330
191
100
AcDbEntity
  8
DV3_Standard
  6
HIDDEN2
 62
     7
100
AcDbCircle
 10
141.7645279248
 20
194.3493940245
 30
0.0
 40
0.2000000000000057
100
AcDbArc
 50
338.7861388853
 51
90.0
  0
ARC
  5
1E0
330
191
100
AcDbEntity
  8
DV3_Standard
  6
HIDDEN2
 62
     7
100
AcDbCircle
 10
138.2769928327
 20
194.0493938903
 30
0.0
 40
1.000000000000001
100
AcDbArc
 50
149.9999911204
 51
209.9999983237
  0
ARC
  5
1E1
330
191
100
AcDbEntity
  8
DV3_Standard
  6
Continuous
 62
     7
100
AcDbCircle
 10
142.7935604124
 20
146.7232609275
 30
0.0
 40
39.99999999999979
100
AcDbArc
 50
86.1346138352
 51
89.0210080015
  0
LINE
  5
1E2
330
191
100
AcDbEntity
  8
DV3_Standard
  6
HIDDEN2
 62
     7
100
AcDbLine
 10
145.6769924122
 20
186.8191983134
 30
0.0
 11
145.607187786
 21
186.7493936872
 31
0.0
  0
LINE
  5
1E3
330
191
100
AcDbEntity
  8
DV3_Standard
  6
Continuous
 62
     7
100
AcDbLine
 10
145.607187786
 20
186.7493936872
 30
0.0
 11
145.4900624877
 21
186.6322683889
 31
0.0
  0
LINE
  5
1E4
330
191
100
AcDbEntity
  8
DV3_Standard
  6
HIDDEN2
 62
     7
100
AcDbLine
 10
145.6769924122
 20
186.8191983134
 30
0.0
 11
145.7467970384
 21
186.7493936872
 31
0.0
  0
LINE
  5
1E5
330
191
100
AcDbEntity
  8
DV3_Standard
  6
Continuous
 62
     7
100
AcDbLine
 10
145.7467970384
 20
186.7493936872
 30
0.0
 11
145.8932083516
 21
186.602982374
 31
0.0
  0
LINE
  5
1E6
330
191
100
AcDbEntity
  8
DV3_Standard
  6
HIDDEN2
 62
     7
100
AcDbLine
 10
138.0930178151
 20
187.3493936872
 30
0.0
 11
137.2769924113
 21
187.3493936872
 31
0.0
  0
ARC
  5
1E7
330
191
100
AcDbEntity
  8
DV3_Standard
  6
Continuous
 62
     7
100
AcDbCircle
 10
137.2269924113
 20
186.8493936872
 30
0.0
 40
1.0
100
AcDbArc
 50
330.0
 51
354.2608295227
  0
ARC
  5
1E8
330
191
100
AcDbEntity
  8
DV3_Standard
  6
HIDDEN2
 62
     7
100
AcDbCircle
 10
137.2269924113
 20
186.8493936872
 30
0.0
 40
1.0
100
AcDbArc
 50
354.2608295227
 51
30.0
  0
LINE
  5
1E9
330
191
100
AcDbEntity
  8
DV3_Standard
  6
Continuous
 62
     7
100
AcDbLine
 10
148.8609670075
 20
186.3493936872
 30
0.0
 11
150.6769924113
 21
186.3493936872
 31
0.0
  0
ARC
  5
1EA
330
191
100
AcDbEntity
  8
DV3_Standard
  6
HIDDEN2
 62
     7
100
AcDbCircle
 10
149.7269924113
 20
186.8493936872
 30
0.0
 40
1.0
100
AcDbArc
 50
150.0
 51
185.7391704773
  0
ARC
  5
1EB
330
191
100
AcDbEntity
  8
DV3_Standard
  6
Continuous
 62
     7
100
AcDbCircle
 10
149.7269924113
 20
186.8493936872
 30
0.0
 40
1.0
100
AcDbArc
 50
185.7391704773
 51
210.0
  0
LINE
  5
1EC
330
191
100
AcDbEntity
  8
DV3_Standard
  6
Continuous
 62
     7
100
AcDbLine
 10
136.0769924113
 20
186.7493936872
 30
0.0
 11
136.0769924113
 21
186.5493936872
 31
0.0
  0
ARC
  5
1ED
330
191
100
AcDbEntity
  8
DV3_Standard
  6
HIDDEN2
 62
     7
100
AcDbCircle
 10
136.2769924113
 20
198.0493936872
 30
0.0
 40
0.1999999999999988
100
AcDbArc
 50
90.0
 51
180.0
  0
LINE
  5
1EE
330
191
100
AcDbEntity
  8
DV3_Standard
  6
Continuous
 62
     7
100
AcDbLine
 10
136.2769924113
 20
186.3493936872
 30
0.0
 11
138.0930178151
 21
186.3493936872
 31
0.0
  0
ARC
  5
1EF
330
191
100
AcDbEntity
  8
DV3_Standard
  6
Continuous
 62
     7
100
AcDbCircle
 10
136.2769924113
 20
186.5493936872
 30
0.0
 40
0.1999999999999997
100
AcDbArc
 50
180.0
 51
270.0
  0
LINE
  5
1F0
330
191
100
AcDbEntity
  8
DV3_Standard
  6
HIDDEN2
 62
     7
100
AcDbLine
 10
137.0769924113
 20
187.5493936872
 30
0.0
 11
137.0769924113
 21
194.3493936872
 31
0.0
  0
ARC
  5
1F1
330
191
100
AcDbEntity
  8
DV3_Standard
  6
HIDDEN2
 62
     7
100
AcDbCircle
 10
137.2769924113
 20
187.5493936872
 30
0.0
 40
0.2000000000000005
100
AcDbArc
 50
180.0
 51
270.0
  0
LINE
  5
1F2
330
191
100
AcDbEntity
  8
DV3_Standard
  6
HIDDEN2
 62
     7
100
AcDbLine
 10
137.2769924113
 20
194.5493936872
 30
0.0
 11
149.6769924113
 21
194.5493936872
 31
0.0
  0
ARC
  5
1F3
330
191
100
AcDbEntity
  8
DV3_Standard
  6
HIDDEN2
 62
     7
100
AcDbCircle
 10
137.2769924113
 20
194.3493936872
 30
0.0
 40
0.1999999999999997
100
AcDbArc
 50
90.0
 51
180.0
  0
LINE
  5
1F4
330
191
100
AcDbEntity
  8
DV3_Standard
  6
HIDDEN2
 62
     7
100
AcDbLine
 10
137.0769924113
 20
195.7493936872
 30
0.0
 11
137.0769924113
 21
197.0493936872
 31
0.0
  0
ARC
  5
1F5
330
191
100
AcDbEntity
  8
DV3_Standard
  6
HIDDEN2
 62
     7
100
AcDbCircle
 10
137.2769924113
 20
195.7493936872
 30
0.0
 40
0.1999999999999997
100
AcDbArc
 50
180.0
 51
270.0
  0
LINE
  5
1F6
330
191
100
AcDbEntity
  8
DV3_Standard
  6
HIDDEN2
 62
     7
100
AcDbLine
 10
137.2769924113
 20
197.2493936872
 30
0.0
 11
138.8769924113
 21
197.2493936872
 31
0.0
  0
ARC
  5
1F7
330
191
100
AcDbEntity
  8
DV3_Standard
  6
HIDDEN2
 62
     7
100
AcDbCircle
 10
137.2769924113
 20
197.0493936872
 30
0.0
 40
0.1999999999999997
100
AcDbArc
 50
90.0
 51
180.0
  0
LINE
  5
1F8
330
191
100
AcDbEntity
  8
DV3_Standard
  6
HIDDEN2
 62
     7
100
AcDbLine
 10
138.8769924113
 20
198.2493936872
 30
0.0
 11
136.2769924113
 21
198.2493936872
 31
0.0
  0
ARC
  5
1F9
330
191
100
AcDbEntity
  8
DV3_Standard
  6
HIDDEN2
 62
     7
100
AcDbCircle
 10
138.8769924113
 20
198.0493936872
 30
0.0
 40
0.1999999999999997
100
AcDbArc
 50
0.0
 51
90.0
  0
LINE
  5
1FA
330
191
100
AcDbEntity
  8
DV3_Standard
  6
HIDDEN2
 62
     7
100
AcDbLine
 10
139.0769924113
 20
197.4493936872
 30
0.0
 11
139.0769924113
 21
198.0493936872
 31
0.0
  0
ARC
  5
1FB
330
191
100
AcDbEntity
  8
DV3_Standard
  6
HIDDEN2
 62
     7
100
AcDbCircle
 10
138.8769924113
 20
197.4493936872
 30
0.0
 40
0.2000000000000005
100
AcDbArc
 50
270.0
 51
0.0
  0
LINE
  5
1FC
330
191
100
AcDbEntity
  8
DV3_Standard
  6
HIDDEN2
 62
     7
100
AcDbLine
 10
147.8769924113
 20
198.0493936872
 30
0.0
 11
147.8769924113
 21
197.4493936872
 31
0.0
  0
ARC
  5
1FD
330
191
100
AcDbEntity
  8
DV3_Standard
  6
HIDDEN2
 62
     7
100
AcDbCircle
 10
148.0769924113
 20
198.0493936872
 30
0.0
 40
0.1999999999999988
100
AcDbArc
 50
90.0
 51
180.0
  0
LINE
  5
1FE
330
191
100
AcDbEntity
  8
DV3_Standard
  6
HIDDEN2
 62
     7
100
AcDbLine
 10
149.8769924113
 20
194.3493936872
 30
0.0
 11
149.8769924113
 21
187.5493936872
 31
0.0
  0
ARC
  5
1FF
330
191
100
AcDbEntity
  8
DV3_Standard
  6
HIDDEN2
 62
     7
100
AcDbCircle
 10
149.6769924113
 20
194.3493936872
 30
0.0
 40
0.1999999999999997
100
AcDbArc
 50
0.0
 51
90.0
  0
LINE
  5
200
330
191
100
AcDbEntity
  8
DV3_Standard
  6
HIDDEN2
 62
     7
100
AcDbLine
 10
150.6769924113
 20
198.2493936872
 30
0.0
 11
148.0769924113
 21
198.2493936872
 31
0.0
  0
ARC
  5
201
330
191
100
AcDbEntity
  8
DV3_Standard
  6
HIDDEN2
 62
     7
100
AcDbCircle
 10
150.6769924113
 20
198.0493936872
 30
0.0
 40
0.1999999999999997
100
AcDbArc
 50
0.0
 51
90.0
  0
LINE
  5
202
330
191
100
AcDbEntity
  8
DV3_Standard
  6
HIDDEN2
 62
     7
100
AcDbLine
 10
148.0769924113
 20
197.2493936872
 30
0.0
 11
149.6769924113
 21
197.2493936872
 31
0.0
  0
ARC
  5
203
330
191
100
AcDbEntity
  8
DV3_Standard
  6
HIDDEN2
 62
     7
100
AcDbCircle
 10
148.0769924113
 20
197.4493936872
 30
0.0
 40
0.1999999999999997
100
AcDbArc
 50
180.0
 51
270.0
  0
LINE
  5
204
330
191
100
AcDbEntity
  8
DV3_Standard
  6
HIDDEN2
 62
     7
100
AcDbLine
 10
149.8769924113
 20
197.0493936872
 30
0.0
 11
149.8769924113
 21
195.7493936872
 31
0.0
  0
ARC
  5
205
330
191
100
AcDbEntity
  8
DV3_Standard
  6
HIDDEN2
 62
     7
100
AcDbCircle
 10
149.6769924113
 20
197.0493936872
 30
0.0
 40
0.1999999999999988
100
AcDbArc
 50
0.0
 51
90.0
  0
LINE
  5
206
330
191
100
AcDbEntity
  8
DV3_Standard
  6
HIDDEN2
 62
     7
100
AcDbLine
 10
149.6769924113
 20
195.5493936872
 30
0.0
 11
137.2769924113
 21
195.5493936872
 31
0.0
  0
ARC
  5
207
330
191
100
AcDbEntity
  8
DV3_Standard
  6
HIDDEN2
 62
     7
100
AcDbCircle
 10
149.6769924113
 20
195.7493936872
 30
0.0
 40
0.1999999999999997
100
AcDbArc
 50
270.0
 51
0.0
  0
LINE
  5
208
330
191
100
AcDbEntity
  8
DV3_Standard
  6
Continuous
 62
     7
100
AcDbLine
 10
150.8769924113
 20
186.5493936872
 30
0.0
 11
150.8769924113
 21
186.7493936872
 31
0.0
  0
ARC
  5
209
330
191
100
AcDbEntity
  8
DV3_Standard
  6
Continuous
 62
     7
100
AcDbCircle
 10
150.6769924113
 20
186.5493936872
 30
0.0
 40
0.2000000000000005
100
AcDbArc
 50
270.0
 51
0.0
  0
LINE
  5
20A
330
191
100
AcDbEntity
  8
DV3_Standard
  6
HIDDEN2
 62
     7
100
AcDbLine
 10
149.6769924113
 20
187.3493936872
 30
0.0
 11
148.8609670075
 21
187.3493936872
 31
0.0
  0
ARC
  5
20B
330
191
100
AcDbEntity
  8
DV3_Standard
  6
HIDDEN2
 62
     7
100
AcDbCircle
 10
149.6769924113
 20
187.5493936872
 30
0.0
 40
0.1999999999999997
100
AcDbArc
 50
270.0
 51
0.0
  0
ARC
  5
20C
330
191
100
AcDbEntity
  8
DV3_Standard
  6
Continuous
 62
     7
100
AcDbCircle
 10
143.2374761065
 20
142.7351570648
 30
0.0
 40
39.99999999999999
100
AcDbArc
 50
82.1119531269
 51
89.6569166613
  0
ARC
  5
20D
330
191
100
AcDbEntity
  8
DV3_Standard
  6
Continuous
 62
     7
100
AcDbCircle
 10
148.7269924113
 20
181.8566816872
 30
0.0
 40
0.4999999999999691
100
AcDbArc
 50
0.0
 51
90.0000277956
  0
LINE
  5
20E
330
191
100
AcDbEntity
  8
DV3_Standard
  6
Continuous
 62
     7
100
AcDbLine
 10
149.2269924113
 20
181.8566816872
 30
0.0
 11
149.2269924113
 21
179.8493936872
 31
0.0
  0
LINE
  5
20F
330
191
100
AcDbEntity
  8
DV3_Standard
  6
Continuous
 62
     7
100
AcDbLine
 10
149.2269924113
 20
179.8493936872
 30
0.0
 11
148.7269924113
 21
179.3493936872
 31
0.0
  0
LINE
  5
210
330
191
100
AcDbEntity
  8
DV3_Standard
  6
Continuous
 62
     7
100
AcDbLine
 10
148.7269924113
 20
179.3493936872
 30
0.0
 11
140.7269924113
 21
179.3493936872
 31
0.0
  0
LINE
  5
211
330
191
100
AcDbEntity
  8
DV3_Standard
  6
Continuous
 62
     7
100
AcDbLine
 10
138.2269924113
 20
179.3493936872
 30
0.0
 11
137.7269924113
 21
179.8493936872
 31
0.0
  0
LINE
  5
212
330
191
100
AcDbEntity
  8
DV3_Standard
  6
Continuous
 62
     7
100
AcDbLine
 10
137.7269924113
 20
179.8493936872
 30
0.0
 11
137.7269924113
 21
181.8566816872
 31
0.0
  0
ARC
  5
213
330
191
100
AcDbEntity
  8
DV3_Standard
  6
Continuous
 62
     7
100
AcDbCircle
 10
138.2269924113
 20
181.8566816872
 30
0.0
 40
0.5000000000000004
100
AcDbArc
 50
90.0
 51
180.0
  0
ARC
  5
214
330
191
100
AcDbEntity
  8
DV3_Standard
  6
Continuous
 62
     7
100
AcDbCircle
 10
143.7165084971
 20
142.7351570681
 30
0.0
 40
39.99999999999999
100
AcDbArc
 50
90.3430841176
 51
97.8880469071
  0
LINE
  5
215
330
191
100
AcDbEntity
  8
DV3_Standard
  6
Continuous
 62
     7
100
AcDbLine
 10
139.7269924113
 20
179.3493936872
 30
0.0
 11
138.2269924113
 21
179.3493936872
 31
0.0
  0
ENDBLK
  5
217
330
191
100
AcDbEntity
  8
0
100
AcDbBlockEnd
  0
BLOCK
  5
296
330
218
100
AcDbEntity
  8
0
100
AcDbBlockBegin
  2
SE3
 70
     0
 10
0.0
 20
0.0
 30
0.0
  3
SE3
  1

  0
HATCH
  5
21B
330
218
100
AcDbEntity
  8
DV4_Füllung
  6
Continuous
 62
     7
100
AcDbHatch
 10
0.0
 20
0.0
 30
0.0
210
0.0
220
0.0
230
1.0
  2
SOLID
 70
     1
 71
     0
 91
        1
 92
        1
 93
       36
 72
     2
 10
137.2769924113045
 20
123.4695663878293
 40
0.1999999999999997
 50
180.0
 51
270.0
 73
     0
 72
     1
 10
137.2769924113045
 20
123.6695663878293
 11
138.8769924113045
 21
123.6695663878293
 72
     2
 10
138.8769924113045
 20
123.8695663878293
 40
0.2000000000000005
 50
270.0
 51
360.0
 73
     1
 72
     1
 10
139.0769924113045
 20
123.8695663878293
 11
139.0769924113045
 21
124.4695663878293
 72
     2
 10
138.8769924113045
 20
124.4695663878293
 40
0.1999999999999997
 50
0.0
 51
90.0
 73
     1
 72
     1
 10
138.8769924113045
 20
124.6695663878293
 11
136.2769924113045
 21
124.6695663878293
 72
     2
 10
136.2769924113045
 20
124.4695663878293
 40
0.1999999999999988
 50
90.0
 51
180.0
 73
     1
 72
     1
 10
136.0769924113045
 20
124.4695663878293
 11
136.0769924113045
 21
112.9695663878293
 72
     2
 10
136.2769924113045
 20
112.9695663878293
 40
0.1999999999999997
 50
180.0
 51
270.0
 73
     1
 72
     1
 10
136.2769924113045
 20
112.7695663878293
 11
138.093017815089
 21
112.7695663878293
 72
     2
 10
137.2269924113045
 20
113.2695663878293
 40
1.0
 50
330.0000000000003
 51
389.9999999999997
 73
     1
 72
     1
 10
138.093017815089
 20
113.7695663878293
 11
137.2769924113045
 21
113.7695663878293
 72
     2
 10
137.2769924113045
 20
113.9695663878293
 40
0.2000000000000005
 50
90.0
 51
180.0
 73
     0
 72
     1
 10
137.0769924113045
 20
113.9695663878293
 11
137.0769924113045
 21
120.7695663878293
 72
     2
 10
137.2769924113045
 20
120.7695663878293
 40
0.1999999999999997
 50
180.0
 51
270.0
 73
     0
 72
     1
 10
137.2769924113045
 20
120.9695663878293
 11
149.6769924113045
 21
120.9695663878293
 72
     2
 10
149.6769924113045
 20
120.7695663878293
 40
0.1999999999999997
 50
270.0
 51
360.0
 73
     0
 72
     1
 10
149.8769924113045
 20
120.7695663878293
 11
149.8769924113045
 21
113.9695663878293
 72
     2
 10
149.6769924113045
 20
113.9695663878293
 40
0.1999999999999997
 50
0.0
 51
90.0
 73
     0
 72
     1
 10
149.6769924113045
 20
113.7695663878293
 11
148.8609670075201
 21
113.7695663878293
 72
     2
 10
149.7269924113045
 20
113.2695663878293
 40
1.0
 50
149.9999999999995
 51
210.0000000000005
 73
     1
 72
     1
 10
148.8609670075201
 20
112.7695663878293
 11
150.6769924113045
 21
112.7695663878293
 72
     2
 10
150.6769924113045
 20
112.9695663878293
 40
0.2000000000000005
 50
270.0
 51
360.0
 73
     1
 72
     1
 10
150.8769924113045
 20
112.9695663878293
 11
150.8769924113045
 21
124.4695663878293
 72
     2
 10
150.6769924113045
 20
124.4695663878293
 40
0.1999999999999997
 50
0.0
 51
90.0
 73
     1
 72
     1
 10
150.6769924113045
 20
124.6695663878293
 11
148.0769924113045
 21
124.6695663878293
 72
     2
 10
148.0769924113045
 20
124.4695663878293
 40
0.1999999999999988
 50
90.0
 51
180.0
 73
     1
 72
     1
 10
147.8769924113045
 20
124.4695663878293
 11
147.8769924113045
 21
123.8695663878293
 72
     2
 10
148.0769924113045
 20
123.8695663878293
 40
0.1999999999999997
 50
180.0
 51
270.0
 73
     1
 72
     1
 10
148.0769924113045
 20
123.6695663878293
 11
149.6769924113045
 21
123.6695663878293
 72
     2
 10
149.6769924113045
 20
123.4695663878293
 40
0.1999999999999988
 50
270.0
 51
360.0
 73
     0
 72
     1
 10
149.8769924113045
 20
123.4695663878293
 11
149.8769924113045
 21
122.1695663878293
 72
     2
 10
149.6769924113045
 20
122.1695663878293
 40
0.1999999999999997
 50
0.0
 51
90.0
 73
     0
 72
     1
 10
149.6769924113045
 20
121.9695663878293
 11
137.2769924113045
 21
121.9695663878293
 72
     2
 10
137.2769924113045
 20
122.1695663878293
 40
0.1999999999999997
 50
90.0
 51
180.0
 73
     0
 72
     1
 10
137.0769924113045
 20
122.1695663878293
 11
137.0769924113045
 21
123.4695663878293
 97
        0
 75
     0
 76
     1
 98
        0
  0
HATCH
  5
21C
330
218
100
AcDbEntity
  8
DV4_Füllung
  6
Continuous
 62
     7
100
AcDbHatch
 10
0.0
 20
0.0
 30
0.0
210
0.0
220
0.0
230
1.0
  2
SOLID
 70
     1
 71
     0
 91
        1
 92
        1
 93
       40
 72
     2
 10
137.5769924113045
 20
107.9226792752521
 40
0.1999999999999999
 50
116.387799961246
 51
180.0
 73
     0
 72
     1
 10
137.3769924113045
 20
107.9226792752521
 11
137.3769924113045
 21
108.1164535004133
 72
     2
 10
137.5769924113045
 20
108.1164535004133
 40
0.1999999999999997
 50
180.0
 51
243.6122000390162
 73
     0
 72
     2
 10
137.3769924113063
 20
108.5195663878292
 40
0.2500000000000013
 50
296.3877999609886
 51
462.8012261207721
 73
     1
 72
     2
 10
143.0783660753571
 20
83.42736196827764
 40
25.98177771335835
 50
102.8012261207718
 51
125.308650978942
 73
     1
 72
     2
 10
128.1769924113045
 20
104.4665902094775
 40
0.2000000000000665
 50
125.3086509789369
 51
270.0
 73
     1
 72
     1
 10
128.1769924113045
 20
104.2665902094775
 11
130.2298639713188
 21
104.2665902094774
 72
     2
 10
143.0783660753571
 20
83.42736196827764
 40
24.48177771335847
 50
238.3439407603174
 51
252.5007365883792
 73
     0
 72
     2
 10
135.7769924113045
 20
106.5853988353964
 40
0.1999999999999969
 50
252.5007365883876
 51
360.0
 73
     0
 72
     1
 10
135.9769924113045
 20
106.5853988353964
 11
135.9769924113045
 21
104.4700319420129
 72
     2
 10
136.1769924113045
 20
104.4700319420129
 40
0.1999999999999997
 50
180.0
 51
270.0
 73
     1
 72
     1
 10
136.1769924113045
 20
104.2700319420129
 11
150.7769924113046
 21
104.2700319420129
 72
     2
 10
150.7769924113045
 20
104.4700319420129
 40
0.2000000000000005
 50
270.0
 51
360.0
 73
     1
 72
     1
 10
150.9769924113045
 20
104.4700319420129
 11
150.9769924113045
 21
106.5853988353964
 72
     2
 10
151.1769924113046
 20
106.5853988353964
 40
0.1999999999999997
 50
180.0
 51
287.4992634116202
 73
     0
 72
     2
 10
143.875618747252
 20
83.42736196827764
 40
24.48177771335848
 50
287.4992634116208
 51
301.6560592396825
 73
     0
 72
     1
 10
156.7241208512902
 20
104.2665902094775
 11
158.7769924113045
 21
104.2665902094775
 72
     2
 10
158.7769924113045
 20
104.4665902094775
 40
0.2000000000001189
 50
270.0
 51
414.6913490210569
 73
     1
 72
     2
 10
143.875618747252
 20
83.42736196827764
 40
25.98177771335848
 50
54.69134902105798
 51
77.1987738792282
 73
     1
 72
     2
 10
149.5769924113027
 20
108.5195663878292
 40
0.2500000000000002
 50
77.19877387923424
 51
243.61220003901
 73
     1
 72
     2
 10
149.3769924113045
 20
108.1164535004133
 40
0.2
 50
296.3877999609838
 51
360.0
 73
     0
 72
     1
 10
149.5769924113045
 20
108.1164535004133
 11
149.5769924113045
 21
107.9226792752521
 72
     2
 10
149.3769924113045
 20
107.9226792752521
 40
0.1999999999999997
 50
0.0
 51
63.61220003876135
 73
     0
 72
     2
 10
149.5769924113045
 20
107.5195663878372
 40
0.2499999999999998
 50
116.3877999612449
 51
243.6122000387566
 73
     1
 72
     2
 10
149.3769924113045
 20
107.1164535004222
 40
0.1999999999999999
 50
296.3877999612405
 51
360.0
 73
     0
 72
     1
 10
149.5769924113045
 20
107.1164535004222
 11
149.5769924113045
 21
106.9226792752521
 72
     2
 10
149.3769924113045
 20
106.9226792752521
 40
0.1999999999999997
 50
0.0
 51
63.61220003876135
 73
     0
 72
     2
 10
149.5769924113045
 20
106.5195663878372
 40
0.2499999999999998
 50
116.3877999612449
 51
243.6122000387566
 73
     1
 72
     2
 10
149.3769924113045
 20
106.1164535004222
 40
0.1999999999999999
 50
296.3877999612387
 51
360.0
 73
     0
 72
     1
 10
149.5769924113045
 20
106.1164535004222
 11
149.5769924113045
 21
105.9695663878293
 72
     2
 10
149.3769924113045
 20
105.9695663878293
 40
0.1999999999999997
 50
0.0
 51
90.0
 73
     0
 72
     1
 10
149.3769924113045
 20
105.7695663878293
 11
137.5769924113045
 21
105.7695663878293
 72
     2
 10
137.5769924113045
 20
105.9695663878293
 40
0.2000000000000005
 50
90.0
 51
180.0
 73
     0
 72
     1
 10
137.3769924113045
 20
105.9695663878293
 11
137.3769924113045
 21
106.1164535004222
 72
     2
 10
137.5769924113045
 20
106.1164535004222
 40
0.1999999999999988
 50
180.0
 51
243.612200038754
 73
     0
 72
     2
 10
137.3769924113045
 20
106.5195663878372
 40
0.2499999999999998
 50
296.3877999612434
 51
423.6122000387551
 73
     1
 72
     2
 10
137.5769924113045
 20
106.9226792752521
 40
0.1999999999999999
 50
116.387799961246
 51
180.0
 73
     0
 72
     1
 10
137.3769924113045
 20
106.9226792752521
 11
137.3769924113045
 21
107.1164535004222
 72
     2
 10
137.5769924113045
 20
107.1164535004222
 40
0.1999999999999997
 50
180.0
 51
243.6122000387522
 73
     0
 72
     2
 10
137.3769924113045
 20
107.5195663878372
 40
0.2499999999999998
 50
296.3877999612434
 51
423.6122000387551
 73
     1
 97
        0
 75
     0
 76
     1
 98
        0
  0
HATCH
  5
21D
330
218
100
AcDbEntity
  8
DV4_Füllung
  6
Continuous
 62
     7
100
AcDbHatch
 10
0.0
 20
0.0
 30
0.0
210
0.0
220
0.0
230
1.0
  2
SOLID
 70
     1
 71
     0
 91
        1
 92
        1
 93
       12
 72
     1
 10
146.4769924113045
 20
123.2695663878293
 11
137.6769924113045
 21
123.2695663878293
 72
     2
 10
137.6769924113045
 20
123.0695663878293
 40
0.2000000000000023
 50
90.0
 51
180.0
 73
     1
 72
     1
 10
137.4769924113045
 20
123.0695663878293
 11
137.4769924113045
 21
122.1695663878293
 72
     2
 10
137.6769924113045
 20
122.1695663878293
 40
0.1999999999999988
 50
180.0
 51
270.0
 73
     1
 72
     1
 10
137.6769924113045
 20
121.9695663878293
 11
149.2769924113045
 21
121.9695663878293
 72
     2
 10
149.2769924113045
 20
122.1695663878293
 40
0.2000000000000005
 50
270.0
 51
360.0
 73
     1
 72
     1
 10
149.4769924113045
 20
122.1695663878293
 11
149.4769924113045
 21
123.0695663878293
 72
     2
 10
149.2769924113045
 20
123.0695663878293
 40
0.2000000000000005
 50
0.0
 51
90.0
 73
     1
 72
     1
 10
149.2769924113045
 20
123.2695663878293
 11
147.4769924113045
 21
123.2695663878293
 72
     1
 10
147.4769924113045
 20
123.2695663878293
 11
147.4769924113045
 21
123.0695663878293
 72
     1
 10
147.4769924113045
 20
123.0695663878293
 11
146.4769924113045
 21
123.0695663878293
 72
     1
 10
146.4769924113045
 20
123.0695663878293
 11
146.4769924113045
 21
123.2695663878293
 97
        0
 75
     0
 76
     1
 98
        0
  0
HATCH
  5
21E
330
218
100
AcDbEntity
  8
DV4_Füllung
  6
Continuous
 62
     7
100
AcDbHatch
 10
0.0
 20
0.0
 30
0.0
210
0.0
220
0.0
230
1.0
  2
SOLID
 70
     1
 71
     0
 91
        1
 92
        1
 93
       14
 72
     1
 10
143.476992505186
 20
113.1375947090855
 11
145.4900624877289
 21
113.0524410895095
 72
     1
 10
145.4900624877289
 20
113.0524410895095
 11
145.6769924122175
 21
113.2393710139982
 72
     1
 10
145.6769924122175
 20
113.2393710139982
 11
145.8932083516219
 21
113.0231550745938
 72
     2
 10
142.7935604123554
 20
73.14343362806683
 40
39.99999999999977
 50
274.4443742068953
 51
277.839801581405
 73
     0
 72
     2
 10
148.2769924122177
 20
112.9676972559464
 40
0.199999999999827
 50
262.1601984185851
 51
360.0
 73
     1
 72
     1
 10
148.4769924122176
 20
112.9676972559464
 11
148.4769924122172
 21
119.9695666224581
 72
     1
 10
148.4769924122172
 20
119.9695666224582
 11
149.5430184752256
 21
119.9695666224582
 72
     2
 10
148.6769929668958
 20
120.4695664413804
 40
1.0
 50
330.000011980009
 51
389.9999964570561
 73
     1
 72
     1
 10
149.5430184015983
 20
120.9695663878288
 11
137.4109673116935
 21
120.9695663878293
 72
     2
 10
138.2769928327456
 20
120.4695665909429
 40
1.000000000000001
 50
149.9999911203754
 51
209.9999983237058
 73
     1
 72
     1
 10
137.4109674143327
 20
119.9695666162801
 11
138.4769924113042
 21
119.9695666162801
 72
     1
 10
138.4769924113042
 20
119.9695666162801
 11
138.4769924113042
 21
112.967697252856
 72
     2
 10
138.6769924113042
 20
112.967697252856
 40
0.2000000000000063
 50
180.0
 51
277.839801580183
 73
     1
 72
     2
 10
144.1604244103164
 20
73.14343362485937
 40
39.99999999999978
 50
262.1601984198181
 51
269.0210082704036
 73
     0
 97
        0
 75
     0
 76
     1
 98
        0
  0
HATCH
  5
21F
330
218
100
AcDbEntity
  8
DV4_Füllung
  6
Continuous
 62
     7
100
AcDbHatch
 10
0.0
 20
0.0
 30
0.0
210
0.0
220
0.0
230
1.0
  2
SOLID
 70
     1
 71
     0
 91
        1
 92
        1
 93
        9
 72
     1
 10
138.2269924113045
 20
105.7695663878293
 11
148.7269924113045
 21
105.7695663878293
 72
     1
 10
148.7269924113045
 20
105.7695663878293
 11
149.2269924113045
 21
106.2695663878293
 72
     1
 10
149.2269924113045
 20
106.2695663878293
 11
149.2269924113045
 21
108.2768543878293
 72
     2
 10
148.7269924113045
 20
108.2768543878293
 40
0.4999999999999691
 50
0.0
 51
90.0000277955849
 73
     1
 72
     2
 10
143.2374761064617
 20
69.155329765448
 40
39.99999999999999
 50
82.111953126876
 51
89.65691666127489
 73
     1
 72
     2
 10
143.7165084970836
 20
69.15532976870378
 40
39.99999999999999
 50
90.34308411755687
 51
97.88804690710478
 73
     1
 72
     2
 10
138.2269924113045
 20
108.2768543878293
 40
0.5000000000000004
 50
90.0
 51
180.0
 73
     1
 72
     1
 10
137.7269924113045
 20
108.2768543878293
 11
137.7269924113045
 21
106.2695663878293
 72
     1
 10
137.7269924113045
 20
106.2695663878293
 11
138.2269924113045
 21
105.7695663878293
 97
        0
 75
     0
 76
     1
 98
        0
  0
ARC
  5
221
330
218
100
AcDbEntity
  8
DV4_Standard
  6
Continuous
 62
     7
100
AcDbCircle
 10
137.3769924113
 20
108.5195663878
 30
0.0
 40
0.2500000000000013
100
AcDbArc
 50
296.387799961
 51
102.8012261208
  0
ARC
  5
222
330
218
100
AcDbEntity
  8
DV4_Standard
  6
Continuous
 62
     7
100
AcDbCircle
 10
143.0783660754
 20
83.4273619683
 30
0.0
 40
25.98177771335835
100
AcDbArc
 50
102.8012261208
 51
125.3086509789
  0
ARC
  5
223
330
218
100
AcDbEntity
  8
DV4_Standard
  6
Continuous
 62
     7
100
AcDbCircle
 10
128.1769924113
 20
104.4665902095
 30
0.0
 40
0.2000000000000665
100
AcDbArc
 50
125.3086509789
 51
270.0
  0
LINE
  5
224
330
218
100
AcDbEntity
  8
DV4_Standard
  6
Continuous
 62
     7
100
AcDbLine
 10
130.2298639713
 20
104.2665902095
 30
0.0
 11
128.1769924113
 21
104.2665902095
 31
0.0
  0
ARC
  5
225
330
218
100
AcDbEntity
  8
DV4_Standard
  6
Continuous
 62
     7
100
AcDbCircle
 10
143.8756187473
 20
83.4273619683
 30
0.0
 40
24.48177771335848
100
AcDbArc
 50
58.3439407603
 51
72.5007365884
  0
LINE
  5
226
330
218
100
AcDbEntity
  8
DV4_Standard
  6
Continuous
 62
     7
100
AcDbLine
 10
158.7769924113
 20
104.2665902095
 30
0.0
 11
156.7241208513
 21
104.2665902095
 31
0.0
  0
ARC
  5
227
330
218
100
AcDbEntity
  8
DV4_Standard
  6
Continuous
 62
     7
100
AcDbCircle
 10
158.7769924113
 20
104.4665902095
 30
0.0
 40
0.2000000000001189
100
AcDbArc
 50
270.0
 51
54.6913490211
  0
ARC
  5
228
330
218
100
AcDbEntity
  8
DV4_Standard
  6
Continuous
 62
     7
100
AcDbCircle
 10
143.8756187473
 20
83.4273619683
 30
0.0
 40
25.98177771335848
100
AcDbArc
 50
54.6913490211
 51
77.1987738792
  0
LINE
  5
229
330
218
100
AcDbEntity
  8
DV4_Standard
  6
Continuous
 62
     7
100
AcDbLine
 10
137.3769924113
 20
108.1164535004
 30
0.0
 11
137.3769924113
 21
107.9226792753
 31
0.0
  0
ARC
  5
22A
330
218
100
AcDbEntity
  8
DV4_Standard
  6
Continuous
 62
     7
100
AcDbCircle
 10
137.5769924113
 20
108.1164535004
 30
0.0
 40
0.1999999999999997
100
AcDbArc
 50
116.387799961
 51
180.0
  0
LINE
  5
22B
330
218
100
AcDbEntity
  8
DV4_Standard
  6
Continuous
 62
     7
100
AcDbLine
 10
137.5769924113
 20
105.7695663878
 30
0.0
 11
149.3769924113
 21
105.7695663878
 31
0.0
  0
ARC
  5
22C
330
218
100
AcDbEntity
  8
DV4_Standard
  6
Continuous
 62
     7
100
AcDbCircle
 10
137.5769924113
 20
105.9695663878
 30
0.0
 40
0.2000000000000005
100
AcDbArc
 50
180.0
 51
270.0
  0
LINE
  5
22D
330
218
100
AcDbEntity
  8
DV4_Standard
  6
Continuous
 62
     7
100
AcDbLine
 10
137.3769924113
 20
106.1164535004
 30
0.0
 11
137.3769924113
 21
105.9695663878
 31
0.0
  0
ARC
  5
22E
330
218
100
AcDbEntity
  8
DV4_Standard
  6
Continuous
 62
     7
100
AcDbCircle
 10
137.5769924113
 20
106.1164535004
 30
0.0
 40
0.1999999999999988
100
AcDbArc
 50
116.3877999612
 51
180.0
  0
ARC
  5
22F
330
218
100
AcDbEntity
  8
DV4_Standard
  6
Continuous
 62
     7
100
AcDbCircle
 10
137.3769924113
 20
106.5195663878
 30
0.0
 40
0.2499999999999998
100
AcDbArc
 50
296.3877999612
 51
63.6122000388
  0
ARC
  5
230
330
218
100
AcDbEntity
  8
DV4_Standard
  6
Continuous
 62
     7
100
AcDbCircle
 10
137.5769924113
 20
106.9226792753
 30
0.0
 40
0.1999999999999999
100
AcDbArc
 50
180.0
 51
243.6122000388
  0
LINE
  5
231
330
218
100
AcDbEntity
  8
DV4_Standard
  6
Continuous
 62
     7
100
AcDbLine
 10
137.3769924113
 20
107.1164535004
 30
0.0
 11
137.3769924113
 21
106.9226792753
 31
0.0
  0
ARC
  5
232
330
218
100
AcDbEntity
  8
DV4_Standard
  6
Continuous
 62
     7
100
AcDbCircle
 10
137.5769924113
 20
107.1164535004
 30
0.0
 40
0.1999999999999997
100
AcDbArc
 50
116.3877999612
 51
180.0
  0
ARC
  5
233
330
218
100
AcDbEntity
  8
DV4_Standard
  6
Continuous
 62
     7
100
AcDbCircle
 10
137.3769924113
 20
107.5195663878
 30
0.0
 40
0.2499999999999998
100
AcDbArc
 50
296.3877999612
 51
63.6122000388
  0
ARC
  5
234
330
218
100
AcDbEntity
  8
DV4_Standard
  6
Continuous
 62
     7
100
AcDbCircle
 10
137.5769924113
 20
107.9226792753
 30
0.0
 40
0.1999999999999999
100
AcDbArc
 50
180.0
 51
243.6122000388
  0
ARC
  5
235
330
218
100
AcDbEntity
  8
DV4_Standard
  6
Continuous
 62
     7
100
AcDbCircle
 10
149.5769924113
 20
108.5195663878
 30
0.0
 40
0.2500000000000002
100
AcDbArc
 50
77.1987738792
 51
243.612200039
  0
ARC
  5
236
330
218
100
AcDbEntity
  8
DV4_Standard
  6
Continuous
 62
     7
100
AcDbCircle
 10
149.3769924113
 20
108.1164535004
 30
0.0
 40
0.2
100
AcDbArc
 50
0.0
 51
63.612200039
  0
LINE
  5
237
330
218
100
AcDbEntity
  8
DV4_Standard
  6
Continuous
 62
     7
100
AcDbLine
 10
149.5769924113
 20
105.9695663878
 30
0.0
 11
149.5769924113
 21
106.1164535004
 31
0.0
  0
ARC
  5
238
330
218
100
AcDbEntity
  8
DV4_Standard
  6
Continuous
 62
     7
100
AcDbCircle
 10
149.3769924113
 20
105.9695663878
 30
0.0
 40
0.1999999999999997
100
AcDbArc
 50
270.0
 51
0.0
  0
ARC
  5
239
330
218
100
AcDbEntity
  8
DV4_Standard
  6
Continuous
 62
     7
100
AcDbCircle
 10
149.5769924113
 20
106.5195663878
 30
0.0
 40
0.2499999999999998
100
AcDbArc
 50
116.3877999612
 51
243.6122000388
  0
ARC
  5
23A
330
218
100
AcDbEntity
  8
DV4_Standard
  6
Continuous
 62
     7
100
AcDbCircle
 10
149.3769924113
 20
106.1164535004
 30
0.0
 40
0.1999999999999999
100
AcDbArc
 50
0.0
 51
63.6122000388
  0
LINE
  5
23B
330
218
100
AcDbEntity
  8
DV4_Standard
  6
Continuous
 62
     7
100
AcDbLine
 10
149.5769924113
 20
106.9226792753
 30
0.0
 11
149.5769924113
 21
107.1164535004
 31
0.0
  0
ARC
  5
23C
330
218
100
AcDbEntity
  8
DV4_Standard
  6
Continuous
 62
     7
100
AcDbCircle
 10
149.3769924113
 20
106.9226792753
 30
0.0
 40
0.1999999999999997
100
AcDbArc
 50
296.3877999612
 51
0.0
  0
ARC
  5
23D
330
218
100
AcDbEntity
  8
DV4_Standard
  6
Continuous
 62
     7
100
AcDbCircle
 10
149.5769924113
 20
107.5195663878
 30
0.0
 40
0.2499999999999998
100
AcDbArc
 50
116.3877999612
 51
243.6122000388
  0
ARC
  5
23E
330
218
100
AcDbEntity
  8
DV4_Standard
  6
Continuous
 62
     7
100
AcDbCircle
 10
149.3769924113
 20
107.1164535004
 30
0.0
 40
0.1999999999999999
100
AcDbArc
 50
0.0
 51
63.6122000388
  0
LINE
  5
23F
330
218
100
AcDbEntity
  8
DV4_Standard
  6
Continuous
 62
     7
100
AcDbLine
 10
149.5769924113
 20
107.9226792753
 30
0.0
 11
149.5769924113
 21
108.1164535004
 31
0.0
  0
ARC
  5
240
330
218
100
AcDbEntity
  8
DV4_Standard
  6
Continuous
 62
     7
100
AcDbCircle
 10
149.3769924113
 20
107.9226792753
 30
0.0
 40
0.1999999999999997
100
AcDbArc
 50
296.3877999612
 51
0.0
  0
LINE
  5
241
330
218
100
AcDbEntity
  8
DV4_Standard
  6
Continuous
 62
     7
100
AcDbLine
 10
135.9769924113
 20
104.470031942
 30
0.0
 11
135.9769924113
 21
106.5853988354
 31
0.0
  0
ARC
  5
242
330
218
100
AcDbEntity
  8
DV4_Standard
  6
Continuous
 62
     7
100
AcDbCircle
 10
136.1769924113
 20
104.470031942
 30
0.0
 40
0.1999999999999997
100
AcDbArc
 50
180.0
 51
270.0
  0
LINE
  5
243
330
218
100
AcDbEntity
  8
DV4_Standard
  6
Continuous
 62
     7
100
AcDbLine
 10
150.7769924113
 20
104.270031942
 30
0.0
 11
136.1769924113
 21
104.270031942
 31
0.0
  0
ARC
  5
244
330
218
100
AcDbEntity
  8
DV4_Standard
  6
Continuous
 62
     7
100
AcDbCircle
 10
150.7769924113
 20
104.470031942
 30
0.0
 40
0.2000000000000005
100
AcDbArc
 50
270.0
 51
0.0
  0
LINE
  5
245
330
218
100
AcDbEntity
  8
DV4_Standard
  6
Continuous
 62
     7
100
AcDbLine
 10
150.9769924113
 20
106.5853988354
 30
0.0
 11
150.9769924113
 21
104.470031942
 31
0.0
  0
ARC
  5
246
330
218
100
AcDbEntity
  8
DV4_Standard
  6
Continuous
 62
     7
100
AcDbCircle
 10
151.1769924113
 20
106.5853988354
 30
0.0
 40
0.1999999999999997
100
AcDbArc
 50
72.5007365884
 51
180.0
  0
ARC
  5
247
330
218
100
AcDbEntity
  8
DV4_Standard
  6
Continuous
 62
     7
100
AcDbCircle
 10
143.0783660754
 20
83.4273619683
 30
0.0
 40
24.48177771335847
100
AcDbArc
 50
107.4992634116
 51
121.6560592397
  0
ARC
  5
248
330
218
100
AcDbEntity
  8
DV4_Standard
  6
Continuous
 62
     7
100
AcDbCircle
 10
135.7769924113
 20
106.5853988354
 30
0.0
 40
0.1999999999999969
100
AcDbArc
 50
0.0
 51
107.4992634116
  0
LINE
  5
249
330
218
100
AcDbEntity
  8
DV4_Standard
  6
Continuous
 62
     7
100
AcDbLine
 10
138.4769924113
 20
119.9695666163
 30
0.0
 11
137.4109674143
 21
119.9695666163
 31
0.0
  0
LINE
  5
24A
330
218
100
AcDbEntity
  8
DV4_Standard
  6
Continuous
 62
     7
100
AcDbLine
 10
138.4769924113
 20
112.9676972529
 30
0.0
 11
138.4769924113
 21
119.9695666163
 31
0.0
  0
ARC
  5
24B
330
218
100
AcDbEntity
  8
DV4_Standard
  6
Continuous
 62
     7
100
AcDbCircle
 10
138.6769924113
 20
112.9676972529
 30
0.0
 40
0.2000000000000063
100
AcDbArc
 50
180.0
 51
277.8398015802
  0
ARC
  5
24C
330
218
100
AcDbEntity
  8
DV4_Standard
  6
Continuous
 62
     7
100
AcDbCircle
 10
144.1604244103
 20
73.1434336249
 30
0.0
 40
39.99999999999978
100
AcDbArc
 50
90.9789917296
 51
97.8398015802
  0
ARC
  5
24D
330
218
100
AcDbEntity
  8
DV4_Standard
  6
Continuous
 62
     7
100
AcDbCircle
 10
142.7935604124
 20
73.1434336281
 30
0.0
 40
39.99999999999977
100
AcDbArc
 50
82.1601984186
 51
85.5556257931
  0
ARC
  5
24E
330
218
100
AcDbEntity
  8
DV4_Standard
  6
Continuous
 62
     7
100
AcDbCircle
 10
148.2769924122
 20
112.9676972559
 30
0.0
 40
0.199999999999827
100
AcDbArc
 50
262.1601984186
 51
0.0
  0
LINE
  5
24F
330
218
100
AcDbEntity
  8
DV4_Standard
  6
Continuous
 62
     7
100
AcDbLine
 10
148.4769924122
 20
119.9695666225
 30
0.0
 11
148.4769924122
 21
112.9676972559
 31
0.0
  0
LINE
  5
250
330
218
100
AcDbEntity
  8
DV4_Standard
  6
Continuous
 62
     7
100
AcDbLine
 10
149.5430184752
 20
119.9695666225
 30
0.0
 11
148.4769924122
 21
119.9695666225
 31
0.0
  0
ARC
  5
251
330
218
100
AcDbEntity
  8
DV4_Standard
  6
Continuous
 62
     7
100
AcDbCircle
 10
148.6769929669
 20
120.4695664414
 30
0.0
 40
1.0
100
AcDbArc
 50
330.00001198
 51
29.9999964571
  0
ARC
  5
252
330
218
100
AcDbEntity
  8
DV4_Standard
  6
Continuous
 62
     7
100
AcDbCircle
 10
145.1894570288
 20
120.7695663878
 30
0.0
 40
0.2000000000000054
100
AcDbArc
 50
90.0
 51
201.2138611147
  0
LINE
  5
253
330
218
100
AcDbEntity
  8
DV4_Standard
  6
Continuous
 62
     7
100
AcDbLine
 10
145.9560256691
 20
118.2419366284
 30
0.0
 11
145.003009771
 21
120.697196366
 31
0.0
  0
ARC
  5
254
330
218
100
AcDbEntity
  8
DV4_Standard
  6
Continuous
 62
     7
100
AcDbCircle
 10
145.7695784113
 20
118.1695666066
 30
0.0
 40
0.2000000000000057
100
AcDbArc
 50
270.0
 51
21.2138611147
  0
LINE
  5
255
330
218
100
AcDbEntity
  8
DV4_Standard
  6
Continuous
 62
     7
100
AcDbLine
 10
141.1844064113
 20
117.9695666066
 30
0.0
 11
145.7695784113
 21
117.9695666066
 31
0.0
  0
ARC
  5
256
330
218
100
AcDbEntity
  8
DV4_Standard
  6
Continuous
 62
     7
100
AcDbCircle
 10
141.1844064113
 20
118.1695666066
 30
0.0
 40
0.2000000000000056
100
AcDbArc
 50
158.7861388853
 51
270.0
  0
LINE
  5
257
330
218
100
AcDbEntity
  8
DV4_Standard
  6
Continuous
 62
     7
100
AcDbLine
 10
141.9509751826
 20
120.6971967033
 30
0.0
 11
140.9979591535
 21
118.2419366284
 31
0.0
  0
ARC
  5
258
330
218
100
AcDbEntity
  8
DV4_Standard
  6
Continuous
 62
     7
100
AcDbCircle
 10
141.7645279248
 20
120.7695667252
 30
0.0
 40
0.2000000000000057
100
AcDbArc
 50
338.7861388853
 51
90.0
  0
ARC
  5
259
330
218
100
AcDbEntity
  8
DV4_Standard
  6
Continuous
 62
     7
100
AcDbCircle
 10
138.2769928327
 20
120.4695665909
 30
0.0
 40
1.000000000000001
100
AcDbArc
 50
149.9999911204
 51
209.9999983237
  0
ARC
  5
25A
330
218
100
AcDbEntity
  8
DV4_Standard
  6
Continuous
 62
     7
100
AcDbCircle
 10
142.7935604124
 20
73.1434336281
 30
0.0
 40
39.99999999999979
100
AcDbArc
 50
86.1346138352
 51
89.0210080015
  0
LINE
  5
25B
330
218
100
AcDbEntity
  8
DV4_Standard
  6
Continuous
 62
     7
100
AcDbLine
 10
145.6769924122
 20
113.239371014
 30
0.0
 11
145.4900624877
 21
113.0524410895
 31
0.0
  0
LINE
  5
25C
330
218
100
AcDbEntity
  8
DV4_Standard
  6
Continuous
 62
     7
100
AcDbLine
 10
145.6769924122
 20
113.239371014
 30
0.0
 11
145.8932083516
 21
113.0231550746
 31
0.0
  0
LINE
  5
25D
330
218
100
AcDbEntity
  8
DV4_Standard
  6
Continuous
 62
     7
100
AcDbLine
 10
138.0930178151
 20
113.7695663878
 30
0.0
 11
137.2769924113
 21
113.7695663878
 31
0.0
  0
ARC
  5
25E
330
218
100
AcDbEntity
  8
DV4_Standard
  6
Continuous
 62
     7
100
AcDbCircle
 10
137.2269924113
 20
113.2695663878
 30
0.0
 40
1.0
100
AcDbArc
 50
330.0
 51
30.0
  0
LINE
  5
25F
330
218
100
AcDbEntity
  8
DV4_Standard
  6
Continuous
 62
     7
100
AcDbLine
 10
148.8609670075
 20
112.7695663878
 30
0.0
 11
150.6769924113
 21
112.7695663878
 31
0.0
  0
ARC
  5
260
330
218
100
AcDbEntity
  8
DV4_Standard
  6
Continuous
 62
     7
100
AcDbCircle
 10
149.7269924113
 20
113.2695663878
 30
0.0
 40
1.0
100
AcDbArc
 50
150.0
 51
210.0
  0
LINE
  5
261
330
218
100
AcDbEntity
  8
DV4_Standard
  6
Continuous
 62
     7
100
AcDbLine
 10
136.0769924113
 20
124.4695663878
 30
0.0
 11
136.0769924113
 21
112.9695663878
 31
0.0
  0
ARC
  5
262
330
218
100
AcDbEntity
  8
DV4_Standard
  6
Continuous
 62
     7
100
AcDbCircle
 10
136.2769924113
 20
124.4695663878
 30
0.0
 40
0.1999999999999988
100
AcDbArc
 50
90.0
 51
180.0
  0
LINE
  5
263
330
218
100
AcDbEntity
  8
DV4_Standard
  6
Continuous
 62
     7
100
AcDbLine
 10
136.2769924113
 20
112.7695663878
 30
0.0
 11
138.0930178151
 21
112.7695663878
 31
0.0
  0
ARC
  5
264
330
218
100
AcDbEntity
  8
DV4_Standard
  6
Continuous
 62
     7
100
AcDbCircle
 10
136.2769924113
 20
112.9695663878
 30
0.0
 40
0.1999999999999997
100
AcDbArc
 50
180.0
 51
270.0
  0
LINE
  5
265
330
218
100
AcDbEntity
  8
DV4_Standard
  6
Continuous
 62
     7
100
AcDbLine
 10
137.0769924113
 20
113.9695663878
 30
0.0
 11
137.0769924113
 21
120.7695663878
 31
0.0
  0
ARC
  5
266
330
218
100
AcDbEntity
  8
DV4_Standard
  6
Continuous
 62
     7
100
AcDbCircle
 10
137.2769924113
 20
113.9695663878
 30
0.0
 40
0.2000000000000005
100
AcDbArc
 50
180.0
 51
270.0
  0
LINE
  5
267
330
218
100
AcDbEntity
  8
DV4_Standard
  6
Continuous
 62
     7
100
AcDbLine
 10
137.2769924113
 20
120.9695663878
 30
0.0
 11
149.6769924113
 21
120.9695663878
 31
0.0
  0
ARC
  5
268
330
218
100
AcDbEntity
  8
DV4_Standard
  6
Continuous
 62
     7
100
AcDbCircle
 10
137.2769924113
 20
120.7695663878
 30
0.0
 40
0.1999999999999997
100
AcDbArc
 50
90.0
 51
180.0
  0
LINE
  5
269
330
218
100
AcDbEntity
  8
DV4_Standard
  6
Continuous
 62
     7
100
AcDbLine
 10
137.0769924113
 20
122.1695663878
 30
0.0
 11
137.0769924113
 21
123.4695663878
 31
0.0
  0
ARC
  5
26A
330
218
100
AcDbEntity
  8
DV4_Standard
  6
Continuous
 62
     7
100
AcDbCircle
 10
137.2769924113
 20
122.1695663878
 30
0.0
 40
0.1999999999999997
100
AcDbArc
 50
180.0
 51
270.0
  0
LINE
  5
26B
330
218
100
AcDbEntity
  8
DV4_Standard
  6
Continuous
 62
     7
100
AcDbLine
 10
137.2769924113
 20
123.6695663878
 30
0.0
 11
138.8769924113
 21
123.6695663878
 31
0.0
  0
ARC
  5
26C
330
218
100
AcDbEntity
  8
DV4_Standard
  6
Continuous
 62
     7
100
AcDbCircle
 10
137.2769924113
 20
123.4695663878
 30
0.0
 40
0.1999999999999997
100
AcDbArc
 50
90.0
 51
180.0
  0
LINE
  5
26D
330
218
100
AcDbEntity
  8
DV4_Standard
  6
Continuous
 62
     7
100
AcDbLine
 10
138.8769924113
 20
124.6695663878
 30
0.0
 11
136.2769924113
 21
124.6695663878
 31
0.0
  0
ARC
  5
26E
330
218
100
AcDbEntity
  8
DV4_Standard
  6
Continuous
 62
     7
100
AcDbCircle
 10
138.8769924113
 20
124.4695663878
 30
0.0
 40
0.1999999999999997
100
AcDbArc
 50
0.0
 51
90.0
  0
LINE
  5
26F
330
218
100
AcDbEntity
  8
DV4_Standard
  6
Continuous
 62
     7
100
AcDbLine
 10
139.0769924113
 20
123.8695663878
 30
0.0
 11
139.0769924113
 21
124.4695663878
 31
0.0
  0
ARC
  5
270
330
218
100
AcDbEntity
  8
DV4_Standard
  6
Continuous
 62
     7
100
AcDbCircle
 10
138.8769924113
 20
123.8695663878
 30
0.0
 40
0.2000000000000005
100
AcDbArc
 50
270.0
 51
0.0
  0
LINE
  5
271
330
218
100
AcDbEntity
  8
DV4_Standard
  6
Continuous
 62
     7
100
AcDbLine
 10
147.8769924113
 20
124.4695663878
 30
0.0
 11
147.8769924113
 21
123.8695663878
 31
0.0
  0
ARC
  5
272
330
218
100
AcDbEntity
  8
DV4_Standard
  6
Continuous
 62
     7
100
AcDbCircle
 10
148.0769924113
 20
124.4695663878
 30
0.0
 40
0.1999999999999988
100
AcDbArc
 50
90.0
 51
180.0
  0
LINE
  5
273
330
218
100
AcDbEntity
  8
DV4_Standard
  6
Continuous
 62
     7
100
AcDbLine
 10
149.8769924113
 20
120.7695663878
 30
0.0
 11
149.8769924113
 21
113.9695663878
 31
0.0
  0
ARC
  5
274
330
218
100
AcDbEntity
  8
DV4_Standard
  6
Continuous
 62
     7
100
AcDbCircle
 10
149.6769924113
 20
120.7695663878
 30
0.0
 40
0.1999999999999997
100
AcDbArc
 50
0.0
 51
90.0
  0
LINE
  5
275
330
218
100
AcDbEntity
  8
DV4_Standard
  6
Continuous
 62
     7
100
AcDbLine
 10
150.6769924113
 20
124.6695663878
 30
0.0
 11
148.0769924113
 21
124.6695663878
 31
0.0
  0
ARC
  5
276
330
218
100
AcDbEntity
  8
DV4_Standard
  6
Continuous
 62
     7
100
AcDbCircle
 10
150.6769924113
 20
124.4695663878
 30
0.0
 40
0.1999999999999997
100
AcDbArc
 50
0.0
 51
90.0
  0
LINE
  5
277
330
218
100
AcDbEntity
  8
DV4_Standard
  6
Continuous
 62
     7
100
AcDbLine
 10
148.0769924113
 20
123.6695663878
 30
0.0
 11
149.6769924113
 21
123.6695663878
 31
0.0
  0
ARC
  5
278
330
218
100
AcDbEntity
  8
DV4_Standard
  6
Continuous
 62
     7
100
AcDbCircle
 10
148.0769924113
 20
123.8695663878
 30
0.0
 40
0.1999999999999997
100
AcDbArc
 50
180.0
 51
270.0
  0
LINE
  5
279
330
218
100
AcDbEntity
  8
DV4_Standard
  6
Continuous
 62
     7
100
AcDbLine
 10
149.8769924113
 20
123.4695663878
 30
0.0
 11
149.8769924113
 21
122.1695663878
 31
0.0
  0
ARC
  5
27A
330
218
100
AcDbEntity
  8
DV4_Standard
  6
Continuous
 62
     7
100
AcDbCircle
 10
149.6769924113
 20
123.4695663878
 30
0.0
 40
0.1999999999999988
100
AcDbArc
 50
0.0
 51
90.0
  0
LINE
  5
27B
330
218
100
AcDbEntity
  8
DV4_Standard
  6
Continuous
 62
     7
100
AcDbLine
 10
149.6769924113
 20
121.9695663878
 30
0.0
 11
137.2769924113
 21
121.9695663878
 31
0.0
  0
ARC
  5
27C
330
218
100
AcDbEntity
  8
DV4_Standard
  6
Continuous
 62
     7
100
AcDbCircle
 10
149.6769924113
 20
122.1695663878
 30
0.0
 40
0.1999999999999997
100
AcDbArc
 50
270.0
 51
0.0
  0
LINE
  5
27D
330
218
100
AcDbEntity
  8
DV4_Standard
  6
Continuous
 62
     7
100
AcDbLine
 10
150.8769924113
 20
112.9695663878
 30
0.0
 11
150.8769924113
 21
124.4695663878
 31
0.0
  0
ARC
  5
27E
330
218
100
AcDbEntity
  8
DV4_Standard
  6
Continuous
 62
     7
100
AcDbCircle
 10
150.6769924113
 20
112.9695663878
 30
0.0
 40
0.2000000000000005
100
AcDbArc
 50
270.0
 51
0.0
  0
LINE
  5
27F
330
218
100
AcDbEntity
  8
DV4_Standard
  6
Continuous
 62
     7
100
AcDbLine
 10
149.6769924113
 20
113.7695663878
 30
0.0
 11
148.8609670075
 21
113.7695663878
 31
0.0
  0
ARC
  5
280
330
218
100
AcDbEntity
  8
DV4_Standard
  6
Continuous
 62
     7
100
AcDbCircle
 10
149.6769924113
 20
113.9695663878
 30
0.0
 40
0.1999999999999997
100
AcDbArc
 50
270.0
 51
0.0
  0
ARC
  5
281
330
218
100
AcDbEntity
  8
DV4_Standard
  6
Continuous
 62
     7
100
AcDbCircle
 10
143.2374761065
 20
69.1553297654
 30
0.0
 40
39.99999999999999
100
AcDbArc
 50
82.1119531269
 51
89.6569166613
  0
ARC
  5
282
330
218
100
AcDbEntity
  8
DV4_Standard
  6
Continuous
 62
     7
100
AcDbCircle
 10
148.7269924113
 20
108.2768543878
 30
0.0
 40
0.4999999999999691
100
AcDbArc
 50
0.0
 51
90.0000277956
  0
LINE
  5
283
330
218
100
AcDbEntity
  8
DV4_Standard
  6
Continuous
 62
     7
100
AcDbLine
 10
149.2269924113
 20
108.2768543878
 30
0.0
 11
149.2269924113
 21
106.2695663878
 31
0.0
  0
LINE
  5
284
330
218
100
AcDbEntity
  8
DV4_Standard
  6
Continuous
 62
     7
100
AcDbLine
 10
149.2269924113
 20
106.2695663878
 30
0.0
 11
148.7269924113
 21
105.7695663878
 31
0.0
  0
LINE
  5
285
330
218
100
AcDbEntity
  8
DV4_Standard
  6
Continuous
 62
     7
100
AcDbLine
 10
148.7269924113
 20
105.7695663878
 30
0.0
 11
140.7269924113
 21
105.7695663878
 31
0.0
  0
LINE
  5
286
330
218
100
AcDbEntity
  8
DV4_Standard
  6
Continuous
 62
     7
100
AcDbLine
 10
138.2269924113
 20
105.7695663878
 30
0.0
 11
137.7269924113
 21
106.2695663878
 31
0.0
  0
LINE
  5
287
330
218
100
AcDbEntity
  8
DV4_Standard
  6
Continuous
 62
     7
100
AcDbLine
 10
137.7269924113
 20
106.2695663878
 30
0.0
 11
137.7269924113
 21
108.2768543878
 31
0.0
  0
ARC
  5
288
330
218
100
AcDbEntity
  8
DV4_Standard
  6
Continuous
 62
     7
100
AcDbCircle
 10
138.2269924113
 20
108.2768543878
 30
0.0
 40
0.5000000000000004
100
AcDbArc
 50
90.0
 51
180.0
  0
ARC
  5
289
330
218
100
AcDbEntity
  8
DV4_Standard
  6
Continuous
 62
     7
100
AcDbCircle
 10
143.7165084971
 20
69.1553297687
 30
0.0
 40
39.99999999999999
100
AcDbArc
 50
90.3430841176
 51
97.8880469071
  0
LINE
  5
28A
330
218
100
AcDbEntity
  8
DV4_Standard
  6
Continuous
 62
     7
100
AcDbLine
 10
139.7269924113
 20
105.7695663878
 30
0.0
 11
138.2269924113
 21
105.7695663878
 31
0.0
  0
ARC
  5
28B
330
218
100
AcDbEntity
  8
DV4_Standard
  6
Continuous
 62
     7
100
AcDbCircle
 10
137.6769924113
 20
122.1695663878
 30
0.0
 40
0.1999999999999988
100
AcDbArc
 50
180.0
 51
270.0
  0
LINE
  5
28C
330
218
100
AcDbEntity
  8
DV4_Standard
  6
Continuous
 62
     7
100
AcDbLine
 10
137.4769924113
 20
123.0695663878
 30
0.0
 11
137.4769924113
 21
122.1695663878
 31
0.0
  0
ARC
  5
28D
330
218
100
AcDbEntity
  8
DV4_Standard
  6
Continuous
 62
     7
100
AcDbCircle
 10
137.6769924113
 20
123.0695663878
 30
0.0
 40
0.2000000000000023
100
AcDbArc
 50
90.0
 51
180.0
  0
LINE
  5
28E
330
218
100
AcDbEntity
  8
DV4_Standard
  6
Continuous
 62
     7
100
AcDbLine
 10
146.4769924113
 20
123.2695663878
 30
0.0
 11
137.6769924113
 21
123.2695663878
 31
0.0
  0
LINE
  5
28F
330
218
100
AcDbEntity
  8
DV4_Standard
  6
Continuous
 62
     7
100
AcDbLine
 10
146.4769924113
 20
123.0695663878
 30
0.0
 11
146.4769924113
 21
123.2695663878
 31
0.0
  0
LINE
  5
290
330
218
100
AcDbEntity
  8
DV4_Standard
  6
Continuous
 62
     7
100
AcDbLine
 10
147.4769924113
 20
123.0695663878
 30
0.0
 11
146.4769924113
 21
123.0695663878
 31
0.0
  0
LINE
  5
291
330
218
100
AcDbEntity
  8
DV4_Standard
  6
Continuous
 62
     7
100
AcDbLine
 10
147.4769924113
 20
123.2695663878
 30
0.0
 11
147.4769924113
 21
123.0695663878
 31
0.0
  0
LINE
  5
292
330
218
100
AcDbEntity
  8
DV4_Standard
  6
Continuous
 62
     7
100
AcDbLine
 10
149.2769924113
 20
123.2695663878
 30
0.0
 11
147.4769924113
 21
123.2695663878
 31
0.0
  0
ARC
  5
293
330
218
100
AcDbEntity
  8
DV4_Standard
  6
Continuous
 62
     7
100
AcDbCircle
 10
149.2769924113
 20
123.0695663878
 30
0.0
 40
0.2000000000000005
100
AcDbArc
 50
0.0
 51
90.0
  0
LINE
  5
294
330
218
100
AcDbEntity
  8
DV4_Standard
  6
Continuous
 62
     7
100
AcDbLine
 10
149.4769924113
 20
122.1695663878
 30
0.0
 11
149.4769924113
 21
123.0695663878
 31
0.0
  0
ARC
  5
295
330
218
100
AcDbEntity
  8
DV4_Standard
  6
Continuous
 62
     7
100
AcDbCircle
 10
149.2769924113
 20
122.1695663878
 30
0.0
 40
0.2000000000000005
100
AcDbArc
 50
270.0
 51
0.0
  0
ENDBLK
  5
297
330
218
100
AcDbEntity
  8
0
100
AcDbBlockEnd
  0
BLOCK
  5
2B5
330
299
100
AcDbEntity
  8
0
100
AcDbBlockBegin
  2
SE4
 70
     0
 10
0.0
 20
0.0
 30
0.0
  3
SE4
  1

  0
CIRCLE
  5
29C
330
299
100
AcDbEntity
  8
46616_BEFESTIGUN
  6
Continuous
 62
     7
100
AcDbCircle
 10
65.4351233139
 20
214.2493936872
 30
0.0
 40
3.065933786798643
  0
LINE
  5
29D
330
299
100
AcDbEntity
  8
46616_BEFESTIGUN
  6
Continuous
 62
     7
100
AcDbLine
 10
64.6192464984
 20
213.235566308
 30
0.0
 11
64.02625749
 21
213.235566308
 31
0.0
  0
ARC
  5
29E
330
299
100
AcDbEntity
  8
46616_BEFESTIGUN
  6
Continuous
 62
     7
100
AcDbCircle
 10
64.02625749
 20
213.435566308
 30
0.0
 40
0.2
100
AcDbArc
 50
150.0073065552
 51
270.0
  0
LINE
  5
29F
330
299
100
AcDbEntity
  8
46616_BEFESTIGUN
  6
Continuous
 62
     7
100
AcDbLine
 10
63.8530396583
 20
213.5355442195
 30
0.0
 11
64.1496489209
 21
214.0494378643
 31
0.0
  0
ARC
  5
2A0
330
299
100
AcDbEntity
  8
46616_BEFESTIGUN
  6
Continuous
 62
     7
100
AcDbCircle
 10
63.8032132576
 20
214.2493936872
 30
0.0
 40
0.3999999999999997
100
AcDbArc
 50
330.0073065552
 51
29.9926934448
  0
LINE
  5
2A1
330
299
100
AcDbEntity
  8
46616_BEFESTIGUN
  6
Continuous
 62
     7
100
AcDbLine
 10
64.1496489209
 20
214.4493495102
 30
0.0
 11
63.8530396583
 21
214.963243155
 31
0.0
  0
ARC
  5
2A2
330
299
100
AcDbEntity
  8
46616_BEFESTIGUN
  6
Continuous
 62
     7
100
AcDbCircle
 10
64.02625749
 20
215.0632210664
 30
0.0
 40
0.1999999999999992
100
AcDbArc
 50
90.0
 51
209.9926934448
  0
LINE
  5
2A3
330
299
100
AcDbEntity
  8
46616_BEFESTIGUN
  6
Continuous
 62
     7
100
AcDbLine
 10
64.02625749
 20
215.2632210664
 30
0.0
 11
64.6192464984
 21
215.2632210664
 31
0.0
  0
ARC
  5
2A4
330
299
100
AcDbEntity
  8
46616_BEFESTIGUN
  6
Continuous
 62
     7
100
AcDbCircle
 10
64.6192464984
 20
215.6632210664
 30
0.0
 40
0.3999999999999997
100
AcDbArc
 50
270.0
 51
330.0073065552
  0
LINE
  5
2A5
330
299
100
AcDbEntity
  8
46616_BEFESTIGUN
  6
Continuous
 62
     7
100
AcDbLine
 10
64.9656821618
 20
215.4632652435
 30
0.0
 11
65.2619054822
 21
215.97649022
 31
0.0
  0
ARC
  5
2A6
330
299
100
AcDbEntity
  8
46616_BEFESTIGUN
  6
Continuous
 62
     7
100
AcDbCircle
 10
65.4351233139
 20
215.8765123085
 30
0.0
 40
0.1999999999999999
100
AcDbArc
 50
29.9926934448
 51
150.0073065552
  0
LINE
  5
2A7
330
299
100
AcDbEntity
  8
46616_BEFESTIGUN
  6
Continuous
 62
     7
100
AcDbLine
 10
65.6083411456
 20
215.97649022
 30
0.0
 11
65.9045644661
 21
215.4632652435
 31
0.0
  0
ARC
  5
2A8
330
299
100
AcDbEntity
  8
46616_BEFESTIGUN
  6
Continuous
 62
     7
100
AcDbCircle
 10
66.2510001294
 20
215.6632210664
 30
0.0
 40
0.4000000000000029
100
AcDbArc
 50
209.9926934448
 51
270.0
  0
LINE
  5
2A9
330
299
100
AcDbEntity
  8
46616_BEFESTIGUN
  6
Continuous
 62
     7
100
AcDbLine
 10
66.2510001294
 20
215.2632210664
 30
0.0
 11
66.8439891378
 21
215.2632210664
 31
0.0
  0
ARC
  5
2AA
330
299
100
AcDbEntity
  8
46616_BEFESTIGUN
  6
Continuous
 62
     7
100
AcDbCircle
 10
66.8439891378
 20
215.0632210664
 30
0.0
 40
0.2000000000000001
100
AcDbArc
 50
330.0073065552
 51
90.0
  0
LINE
  5
2AB
330
299
100
AcDbEntity
  8
46616_BEFESTIGUN
  6
Continuous
 62
     7
100
AcDbLine
 10
67.0172069695
 20
214.963243155
 30
0.0
 11
66.7205977069
 21
214.4493495102
 31
0.0
  0
ARC
  5
2AC
330
299
100
AcDbEntity
  8
46616_BEFESTIGUN
  6
Continuous
 62
     7
100
AcDbCircle
 10
67.0670333703
 20
214.2493936872
 30
0.0
 40
0.3999999999999997
100
AcDbArc
 50
150.0073065552
 51
209.9926934448
  0
LINE
  5
2AD
330
299
100
AcDbEntity
  8
46616_BEFESTIGUN
  6
Continuous
 62
     7
100
AcDbLine
 10
66.7205977069
 20
214.0494378643
 30
0.0
 11
67.0172069695
 21
213.5355442195
 31
0.0
  0
ARC
  5
2AE
330
299
100
AcDbEntity
  8
46616_BEFESTIGUN
  6
Continuous
 62
     7
100
AcDbCircle
 10
66.8439891378
 20
213.435566308
 30
0.0
 40
0.1999999999999985
100
AcDbArc
 50
270.0
 51
29.9926934448
  0
LINE
  5
2AF
330
299
100
AcDbEntity
  8
46616_BEFESTIGUN
  6
Continuous
 62
     7
100
AcDbLine
 10
66.8439891378
 20
213.235566308
 30
0.0
 11
66.2510001294
 21
213.235566308
 31
0.0
  0
ARC
  5
2B0
330
299
100
AcDbEntity
  8
46616_BEFESTIGUN
  6
Continuous
 62
     7
100
AcDbCircle
 10
66.2510001294
 20
212.835566308
 30
0.0
 40
0.4
100
AcDbArc
 50
90.0
 51
150.0073065552
  0
LINE
  5
2B1
330
299
100
AcDbEntity
  8
46616_BEFESTIGUN
  6
Continuous
 62
     7
100
AcDbLine
 10
65.9045644661
 20
213.0355221309
 30
0.0
 11
65.6083411456
 21
212.5222971545
 31
0.0
  0
ARC
  5
2B2
330
299
100
AcDbEntity
  8
46616_BEFESTIGUN
  6
Continuous
 62
     7
100
AcDbCircle
 10
65.4351233139
 20
212.622275066
 30
0.0
 40
0.2000000000000029
100
AcDbArc
 50
209.9926934448
 51
330.0073065552
  0
LINE
  5
2B3
330
299
100
AcDbEntity
  8
46616_BEFESTIGUN
  6
Continuous
 62
     7
100
AcDbLine
 10
65.2619054822
 20
212.5222971545
 30
0.0
 11
64.9656821618
 21
213.0355221309
 31
0.0
  0
ARC
  5
2B4
330
299
100
AcDbEntity
  8
46616_BEFESTIGUN
  6
Continuous
 62
     7
100
AcDbCircle
 10
64.6192464984
 20
212.835566308
 30
0.0
 40
0.3999999999999986
100
AcDbArc
 50
29.9926934448
 51
90.0
  0
ENDBLK
  5
2B6
330
299
100
AcDbEntity
  8
0
100
AcDbBlockEnd
  0
BLOCK
  5
2D2
330
2B7
100
AcDbEntity
  8
0
100
AcDbBlockBegin
  2
SE5
 70
     0
 10
0.0
 20
0.0
 30
0.0
  3
SE5
  1

  0
CIRCLE
  5
2B9
330
2B7
100
AcDbEntity
  8
46616_BEFESTIGUN
  6
Continuous
 62
     7
100
AcDbCircle
 10
70.4351233139
 20
206.2493936872
 30
0.0
 40
3.065933786798643
  0
LINE
  5
2BA
330
2B7
100
AcDbEntity
  8
46616_BEFESTIGUN
  6
Continuous
 62
     7
100
AcDbLine
 10
69.6192464984
 20
205.235566308
 30
0.0
 11
69.02625749
 21
205.235566308
 31
0.0
  0
ARC
  5
2BB
330
2B7
100
AcDbEntity
  8
46616_BEFESTIGUN
  6
Continuous
 62
     7
100
AcDbCircle
 10
69.02625749
 20
205.435566308
 30
0.0
 40
0.2
100
AcDbArc
 50
150.0073065552
 51
270.0
  0
LINE
  5
2BC
330
2B7
100
AcDbEntity
  8
46616_BEFESTIGUN
  6
Continuous
 62
     7
100
AcDbLine
 10
68.8530396583
 20
205.5355442195
 30
0.0
 11
69.1496489209
 21
206.0494378643
 31
0.0
  0
ARC
  5
2BD
330
2B7
100
AcDbEntity
  8
46616_BEFESTIGUN
  6
Continuous
 62
     7
100
AcDbCircle
 10
68.8032132576
 20
206.2493936872
 30
0.0
 40
0.3999999999999997
100
AcDbArc
 50
330.0073065552
 51
29.9926934448
  0
LINE
  5
2BE
330
2B7
100
AcDbEntity
  8
46616_BEFESTIGUN
  6
Continuous
 62
     7
100
AcDbLine
 10
69.1496489209
 20
206.4493495102
 30
0.0
 11
68.8530396583
 21
206.963243155
 31
0.0
  0
ARC
  5
2BF
330
2B7
100
AcDbEntity
  8
46616_BEFESTIGUN
  6
Continuous
 62
     7
100
AcDbCircle
 10
69.02625749
 20
207.0632210664
 30
0.0
 40
0.1999999999999992
100
AcDbArc
 50
90.0
 51
209.9926934448
  0
LINE
  5
2C0
330
2B7
100
AcDbEntity
  8
46616_BEFESTIGUN
  6
Continuous
 62
     7
100
AcDbLine
 10
69.02625749
 20
207.2632210664
 30
0.0
 11
69.6192464984
 21
207.2632210664
 31
0.0
  0
ARC
  5
2C1
330
2B7
100
AcDbEntity
  8
46616_BEFESTIGUN
  6
Continuous
 62
     7
100
AcDbCircle
 10
69.6192464984
 20
207.6632210664
 30
0.0
 40
0.3999999999999997
100
AcDbArc
 50
270.0
 51
330.0073065552
  0
LINE
  5
2C2
330
2B7
100
AcDbEntity
  8
46616_BEFESTIGUN
  6
Continuous
 62
     7
100
AcDbLine
 10
69.9656821618
 20
207.4632652435
 30
0.0
 11
70.2619054822
 21
207.97649022
 31
0.0
  0
ARC
  5
2C3
330
2B7
100
AcDbEntity
  8
46616_BEFESTIGUN
  6
Continuous
 62
     7
100
AcDbCircle
 10
70.4351233139
 20
207.8765123085
 30
0.0
 40
0.1999999999999999
100
AcDbArc
 50
29.9926934448
 51
150.0073065552
  0
LINE
  5
2C4
330
2B7
100
AcDbEntity
  8
46616_BEFESTIGUN
  6
Continuous
 62
     7
100
AcDbLine
 10
70.6083411456
 20
207.97649022
 30
0.0
 11
70.9045644661
 21
207.4632652435
 31
0.0
  0
ARC
  5
2C5
330
2B7
100
AcDbEntity
  8
46616_BEFESTIGUN
  6
Continuous
 62
     7
100
AcDbCircle
 10
71.2510001294
 20
207.6632210664
 30
0.0
 40
0.4000000000000029
100
AcDbArc
 50
209.9926934448
 51
270.0
  0
LINE
  5
2C6
330
2B7
100
AcDbEntity
  8
46616_BEFESTIGUN
  6
Continuous
 62
     7
100
AcDbLine
 10
71.2510001294
 20
207.2632210664
 30
0.0
 11
71.8439891378
 21
207.2632210664
 31
0.0
  0
ARC
  5
2C7
330
2B7
100
AcDbEntity
  8
46616_BEFESTIGUN
  6
Continuous
 62
     7
100
AcDbCircle
 10
71.8439891378
 20
207.0632210664
 30
0.0
 40
0.2000000000000001
100
AcDbArc
 50
330.0073065552
 51
90.0
  0
LINE
  5
2C8
330
2B7
100
AcDbEntity
  8
46616_BEFESTIGUN
  6
Continuous
 62
     7
100
AcDbLine
 10
72.0172069695
 20
206.963243155
 30
0.0
 11
71.7205977069
 21
206.4493495102
 31
0.0
  0
ARC
  5
2C9
330
2B7
100
AcDbEntity
  8
46616_BEFESTIGUN
  6
Continuous
 62
     7
100
AcDbCircle
 10
72.0670333703
 20
206.2493936872
 30
0.0
 40
0.3999999999999997
100
AcDbArc
 50
150.0073065552
 51
209.9926934448
  0
LINE
  5
2CA
330
2B7
100
AcDbEntity
  8
46616_BEFESTIGUN
  6
Continuous
 62
     7
100
AcDbLine
 10
71.7205977069
 20
206.0494378643
 30
0.0
 11
72.0172069695
 21
205.5355442195
 31
0.0
  0
ARC
  5
2CB
330
2B7
100
AcDbEntity
  8
46616_BEFESTIGUN
  6
Continuous
 62
     7
100
AcDbCircle
 10
71.8439891378
 20
205.435566308
 30
0.0
 40
0.1999999999999985
100
AcDbArc
 50
270.0
 51
29.9926934448
  0
LINE
  5
2CC
330
2B7
100
AcDbEntity
  8
46616_BEFESTIGUN
  6
Continuous
 62
     7
100
AcDbLine
 10
71.8439891378
 20
205.235566308
 30
0.0
 11
71.2510001294
 21
205.235566308
 31
0.0
  0
ARC
  5
2CD
330
2B7
100
AcDbEntity
  8
46616_BEFESTIGUN
  6
Continuous
 62
     7
100
AcDbCircle
 10
71.2510001294
 20
204.835566308
 30
0.0
 40
0.4
100
AcDbArc
 50
90.0
 51
150.0073065552
  0
LINE
  5
2CE
330
2B7
100
AcDbEntity
  8
46616_BEFESTIGUN
  6
Continuous
 62
     7
100
AcDbLine
 10
70.9045644661
 20
205.0355221309
 30
0.0
 11
70.6083411456
 21
204.5222971545
 31
0.0
  0
ARC
  5
2CF
330
2B7
100
AcDbEntity
  8
46616_BEFESTIGUN
  6
Continuous
 62
     7
100
AcDbCircle
 10
70.4351233139
 20
204.622275066
 30
0.0
 40
0.2000000000000029
100
AcDbArc
 50
209.9926934448
 51
330.0073065552
  0
LINE
  5
2D0
330
2B7
100
AcDbEntity
  8
46616_BEFESTIGUN
  6
Continuous
 62
     7
100
AcDbLine
 10
70.2619054822
 20
204.5222971545
 30
0.0
 11
69.9656821618
 21
205.0355221309
 31
0.0
  0
ARC
  5
2D1
330
2B7
100
AcDbEntity
  8
46616_BEFESTIGUN
  6
Continuous
 62
     7
100
AcDbCircle
 10
69.6192464984
 20
204.835566308
 30
0.0
 40
0.3999999999999986
100
AcDbArc
 50
29.9926934448
 51
90.0
  0
ENDBLK
  5
2D3
330
2B7
100
AcDbEntity
  8
0
100
AcDbBlockEnd
  0
BLOCK
  5
2EF
330
2D4
100
AcDbEntity
  8
0
100
AcDbBlockBegin
  2
SE6
 70
     0
 10
0.0
 20
0.0
 30
0.0
  3
SE6
  1

  0
CIRCLE
  5
2D6
330
2D4
100
AcDbEntity
  8
46616_BEFESTIGUN
  6
Continuous
 62
     7
100
AcDbCircle
 10
140.9769924113
 20
214.2493936872
 30
0.0
 40
3.065933786798643
  0
LINE
  5
2D7
330
2D4
100
AcDbEntity
  8
46616_BEFESTIGUN
  6
Continuous
 62
     7
100
AcDbLine
 10
140.1611155958
 20
213.235566308
 30
0.0
 11
139.5681265874
 21
213.235566308
 31
0.0
  0
ARC
  5
2D8
330
2D4
100
AcDbEntity
  8
46616_BEFESTIGUN
  6
Continuous
 62
     7
100
AcDbCircle
 10
139.5681265874
 20
213.435566308
 30
0.0
 40
0.2
100
AcDbArc
 50
150.0073065552
 51
270.0
  0
LINE
  5
2D9
330
2D4
100
AcDbEntity
  8
46616_BEFESTIGUN
  6
Continuous
 62
     7
100
AcDbLine
 10
139.3949087557
 20
213.5355442195
 30
0.0
 11
139.6915180183
 21
214.0494378643
 31
0.0
  0
ARC
  5
2DA
330
2D4
100
AcDbEntity
  8
46616_BEFESTIGUN
  6
Continuous
 62
     7
100
AcDbCircle
 10
139.3450823549
 20
214.2493936872
 30
0.0
 40
0.3999999999999997
100
AcDbArc
 50
330.0073065552
 51
29.9926934448
  0
LINE
  5
2DB
330
2D4
100
AcDbEntity
  8
46616_BEFESTIGUN
  6
Continuous
 62
     7
100
AcDbLine
 10
139.6915180183
 20
214.4493495102
 30
0.0
 11
139.3949087557
 21
214.963243155
 31
0.0
  0
ARC
  5
2DC
330
2D4
100
AcDbEntity
  8
46616_BEFESTIGUN
  6
Continuous
 62
     7
100
AcDbCircle
 10
139.5681265874
 20
215.0632210664
 30
0.0
 40
0.1999999999999992
100
AcDbArc
 50
90.0
 51
209.9926934448
  0
LINE
  5
2DD
330
2D4
100
AcDbEntity
  8
46616_BEFESTIGUN
  6
Continuous
 62
     7
100
AcDbLine
 10
139.5681265874
 20
215.2632210664
 30
0.0
 11
140.1611155958
 21
215.2632210664
 31
0.0
  0
ARC
  5
2DE
330
2D4
100
AcDbEntity
  8
46616_BEFESTIGUN
  6
Continuous
 62
     7
100
AcDbCircle
 10
140.1611155958
 20
215.6632210664
 30
0.0
 40
0.3999999999999997
100
AcDbArc
 50
270.0
 51
330.0073065552
  0
LINE
  5
2DF
330
2D4
100
AcDbEntity
  8
46616_BEFESTIGUN
  6
Continuous
 62
     7
100
AcDbLine
 10
140.5075512592
 20
215.4632652435
 30
0.0
 11
140.8037745796
 21
215.97649022
 31
0.0
  0
ARC
  5
2E0
330
2D4
100
AcDbEntity
  8
46616_BEFESTIGUN
  6
Continuous
 62
     7
100
AcDbCircle
 10
140.9769924113
 20
215.8765123085
 30
0.0
 40
0.1999999999999999
100
AcDbArc
 50
29.9926934448
 51
150.0073065552
  0
LINE
  5
2E1
330
2D4
100
AcDbEntity
  8
46616_BEFESTIGUN
  6
Continuous
 62
     7
100
AcDbLine
 10
141.150210243
 20
215.97649022
 30
0.0
 11
141.4464335635
 21
215.4632652435
 31
0.0
  0
ARC
  5
2E2
330
2D4
100
AcDbEntity
  8
46616_BEFESTIGUN
  6
Continuous
 62
     7
100
AcDbCircle
 10
141.7928692268
 20
215.6632210664
 30
0.0
 40
0.4000000000000029
100
AcDbArc
 50
209.9926934448
 51
270.0
  0
LINE
  5
2E3
330
2D4
100
AcDbEntity
  8
46616_BEFESTIGUN
  6
Continuous
 62
     7
100
AcDbLine
 10
141.7928692268
 20
215.2632210664
 30
0.0
 11
142.3858582352
 21
215.2632210664
 31
0.0
  0
ARC
  5
2E4
330
2D4
100
AcDbEntity
  8
46616_BEFESTIGUN
  6
Continuous
 62
     7
100
AcDbCircle
 10
142.3858582352
 20
215.0632210664
 30
0.0
 40
0.2000000000000001
100
AcDbArc
 50
330.0073065552
 51
90.0
  0
LINE
  5
2E5
330
2D4
100
AcDbEntity
  8
46616_BEFESTIGUN
  6
Continuous
 62
     7
100
AcDbLine
 10
142.5590760669
 20
214.963243155
 30
0.0
 11
142.2624668043
 21
214.4493495102
 31
0.0
  0
ARC
  5
2E6
330
2D4
100
AcDbEntity
  8
46616_BEFESTIGUN
  6
Continuous
 62
     7
100
AcDbCircle
 10
142.6089024677
 20
214.2493936872
 30
0.0
 40
0.3999999999999997
100
AcDbArc
 50
150.0073065552
 51
209.9926934448
  0
LINE
  5
2E7
330
2D4
100
AcDbEntity
  8
46616_BEFESTIGUN
  6
Continuous
 62
     7
100
AcDbLine
 10
142.2624668043
 20
214.0494378643
 30
0.0
 11
142.5590760669
 21
213.5355442195
 31
0.0
  0
ARC
  5
2E8
330
2D4
100
AcDbEntity
  8
46616_BEFESTIGUN
  6
Continuous
 62
     7
100
AcDbCircle
 10
142.3858582352
 20
213.435566308
 30
0.0
 40
0.1999999999999985
100
AcDbArc
 50
270.0
 51
29.9926934448
  0
LINE
  5
2E9
330
2D4
100
AcDbEntity
  8
46616_BEFESTIGUN
  6
Continuous
 62
     7
100
AcDbLine
 10
142.3858582352
 20
213.235566308
 30
0.0
 11
141.7928692268
 21
213.235566308
 31
0.0
  0
ARC
  5
2EA
330
2D4
100
AcDbEntity
  8
46616_BEFESTIGUN
  6
Continuous
 62
     7
100
AcDbCircle
 10
141.7928692268
 20
212.835566308
 30
0.0
 40
0.4
100
AcDbArc
 50
90.0
 51
150.0073065552
  0
LINE
  5
2EB
330
2D4
100
AcDbEntity
  8
46616_BEFESTIGUN
  6
Continuous
 62
     7
100
AcDbLine
 10
141.4464335635
 20
213.0355221309
 30
0.0
 11
141.150210243
 21
212.5222971545
 31
0.0
  0
ARC
  5
2EC
330
2D4
100
AcDbEntity
  8
46616_BEFESTIGUN
  6
Continuous
 62
     7
100
AcDbCircle
 10
140.9769924113
 20
212.622275066
 30
0.0
 40
0.2000000000000029
100
AcDbArc
 50
209.9926934448
 51
330.0073065552
  0
LINE
  5
2ED
330
2D4
100
AcDbEntity
  8
46616_BEFESTIGUN
  6
Continuous
 62
     7
100
AcDbLine
 10
140.8037745796
 20
212.5222971545
 30
0.0
 11
140.5075512592
 21
213.0355221309
 31
0.0
  0
ARC
  5
2EE
330
2D4
100
AcDbEntity
  8
46616_BEFESTIGUN
  6
Continuous
 62
     7
100
AcDbCircle
 10
140.1611155958
 20
212.835566308
 30
0.0
 40
0.3999999999999986
100
AcDbArc
 50
29.9926934448
 51
90.0
  0
ENDBLK
  5
2F0
330
2D4
100
AcDbEntity
  8
0
100
AcDbBlockEnd
  0
BLOCK
  5
30C
330
2F1
100
AcDbEntity
  8
0
100
AcDbBlockBegin
  2
SE7
 70
     0
 10
0.0
 20
0.0
 30
0.0
  3
SE7
  1

  0
CIRCLE
  5
2F3
330
2F1
100
AcDbEntity
  8
46616_BEFESTIGUN
  6
Continuous
 62
     7
100
AcDbCircle
 10
145.9769924113
 20
206.2493936872
 30
0.0
 40
3.065933786798643
  0
LINE
  5
2F4
330
2F1
100
AcDbEntity
  8
46616_BEFESTIGUN
  6
Continuous
 62
     7
100
AcDbLine
 10
145.1611155958
 20
205.235566308
 30
0.0
 11
144.5681265874
 21
205.235566308
 31
0.0
  0
ARC
  5
2F5
330
2F1
100
AcDbEntity
  8
46616_BEFESTIGUN
  6
Continuous
 62
     7
100
AcDbCircle
 10
144.5681265874
 20
205.435566308
 30
0.0
 40
0.2
100
AcDbArc
 50
150.0073065552
 51
270.0
  0
LINE
  5
2F6
330
2F1
100
AcDbEntity
  8
46616_BEFESTIGUN
  6
Continuous
 62
     7
100
AcDbLine
 10
144.3949087557
 20
205.5355442195
 30
0.0
 11
144.6915180183
 21
206.0494378643
 31
0.0
  0
ARC
  5
2F7
330
2F1
100
AcDbEntity
  8
46616_BEFESTIGUN
  6
Continuous
 62
     7
100
AcDbCircle
 10
144.3450823549
 20
206.2493936872
 30
0.0
 40
0.3999999999999997
100
AcDbArc
 50
330.0073065552
 51
29.9926934448
  0
LINE
  5
2F8
330
2F1
100
AcDbEntity
  8
46616_BEFESTIGUN
  6
Continuous
 62
     7
100
AcDbLine
 10
144.6915180183
 20
206.4493495102
 30
0.0
 11
144.3949087557
 21
206.963243155
 31
0.0
  0
ARC
  5
2F9
330
2F1
100
AcDbEntity
  8
46616_BEFESTIGUN
  6
Continuous
 62
     7
100
AcDbCircle
 10
144.5681265874
 20
207.0632210664
 30
0.0
 40
0.1999999999999992
100
AcDbArc
 50
90.0
 51
209.9926934448
  0
LINE
  5
2FA
330
2F1
100
AcDbEntity
  8
46616_BEFESTIGUN
  6
Continuous
 62
     7
100
AcDbLine
 10
144.5681265874
 20
207.2632210664
 30
0.0
 11
145.1611155958
 21
207.2632210664
 31
0.0
  0
ARC
  5
2FB
330
2F1
100
AcDbEntity
  8
46616_BEFESTIGUN
  6
Continuous
 62
     7
100
AcDbCircle
 10
145.1611155958
 20
207.6632210664
 30
0.0
 40
0.3999999999999997
100
AcDbArc
 50
270.0
 51
330.0073065552
  0
LINE
  5
2FC
330
2F1
100
AcDbEntity
  8
46616_BEFESTIGUN
  6
Continuous
 62
     7
100
AcDbLine
 10
145.5075512592
 20
207.4632652435
 30
0.0
 11
145.8037745796
 21
207.97649022
 31
0.0
  0
ARC
  5
2FD
330
2F1
100
AcDbEntity
  8
46616_BEFESTIGUN
  6
Continuous
 62
     7
100
AcDbCircle
 10
145.9769924113
 20
207.8765123085
 30
0.0
 40
0.1999999999999999
100
AcDbArc
 50
29.9926934448
 51
150.0073065552
  0
LINE
  5
2FE
330
2F1
100
AcDbEntity
  8
46616_BEFESTIGUN
  6
Continuous
 62
     7
100
AcDbLine
 10
146.150210243
 20
207.97649022
 30
0.0
 11
146.4464335635
 21
207.4632652435
 31
0.0
  0
ARC
  5
2FF
330
2F1
100
AcDbEntity
  8
46616_BEFESTIGUN
  6
Continuous
 62
     7
100
AcDbCircle
 10
146.7928692268
 20
207.6632210664
 30
0.0
 40
0.4000000000000029
100
AcDbArc
 50
209.9926934448
 51
270.0
  0
LINE
  5
300
330
2F1
100
AcDbEntity
  8
46616_BEFESTIGUN
  6
Continuous
 62
     7
100
AcDbLine
 10
146.7928692268
 20
207.2632210664
 30
0.0
 11
147.3858582352
 21
207.2632210664
 31
0.0
  0
ARC
  5
301
330
2F1
100
AcDbEntity
  8
46616_BEFESTIGUN
  6
Continuous
 62
     7
100
AcDbCircle
 10
147.3858582352
 20
207.0632210664
 30
0.0
 40
0.2000000000000001
100
AcDbArc
 50
330.0073065552
 51
90.0
  0
LINE
  5
302
330
2F1
100
AcDbEntity
  8
46616_BEFESTIGUN
  6
Continuous
 62
     7
100
AcDbLine
 10
147.5590760669
 20
206.963243155
 30
0.0
 11
147.2624668043
 21
206.4493495102
 31
0.0
  0
ARC
  5
303
330
2F1
100
AcDbEntity
  8
46616_BEFESTIGUN
  6
Continuous
 62
     7
100
AcDbCircle
 10
147.6089024677
 20
206.2493936872
 30
0.0
 40
0.3999999999999997
100
AcDbArc
 50
150.0073065552
 51
209.9926934448
  0
LINE
  5
304
330
2F1
100
AcDbEntity
  8
46616_BEFESTIGUN
  6
Continuous
 62
     7
100
AcDbLine
 10
147.2624668043
 20
206.0494378643
 30
0.0
 11
147.5590760669
 21
205.5355442195
 31
0.0
  0
ARC
  5
305
330
2F1
100
AcDbEntity
  8
46616_BEFESTIGUN
  6
Continuous
 62
     7
100
AcDbCircle
 10
147.3858582352
 20
205.435566308
 30
0.0
 40
0.1999999999999985
100
AcDbArc
 50
270.0
 51
29.9926934448
  0
LINE
  5
306
330
2F1
100
AcDbEntity
  8
46616_BEFESTIGUN
  6
Continuous
 62
     7
100
AcDbLine
 10
147.3858582352
 20
205.235566308
 30
0.0
 11
146.7928692268
 21
205.235566308
 31
0.0
  0
ARC
  5
307
330
2F1
100
AcDbEntity
  8
46616_BEFESTIGUN
  6
Continuous
 62
     7
100
AcDbCircle
 10
146.7928692268
 20
204.835566308
 30
0.0
 40
0.4
100
AcDbArc
 50
90.0
 51
150.0073065552
  0
LINE
  5
308
330
2F1
100
AcDbEntity
  8
46616_BEFESTIGUN
  6
Continuous
 62
     7
100
AcDbLine
 10
146.4464335635
 20
205.0355221309
 30
0.0
 11
146.150210243
 21
204.5222971545
 31
0.0
  0
ARC
  5
309
330
2F1
100
AcDbEntity
  8
46616_BEFESTIGUN
  6
Continuous
 62
     7
100
AcDbCircle
 10
145.9769924113
 20
204.622275066
 30
0.0
 40
0.2000000000000029
100
AcDbArc
 50
209.9926934448
 51
330.0073065552
  0
LINE
  5
30A
330
2F1
100
AcDbEntity
  8
46616_BEFESTIGUN
  6
Continuous
 62
     7
100
AcDbLine
 10
145.8037745796
 20
204.5222971545
 30
0.0
 11
145.5075512592
 21
205.0355221309
 31
0.0
  0
ARC
  5
30B
330
2F1
100
AcDbEntity
  8
46616_BEFESTIGUN
  6
Continuous
 62
     7
100
AcDbCircle
 10
145.1611155958
 20
204.835566308
 30
0.0
 40
0.3999999999999986
100
AcDbArc
 50
29.9926934448
 51
90.0
  0
ENDBLK
  5
30D
330
2F1
100
AcDbEntity
  8
0
100
AcDbBlockEnd
  0
BLOCK
  5
318
330
316
100
AcDbEntity
  8
0
100
AcDbBlockBegin
  2
SEANNOT_GROUP
 70
     0
 10
0.0
 20
0.0
 30
0.0
  3
SEANNOT_GROUP
  1

  0
ENDBLK
  5
319
330
316
100
AcDbEntity
  8
0
100
AcDbBlockEnd
  0
BLOCK
  5
31B
330
31A
100
AcDbEntity
  8
0
100
AcDbBlockBegin
  2
_NONE
 70
     0
 10
0.0
 20
0.0
 30
0.0
  3
_NONE
  1

  0
ENDBLK
  5
31C
330
31A
100
AcDbEntity
  8
0
100
AcDbBlockEnd
  0
ENDSEC
  0
SECTION
  2
ENTITIES
  0
INSERT
  5
70
330
1F
100
AcDbEntity
  8
Standard
100
AcDbBlockReference
  2
SE
 10
0.0
 20
0.0
 30
0.0
  0
INSERT
  5
F0
330
1F
100
AcDbEntity
  8
Standard
100
AcDbBlockReference
  2
SE1
 10
0.0
 20
0.0
 30
0.0
  0
DIMENSION
  5
189
330
1F
100
AcDbEntity
  8
Standard
  6
Continuous
 62
     7
100
AcDbDimension
 10
60.5351233139
 20
130.6770977059
 30
0.0
 11
67.9351233161
 21
130.6770977059
 31
0.0
 70
   161
  1
\A1;<>
 71
     5
 42
-1.0
 73
     0
 74
     0
 75
     0
  3
E-Katalog
100
AcDbAlignedDimension
 13
60.5351233139
 23
124.4695663878
 33
0.0
 14
75.3351233139
 24
124.4695663878
 34
0.0
  0
DIMENSION
  5
18A
330
1F
100
AcDbEntity
  8
Standard
  6
Continuous
 62
     7
100
AcDbDimension
 10
84.9807001486
 20
112.7695663878
 30
0.0
 11
84.9807001486
 21
118.7195662507
 31
0.0
 70
   160
  1
\A1;<>
 71
     5
 42
-1.0
 73
     0
 74
     0
 75
     0
  3
E-Katalog
100
AcDbAlignedDimension
 13
73.8351233139
 23
124.6695663878
 33
0.0
 14
74.227110612
 24
112.7695663878
 34
0.0
 50
90.0
100
AcDbRotatedDimension
1001
ACAD
1000
DSTYLE
1002
{
1070
   271
1070
     0
1070
     0
1002
}
  0
DIMENSION
  5
18B
330
1F
100
AcDbEntity
  8
Standard
  6
Continuous
 62
     7
100
AcDbDimension
 10
83.3507194829
 20
96.6635338252
 30
0.0
 11
67.8976307022
 21
96.6635338252
 31
0.0
 70
   160
  1
\A1;<>
 71
     5
 42
-1.0
 73
     0
 74
     0
 75
     0
  3
E-Katalog
100
AcDbAlignedDimension
 13
52.444542605
 23
104.4059355033
 33
0.0
 14
83.3507194829
 24
104.6298002757
 34
0.0
100
AcDbRotatedDimension
1001
ACAD
1000
DSTYLE
1002
{
1070
   271
1070
     0
1070
     0
1002
}
  0
DIMENSION
  5
18C
330
1F
100
AcDbEntity
  8
Standard
  6
Continuous
 62
     7
100
AcDbDimension
 10
89.2873264954
 20
104.2665902095
 30
0.0
 11
89.2873264954
 21
106.7106015013
 31
0.0
 70
   160
  1
\A1;<>
 71
     5
 42
-1.0
 73
     0
 74
     0
 75
     0
  3
E-Katalog
100
AcDbAlignedDimension
 13
67.9351229325
 23
109.1546126606
 33
0.0
 14
83.2351233139
 24
104.2665902095
 34
0.0
 50
90.0
100
AcDbRotatedDimension
1001
ACAD
1000
DSTYLE
1002
{
1070
   271
1070
     0
1070
     0
1002
}
  0
DIMENSION
  5
18D
330
1F
100
AcDbEntity
  8
Standard
  6
Continuous
 62
     7
100
AcDbDimension
 10
83.3507194829
 20
170.2994965928
 30
0.0
 11
67.8976307022
 21
170.2994965928
 31
0.0
 70
   160
  1
\A1;<>
 71
     5
 42
-1.0
 73
     0
 74
     0
 75
     0
  3
E-Katalog
100
AcDbAlignedDimension
 13
52.444542605
 23
177.9857628027
 33
0.0
 14
83.3507194829
 24
178.2096275751
 34
0.0
100
AcDbRotatedDimension
1001
ACAD
1000
DSTYLE
1002
{
1070
   271
1070
     0
1070
     0
1002
}
  0
DIMENSION
  5
18E
330
1F
100
AcDbEntity
  8
Standard
  6
Continuous
 62
     7
100
AcDbDimension
 10
93.0522091791
 20
177.8464175089
 30
0.0
 11
93.0522091791
 21
180.2904288007
 31
0.0
 70
   160
  1
\A1;<>
 71
     5
 42
-1.0
 73
     0
 74
     0
 75
     0
  3
E-Katalog
100
AcDbAlignedDimension
 13
67.9351229325
 23
182.7344399599
 33
0.0
 14
82.2086875339
 24
177.8464175089
 34
0.0
 50
90.0
100
AcDbRotatedDimension
1001
ACAD
1000
DSTYLE
1002
{
1070
   271
1070
     0
1070
     0
1002
}
  0
DIMENSION
  5
18F
330
1F
100
AcDbEntity
  8
Standard
  6
Continuous
 62
     7
100
AcDbDimension
 10
82.2219410747
 20
186.3493936872
 30
0.0
 11
82.2219410747
 21
192.2993935501
 31
0.0
 70
   160
  1
\A1;<>
 71
     5
 42
-1.0
 73
     0
 74
     0
 75
     0
  3
E-Katalog
100
AcDbAlignedDimension
 13
73.8351233139
 23
198.2493936872
 33
0.0
 14
74.227110612
 24
186.3493936872
 34
0.0
 50
90.0
100
AcDbRotatedDimension
1001
ACAD
1000
DSTYLE
1002
{
1070
   271
1070
     0
1070
     0
1002
}
  0
DIMENSION
  5
190
330
1F
100
AcDbEntity
  8
Standard
  6
Continuous
 62
     7
100
AcDbDimension
 10
60.5351233139
 20
231.5614456972
 30
0.0
 11
67.9351233161
 21
231.5614456972
 31
0.0
 70
   161
  1
\A1;<>
 71
     5
 42
-1.0
 73
     0
 74
     0
 75
     0
  3
E-Katalog
100
AcDbAlignedDimension
 13
60.5351233139
 23
219.3493936872
 33
0.0
 14
75.3351233139
 24
219.3493936872
 34
0.0
  0
INSERT
  5
192
330
1F
100
AcDbEntity
  8
Standard
100
AcDbBlockReference
  2
SE2
 10
0.0
 20
0.0
 30
0.0
  0
INSERT
  5
219
330
1F
100
AcDbEntity
  8
Standard
100
AcDbBlockReference
  2
SE3
 10
0.0
 20
0.0
 30
0.0
  0
DIMENSION
  5
298
330
1F
100
AcDbEntity
  8
Standard
  6
Continuous
 62
     7
100
AcDbDimension
 10
89.7219407871
 20
226.7493936872
 30
0.0
 11
89.7219407871
 21
206.5493929004
 31
0.0
 70
   160
  1
\A1;40,5 {}
 71
     5
 42
-1.0
 73
     0
 74
     0
 75
     0
  3
E-Katalog
100
AcDbAlignedDimension
 13
75.1351233139
 23
186.3493936872
 33
0.0
 14
67.9351233139
 24
226.7493936872
 34
0.0
 50
90.0
100
AcDbRotatedDimension
  0
INSERT
  5
29A
330
1F
100
AcDbEntity
  8
Standard
100
AcDbBlockReference
  2
SE4
 10
0.0
 20
0.0
 30
0.0
  0
INSERT
  5
2B8
330
1F
100
AcDbEntity
  8
Standard
100
AcDbBlockReference
  2
SE5
 10
0.0
 20
0.0
 30
0.0
  0
INSERT
  5
2D5
330
1F
100
AcDbEntity
  8
Standard
100
AcDbBlockReference
  2
SE6
 10
0.0
 20
0.0
 30
0.0
  0
INSERT
  5
2F2
330
1F
100
AcDbEntity
  8
Standard
100
AcDbBlockReference
  2
SE7
 10
0.0
 20
0.0
 30
0.0
  0
MTEXT
  5
30F
330
1F
100
AcDbEntity
  8
Default
100
AcDbMText
 10
139.6221177889
 20
28.161474171
 30
0.0
 40
2.5
 41
60.0887616677
 46
5.4782708696
 71
     4
 72
     1
  1
{\fSolid Edge ISO|b0||i0||c0|p34;\C7;\H2.5;\W1.;Magnetomat}
 73
     1
 44
1.0
1001
ACAD
1000
ACAD_MTEXT_DEFINED_HEIGHT_BEGIN
1070
    46
1040
5.4782708696
1000
ACAD_MTEXT_DEFINED_HEIGHT_END
  0
LINE
  5
310
330
1F
100
AcDbEntity
  8
Default
  6
Continuous
 62
     7
100
AcDbLine
 10
138.2000000051
 20
9.9999999541
 30
0.0
 11
138.2000000051
 21
34.3502211504
 31
0.0
  0
MTEXT
  5
311
330
1F
100
AcDbEntity
  8
Default
100
AcDbMText
 10
122.5168744495
 20
17.5485405285
 30
0.0
 40
2.2
 41
15.7520375387
 46
4.0615484615
 71
     1
 72
     1
  1
{\fSolid Edge ANSI|b0||i0||c0|p34;\C7;\H2.2;\W1.;Maßst.}{\fSolid Edge ANSI|b0||i0||c0|p34;\C7;\H1.5;\W1.;/ scale}
 73
     1
 44
1.0
1001
ACAD
1000
ACAD_MTEXT_DEFINED_HEIGHT_BEGIN
1070
    46
1040
4.0615484615
1000
ACAD_MTEXT_DEFINED_HEIGHT_END
  0
MTEXT
  5
312
330
1F
100
AcDbEntity
  8
Default
100
AcDbMText
 10
148.2238718478
 20
15.907103298
 30
0.0
 40
2.2
 41
18.1206027323
 46
4.0615484615
 71
     5
 72
     1
  1
{\fSolid Edge ANSI|b0||i0||c0|p34;\C7;\H2.2;\W1.;Art. Nr.}{\fSolid Edge ANSI|b0||i0||c0|p34;\C7;\H1.5;\W1.;/ art. no.}
 73
     1
 44
1.0
1001
ACAD
1000
ACAD_MTEXT_DEFINED_HEIGHT_BEGIN
1070
    46
1040
4.0615484615
1000
ACAD_MTEXT_DEFINED_HEIGHT_END
  0
MTEXT
  5
313
330
1F
100
AcDbEntity
  8
Default
100
AcDbMText
 10
139.5512791446
 20
32.9682471949
 30
0.0
 40
2.2
 41
21.7100432289
 46
4.0615484615
 71
     1
 72
     1
  1
{\fSolid Edge ANSI|b0||i0||c0|p34;\C7;\H2.2;\W1.;Benennung}{\fSolid Edge ANSI|b0||i0||c0|p34;\C7;\H1.5;\W1.;/ title}
 73
     1
 44
1.0
1001
ACAD
1000
ACAD_MTEXT_DEFINED_HEIGHT_BEGIN
1070
    46
1040
4.0615484615
1000
ACAD_MTEXT_DEFINED_HEIGHT_END
  0
LINE
  5
314
330
1F
100
AcDbEntity
  8
Default
  6
Continuous
 62
     7
100
AcDbLine
 10
9.9999999859
 20
25.9987912971
 30
0.0
 11
199.9999999859
 21
25.9987912971
 31
0.0
  0
LINE
  5
315
330
1F
100
AcDbEntity
  8
Default
  6
Continuous
 62
     7
100
AcDbLine
 10
138.2000000051
 20
34.3502211504
 30
0.0
 11
199.9999999859
 21
34.3502211504
 31
0.0
  0
INSERT
  5
317
330
1F
100
AcDbEntity
  8
Standard
100
AcDbBlockReference
  2
SEANNOT_GROUP
 10
0.0
 20
0.0
 30
0.0
  0
MULTILEADER
  5
31D
330
1F
100
AcDbEntity
  8
Standard
  6
Continuous
 62
     7
 92
      224
310
E0000000020000000C00000013000000993A0000CC0000002600000024AC20655A0D60407E6F6387C31D2640000000000000000000000000000000000000000000000000000000000000F03F000000000000F03F0000000000000000000000000000000031003A003100000003000000010000003333333333330940000000
310
000000F03F0000000000000000000000000000F03F00000000000000000000000000000000000000000000000000000000000000002200000053006F006C0069006400200045006400670065002000490053004F00000000000000000000000000
100
AcDbMLeader
300
CONTEXT_DATA{
 40
1.0
 10
126.5558845495
 20
12.6331323918
 30
0.0
 41
3.15
140
4.725
145
1.1025
174
     1
175
     1
176
     0
177
     0
290
     1
304
{\pxsm1.;\fSolid Edge ISO|b0||i0||c0|p34;\W1.;1:1\P}
 11
0.0
 21
0.0
 31
1.0
340
11
 12
128.5558845495
 22
14.2112823918
 32
0.0
 13
1.0
 23
0.0
 33
0.0
 42
0.0
 43
0.0
 44
0.0
 45
1.0
170
     1
 90
-1023410169
171
     1
172
     1
 91
-939524096
141
1.5
 92
        0
291
     0
292
     0
173
     0
293
     0
142
0.0
143
0.0
294
     0
295
     0
296
     0
110
0.0
120
0.0
130
0.0
111
1.0
121
0.0
131
0.0
112
0.0
122
1.0
132
0.0
297
     0
301
}
340
6C
 90
 35119009
170
     0
 91
-1056964608
341
14
171
    -2
290
     1
291
     1
 41
0.0
342
31A
 42
4.725
172
     2
343
11
173
     1
 95
        1
174
     1
175
     0
 92
-1023410169
292
     0
 93
-1023410169
 10
1.0
 20
1.0
 30
1.0
 43
0.0
176
     0
293
     0
294
     0
178
     0
179
     1
 45
1.0
1001
ACAD_MLEADERVER
1070
     2
  0
MTEXT
  5
31E
330
1F
100
AcDbEntity
  8
Default
100
AcDbMText
 10
139.7786414766
 20
12.1030055624
 30
0.0
 40
3.0
 41
18.7991063348
 46
5.0845858028
 71
     4
 72
     1
  1
{\fSolid Edge ISO|b0||i0||c0|p34;\C7;\H3.;\W1.;1-167}
 73
     1
 44
1.0
1001
ACAD
1000
ACAD_MTEXT_DEFINED_HEIGHT_BEGIN
1070
    46
1040
5.0845858028
1000
ACAD_MTEXT_DEFINED_HEIGHT_END
  0
MTEXT
  5
31F
330
1F
100
AcDbEntity
  8
Standard
100
AcDbMText
 10
128.2243715112
 20
21.9523050455
 30
0.0
 40
2.5
 41
4.125011
 46
4.0909190909
 71
     1
 72
     1
  1
{\fSolid Edge ISO|b0||i0||c0|p34;\C7;\H2.5;\W1.;mm}
 73
     1
 44
1.0
1001
ACAD
1000
ACAD_MTEXT_DEFINED_HEIGHT_BEGIN
1070
    46
1040
4.0909190909
1000
ACAD_MTEXT_DEFINED_HEIGHT_END
  0
LINE
  5
320
330
1F
100
AcDbEntity
  8
Standard
  6
Continuous
 62
     7
100
AcDbLine
 10
138.2000000051
 20
18.2287912793
 30
0.0
 11
106.3095894048
 21
18.2287912793
 31
0.0
  0
LINE
  5
321
330
1F
100
AcDbEntity
  8
Standard
  6
Continuous
 62
     7
100
AcDbLine
 10
106.3095894048
 20
25.9987912971
 30
0.0
 11
106.3095894048
 21
9.9999999541
 31
0.0
  0
MTEXT
  5
322
330
1F
100
AcDbEntity
  8
Standard
100
AcDbMText
 10
106.9145404388
 20
25.2290846617
 30
0.0
 40
2.2
 41
14.4015494615
 46
4.0615484615
 71
     1
 72
     1
  1
{\fSolid Edge ANSI|b0||i0||c0|p34;\C7;\H2.2;\W1.;freig.}{\fSolid Edge ANSI|b0||i0||c0|p34;\C7;\H1.5;\W1.;/ appr.}
 73
     1
 44
1.0
1001
ACAD
1000
ACAD_MTEXT_DEFINED_HEIGHT_BEGIN
1070
    46
1040
4.0615484615
1000
ACAD_MTEXT_DEFINED_HEIGHT_END
  0
MTEXT
  5
323
330
1F
100
AcDbEntity
  8
Default
100
AcDbMText
 10
107.6188207159
 20
17.6037681847
 30
0.0
 40
2.2
 41
13.1956831311
 46
4.0615484615
 71
     1
 72
     1
  1
{\fSolid Edge ANSI|b0||i0||c0|p34;\C7;\H2.2;\W1.;Blatt}{\fSolid Edge ANSI|b0||i0||c0|p34;\C7;\H1.5;\W1.;/ sheet}
 73
     1
 44
1.0
1001
ACAD
1000
ACAD_MTEXT_DEFINED_HEIGHT_BEGIN
1070
    46
1040
4.0615484615
1000
ACAD_MTEXT_DEFINED_HEIGHT_END
  0
MTEXT
  5
324
330
1F
100
AcDbEntity
  8
Standard
100
AcDbMText
 10
112.0531670475
 20
14.2192192227
 30
0.0
 40
3.0
 41
3.750011
 46
4.9091009091
 71
     1
 72
     1
  1
{\fSolid Edge ISO|b0||i0||c0|p34;\C7;\H3.;\W1.;A4}
 73
     1
 44
1.0
1001
ACAD
1000
ACAD_MTEXT_DEFINED_HEIGHT_BEGIN
1070
    46
1040
4.9091009091
1000
ACAD_MTEXT_DEFINED_HEIGHT_END
  0
MTEXT
  5
325
330
1F
100
AcDbEntity
  8
Default
100
AcDbMText
 10
107.1395513873
 20
20.4081738308
 30
0.0
 40
2.2
 41
14.7330465525
 46
3.6
 71
     4
 72
     1
  1
{\fSolid Edge ISO|b0||i0||c0|p34;\C7;\H2.2;\W1.;23.11.2023}
 73
     1
 44
1.0
1001
ACAD
1000
ACAD_MTEXT_DEFINED_HEIGHT_BEGIN
1070
    46
1040
3.6
1000
ACAD_MTEXT_DEFINED_HEIGHT_END
  0
MTEXT
  5
326
330
1F
100
AcDbEntity
  8
Standard
100
AcDbMText
 10
10.6587314417
 20
33.7981133176
 30
0.0
 40
1.2
 41
127.5412685634
 46
8.1685527897
 71
     1
 72
     1
  3
{\fSolid Edge ANSI|b0||i0||c0|p34;\C7;\H1.2;\W1.;Weitergabe sowie Vervielfältigung dieser vertraulichen Unterlage(n), Verwertung und Mitteilung ihres Inhalts nicht ohne unsere vorherige schriftliche Genehmigung gestattet. \P}{\fSolid Edge ANSI|b0||i0
  3
||c0|p34;\C7;\H1.2;\W1.;Zuwiderhandlungen verpflichten zu Schadenersatz. Alle Rechte für den Fall der Patenterteilung oder Gebrauchsmuster-Eintragung vorbehalten.\P}{\fSolid Edge ANSI|b0||i0||c0|p34;\C7;\H1.;\W1.;The copying, use, distribution or dis
  3
closure of the confidential and proprietary information contained in this document(s) is strictly prohibited without prior written consent. Any breach shall subject the \P}{\fSolid Edge ANSI|b0||i0||c0|p34;\C7;\H1.;\W1.;infringing party to remedies. 
  1
The owner reserves all rights in the event of the grant of a patent or the registration of a utility model or design.}
 73
     1
 44
1.0
1001
ACAD
1000
ACAD_MTEXT_DEFINED_HEIGHT_BEGIN
1070
    46
1040
8.1685527897
1000
ACAD_MTEXT_DEFINED_HEIGHT_END
  0
MTEXT
  5
327
330
1F
100
AcDbEntity
  8
Default
100
AcDbMText
 10
139.5531289039
 20
20.5520608538
 30
0.0
 40
2.5
 41
59.872727305
 46
4.6153946154
 71
     4
 72
     1
  1
{\fSolid Edge ISO|b0||i0||c0|p34;\C7;\H2.5;\W1.;technische Zeichnung_mkt}
 73
     1
 44
1.0
1001
ACAD
1000
ACAD_MTEXT_DEFINED_HEIGHT_BEGIN
1070
    46
1040
4.6153946154
1000
ACAD_MTEXT_DEFINED_HEIGHT_END
  0
MTEXT
  5
328
330
1F
100
AcDbEntity
  8
Default
100
AcDbMText
 10
139.645932934
 20
25.5772390452
 30
0.0
 40
2.2
 41
33.0612482929
 46
4.0615484615
 71
     1
 72
     1
  1
{\fSolid Edge ANSI|b0||i0||c0|p34;\C7;\H2.2;\W1.;Zeichnungsart}{\fSolid Edge ANSI|b0||i0||c0|p34;\C7;\H1.5;\W1.;/ drawing type}
 73
     1
 44
1.0
1001
ACAD
1000
ACAD_MTEXT_DEFINED_HEIGHT_BEGIN
1070
    46
1040
4.0615484615
1000
ACAD_MTEXT_DEFINED_HEIGHT_END
  0
MTEXT
  5
329
330
1F
100
AcDbEntity
  8
Standard
100
AcDbMText
 10
122.722860057
 20
25.1473558409
 30
0.0
 40
2.2
 41
15.8428315128
 46
4.0615484615
 71
     1
 72
     1
  1
{\fSolid Edge ANSI|b0||i0||c0|p34;\C7;\H2.2;\W1.;Einheit}{\fSolid Edge ANSI|b0||i0||c0|p34;\C7;\H1.5;\W1.;/ unit}
 73
     1
 44
1.0
1001
ACAD
1000
ACAD_MTEXT_DEFINED_HEIGHT_BEGIN
1070
    46
1040
4.0615484615
1000
ACAD_MTEXT_DEFINED_HEIGHT_END
  0
LINE
  5
32A
330
1F
100
AcDbEntity
  8
Standard
  6
Continuous
 62
     7
100
AcDbLine
 10
122.1841943695
 20
25.9987912971
 30
0.0
 11
122.1841943695
 21
10.0
 31
0.0
  0
LINE
  5
32B
330
1F
100
AcDbEntity
  8
Standard
  6
Continuous
 62
     7
100
AcDbLine
 10
138.2000000051
 20
18.2287912793
 30
0.0
 11
200.0
 21
18.2287912793
 31
0.0
  0
LINE
  5
32C
330
1F
100
AcDbEntity
  8
Standard
  6
Continuous
 62
     7
100
AcDbLine
 10
138.2000000051
 20
34.3502211504
 30
0.0
 11
10.0
 21
34.3502211504
 31
0.0
  0
LINE
  5
32E
330
1F
100
AcDbEntity
  8
Skizziergeometrie(DIN)
  6
Continuous
 62
     7
100
AcDbLine
 10
10.0
 20
287.0
 30
0.0
 11
200.0
 21
287.0
 31
0.0
  0
LINE
  5
32F
330
1F
100
AcDbEntity
  8
Skizziergeometrie(DIN)
  6
Continuous
 62
     7
100
AcDbLine
 10
200.0
 20
287.0
 30
0.0
 11
200.0
 21
9.9999926436
 31
0.0
  0
LINE
  5
330
330
1F
100
AcDbEntity
  8
Skizziergeometrie(DIN)
  6
Continuous
 62
     7
100
AcDbLine
 10
200.0
 20
9.9999926436
 30
0.0
 11
10.0
 21
9.9999926436
 31
0.0
  0
LINE
  5
331
330
1F
100
AcDbEntity
  8
Skizziergeometrie(DIN)
  6
Continuous
 62
     7
100
AcDbLine
 10
10.0
 20
10.0
 30
0.0
 11
10.0
 21
287.0
 31
0.0
  0
IMAGE
  5
335
330
1F
100
AcDbEntity
  8
0
 92
      140
310
8C000000010000008400000006000000050000000E64D78BE9972B40BC01B030F29425400000000000000000559114E8E5774740BC01B030F29425400000000000000000559114E8E5774740017F9619FA7E384000000000000000000E64D78BE9972B40017F9619FA7E384000000000000000000E64D78BE9972B40BC01B0
310
30F29425400000000000000000
100
AcDbRasterImage
 90
        0
 10
13.7967036915
 20
10.7909102645
 30
0.0
 11
0.07742990654205607
 21
0.0
 31
0.0
 12
0.0
 22
0.07742990654205609
 32
0.0
 13
428.0
 23
177.0
340
334
 70
     7
280
     0
281
    50
282
    50
283
     0
360
336
 71
     1
 91
        2
 14
-0.5
 24
-0.5
 14
427.5
 24
176.5
  0
ENDSEC
  0
SECTION
  2
OBJECTS
  0
DICTIONARY
  5
C
330
0
100
AcDbDictionary
281
     1
  3
ACAD_DETAILVIEWSTYLE
350
372
  3
ACAD_GROUP
350
D
  3
ACAD_IMAGE_DICT
350
333
  3
ACAD_IMAGE_VARS
350
332
  3
ACAD_LAYOUT
350
1A
  3
ACAD_MATERIAL
350
43
  3
ACAD_MLEADERSTYLE
350
6B
  3
ACAD_MLINESTYLE
350
17
  3
ACAD_PLOTSETTINGS
350
19
  3
ACAD_PLOTSTYLENAME
350
E
  3
ACAD_SCALELIST
350
47
  3
ACAD_SECTIONVIEWSTYLE
350
373
  3
ACAD_TABLESTYLE
350
69
  3
ACAD_VISUALSTYLE
350
2A
  3
ACDB_RECOMPOSE_DATA
350
36F
  3
AcDbVariableDictionary
350
338
  0
SUN
  5
6D
330
29
100
AcDbSun
 90
        1
290
     0
 63
     7
421
 16777215
 40
1.0
291
     1
 91
  2455826
 92
 54000000
292
     0
 70
     2
 71
   256
280
     1
  0
IMAGEDEF_REACTOR
  5
336
330
335
100
AcDbRasterImageDefReactor
 90
        2
330
335
  0
DICTIONARY
  5
372
102
{ACAD_REACTORS
330
C
102
}
330
C
100
AcDbDictionary
281
     1
  0
DICTIONARY
  5
D
102
{ACAD_REACTORS
330
C
102
}
330
C
100
AcDbDictionary
281
     1
  0
DICTIONARY
  5
333
102
{ACAD_REACTORS
330
C
102
}
330
C
100
AcDbDictionary
281
     1
  3
1-167-1x_1.bmp
350
334
  0
RASTERVARIABLES
  5
332
102
{ACAD_REACTORS
330
C
102
}
330
C
100
AcDbRasterVariables
 90
        0
 70
     1
 71
     1
 72
     1
  0
DICTIONARY
  5
1A
102
{ACAD_REACTORS
330
C
102
}
330
C
100
AcDbDictionary
281
     1
  3
Layout1
350
1E
  3
Model
350
22
  0
DICTIONARY
  5
43
102
{ACAD_REACTORS
330
C
102
}
330
C
100
AcDbDictionary
281
     1
  3
ByBlock
350
45
  3
ByLayer
350
44
  3
Global
350
46
  0
DICTIONARY
  5
6B
102
{ACAD_REACTORS
330
C
102
}
330
C
100
AcDbDictionary
281
     1
  3
Standard
350
6C
  0
DICTIONARY
  5
17
102
{ACAD_REACTORS
330
C
102
}
330
C
100
AcDbDictionary
281
     1
  3
Standard
350
18
  0
DICTIONARY
  5
19
102
{ACAD_REACTORS
330
C
102
}
330
C
100
AcDbDictionary
281
     1
  0
ACDBDICTIONARYWDFLT
  5
E
102
{ACAD_REACTORS
330
C
102
}
330
C
100
AcDbDictionary
281
     1
  3
Normal
350
F
100
AcDbDictionaryWithDefault
340
F
  0
DICTIONARY
  5
47
102
{ACAD_REACTORS
330
C
102
}
330
C
100
AcDbDictionary
281
     1
  3
A0
350
48
  3
A1
350
49
  3
A2
350
4A
  3
A3
350
4B
  3
A4
350
4C
  3
A5
350
4D
  3
A6
350
4E
  3
A7
350
4F
  3
A8
350
50
  3
A9
350
51
  3
B0
350
52
  3
B1
350
53
  3
B2
350
54
  3
B3
350
55
  3
B4
350
56
  3
B5
350
57
  3
B6
350
58
  3
B7
350
59
  3
B8
350
5A
  3
B9
350
5B
  3
C0
350
5C
  3
C1
350
5D
  3
C2
350
5E
  3
C3
350
5F
  3
C4
350
60
  3
C5
350
61
  3
C6
350
62
  3
C7
350
63
  3
C8
350
64
  3
C9
350
65
  3
D0
350
66
  3
D1
350
67
  3
D2
350
68
  0
DICTIONARY
  5
373
102
{ACAD_REACTORS
330
C
102
}
330
C
100
AcDbDictionary
281
     1
  0
DICTIONARY
  5
69
102
{ACAD_REACTORS
330
C
102
}
330
C
100
AcDbDictionary
281
     1
  3
Standard
350
6A
  0
DICTIONARY
  5
2A
102
{ACAD_REACTORS
330
C
102
}
330
C
100
AcDbDictionary
281
     1
  3
2dWireframe
350
2F
  3
Basic
350
32
  3
Brighten
350
36
  3
ColorChange
350
3A
  3
Conceptual
350
34
  3
Dim
350
35
  3
EdgeColorOff
350
3D
  3
Facepattern
350
39
  3
Flat
350
2B
  3
FlatWithEdges
350
2C
  3
Gouraud
350
2D
  3
GouraudWithEdges
350
2E
  3
Hidden
350
31
  3
JitterOff
350
3B
  3
Linepattern
350
38
  3
OverhangOff
350
3C
  3
Realistic
350
33
  3
Shaded
350
42
  3
Shaded with edges
350
41
  3
Shades of Gray
350
3E
  3
Sketchy
350
3F
  3
Thicken
350
37
  3
Wireframe
350
30
  3
X-Ray
350
40
  0
XRECORD
  5
36F
102
{ACAD_REACTORS
330
C
102
}
330
C
100
AcDbXrecord
280
     1
 90
        1
330
6A
  0
DICTIONARY
  5
338
102
{ACAD_REACTORS
330
C
102
}
330
C
100
AcDbDictionary
281
     1
  3
CANNOSCALE
350
339
  3
CENTEREXE
350
374
  3
CENTERLTYPEFILE
350
375
  3
CMLEADERSTYLE
350
371
  3
CTABLESTYLE
350
370
  3
XCLIPFRAME
350
33A
  0
IMAGEDEF
  5
334
102
{ACAD_REACTORS
330
333
330
336
102
}
330
333
100
AcDbRasterImageDef
 90
        0
  1
1-167-1x_1.bmp
 10
428.0
 20
177.0
 11
0.002336448598130841
 21
0.002336448598130841
280
     1
281
     5
  0
LAYOUT
  5
1E
102
{ACAD_REACTORS
330
1A
102
}
330
1A
100
AcDbPlotSettings
  1

  2
none_device
  4

  6

 40
0.0
 41
0.0
 42
0.0
 43
0.0
 44
0.0
 45
0.0
 46
0.0
 47
0.0
 48
0.0
 49
0.0
140
0.0
141
0.0
142
1.0
143
1.0
 70
   688
 72
     1
 73
     0
 74
     5
  7

 75
    16
 76
     0
 77
     2
 78
   300
147
1.0
148
0.0
149
0.0
100
AcDbLayout
  1
Layout1
 70
     1
 71
     1
 10
0.0
 20
0.0
 11
210.0
 21
297.0
 12
0.0
 22
0.0
 32
0.0
 14
0.0
 24
0.0
 34
0.0
 15
210.0
 25
297.0
 35
0.0
146
0.0
 13
0.0
 23
0.0
 33
0.0
 16
1.0
 26
0.0
 36
0.0
 17
0.0
 27
1.0
 37
0.0
 76
     0
330
1B
  0
LAYOUT
  5
22
102
{ACAD_REACTORS
330
1A
102
}
330
1A
100
AcDbPlotSettings
  1

  2
none_device
  4
Letter_(8.50_x_11.00_Inches)
  6

 40
6.35
 41
6.35
 42
6.35000508
 43
6.35000508
 44
215.9
 45
279.4
 46
0.0
 47
0.0
 48
0.0
 49
0.0
140
0.0
141
0.0
142
1.0
143
1.0
 70
  1712
 72
     1
 73
     0
 74
     0
  7

 75
     0
 76
     0
 77
     2
 78
   300
147
1.0
148
0.0
149
0.0
100
AcDbLayout
  1
Model
 70
     1
 71
     0
 10
0.0
 20
0.0
 11
210.0
 21
297.0
 12
0.0
 22
0.0
 32
0.0
 14
0.0
 24
0.0
 34
0.0
 15
210.0
 25
297.0
 35
0.0
146
0.0
 13
0.0
 23
0.0
 33
0.0
 16
1.0
 26
0.0
 36
0.0
 17
0.0
 27
1.0
 37
0.0
 76
     0
330
1F
331
29
  0
MATERIAL
  5
45
102
{ACAD_REACTORS
330
43
102
}
330
43
100
AcDbMaterial
  1
ByBlock
 72
     1
 94
      127
  0
MATERIAL
  5
44
102
{ACAD_REACTORS
330
43
102
}
330
43
100
AcDbMaterial
  1
ByLayer
 72
     1
 94
      127
  0
MATERIAL
  5
46
102
{ACAD_REACTORS
330
43
102
}
330
43
100
AcDbMaterial
  1
Global
 72
     1
 94
      127
  0
MLEADERSTYLE
  5
6C
102
{ACAD_REACTORS
330
6B
102
}
102
{ACAD_XDICTIONARY
360
36D
102
}
330
6B
100
AcDbMLeaderStyle
170
     2
171
     1
172
     0
 90
        2
 40
0.0
 41
0.0
173
     1
 91
-1056964608
340
14
 92
       -2
290
     1
 42
2.0
291
     1
 43
8.0
  3
Standard
341
0
 44
4.0
300

342
11
174
     1
178
     6
175
     1
176
     0
 93
-1056964608
 45
4.0
292
     0
297
     0
 46
4.0
343
0
 94
-1056964608
 47
1.0
 49
1.0
140
1.0
293
     1
141
0.0
294
     1
177
     0
142
1.0
295
     0
296
     0
143
3.75
1001
ACAD_MLEADERVER
1070
     2
  0
MLINESTYLE
  5
18
102
{ACAD_REACTORS
330
17
102
}
330
17
100
AcDbMlineStyle
  2
Standard
 70
     0
  3

 62
   256
 51
90.0
 52
90.0
 71
     2
 49
0.5
 62
   256
  6
BYLAYER
 49
-0.5
 62
   256
  6
BYLAYER
  0
ACDBPLACEHOLDER
  5
F
102
{ACAD_REACTORS
330
E
102
}
330
E
  0
SCALE
  5
48
102
{ACAD_REACTORS
330
47
102
}
330
47
100
AcDbScale
 70
     0
300
1:1
140
1.0
141
1.0
290
     1
  0
SCALE
  5
49
102
{ACAD_REACTORS
330
47
102
}
330
47
100
AcDbScale
 70
     0
300
1:2
140
1.0
141
2.0
290
     0
  0
SCALE
  5
4A
102
{ACAD_REACTORS
330
47
102
}
330
47
100
AcDbScale
 70
     0
300
1:4
140
1.0
141
4.0
290
     0
  0
SCALE
  5
4B
102
{ACAD_REACTORS
330
47
102
}
330
47
100
AcDbScale
 70
     0
300
1:5
140
1.0
141
5.0
290
     0
  0
SCALE
  5
4C
102
{ACAD_REACTORS
330
47
102
}
330
47
100
AcDbScale
 70
     0
300
1:8
140
1.0
141
8.0
290
     0
  0
SCALE
  5
4D
102
{ACAD_REACTORS
330
47
102
}
330
47
100
AcDbScale
 70
     0
300
1:10
140
1.0
141
10.0
290
     0
  0
SCALE
  5
4E
102
{ACAD_REACTORS
330
47
102
}
330
47
100
AcDbScale
 70
     0
300
1:16
140
1.0
141
16.0
290
     0
  0
SCALE
  5
4F
102
{ACAD_REACTORS
330
47
102
}
330
47
100
AcDbScale
 70
     0
300
1:20
140
1.0
141
20.0
290
     0
  0
SCALE
  5
50
102
{ACAD_REACTORS
330
47
102
}
330
47
100
AcDbScale
 70
     0
300
1:30
140
1.0
141
30.0
290
     0
  0
SCALE
  5
51
102
{ACAD_REACTORS
330
47
102
}
330
47
100
AcDbScale
 70
     0
300
1:40
140
1.0
141
40.0
290
     0
  0
SCALE
  5
52
102
{ACAD_REACTORS
330
47
102
}
330
47
100
AcDbScale
 70
     0
300
1:50
140
1.0
141
50.0
290
     0
  0
SCALE
  5
53
102
{ACAD_REACTORS
330
47
102
}
330
47
100
AcDbScale
 70
     0
300
1:100
140
1.0
141
100.0
290
     0
  0
SCALE
  5
54
102
{ACAD_REACTORS
330
47
102
}
330
47
100
AcDbScale
 70
     0
300
2:1
140
2.0
141
1.0
290
     0
  0
SCALE
  5
55
102
{ACAD_REACTORS
330
47
102
}
330
47
100
AcDbScale
 70
     0
300
4:1
140
4.0
141
1.0
290
     0
  0
SCALE
  5
56
102
{ACAD_REACTORS
330
47
102
}
330
47
100
AcDbScale
 70
     0
300
8:1
140
8.0
141
1.0
290
     0
  0
SCALE
  5
57
102
{ACAD_REACTORS
330
47
102
}
330
47
100
AcDbScale
 70
     0
300
10:1
140
10.0
141
1.0
290
     0
  0
SCALE
  5
58
102
{ACAD_REACTORS
330
47
102
}
330
47
100
AcDbScale
 70
     0
300
100:1
140
100.0
141
1.0
290
     0
  0
SCALE
  5
59
102
{ACAD_REACTORS
330
47
102
}
330
47
100
AcDbScale
 70
     0
300
1/128" = 1'-0"
140
0.0078125
141
12.0
290
     0
  0
SCALE
  5
5A
102
{ACAD_REACTORS
330
47
102
}
330
47
100
AcDbScale
 70
     0
300
1/64" = 1'-0"
140
0.015625
141
12.0
290
     0
  0
SCALE
  5
5B
102
{ACAD_REACTORS
330
47
102
}
330
47
100
AcDbScale
 70
     0
300
1/32" = 1'-0"
140
0.03125
141
12.0
290
     0
  0
SCALE
  5
5C
102
{ACAD_REACTORS
330
47
102
}
330
47
100
AcDbScale
 70
     0
300
1/16" = 1'-0"
140
0.0625
141
12.0
290
     0
  0
SCALE
  5
5D
102
{ACAD_REACTORS
330
47
102
}
330
47
100
AcDbScale
 70
     0
300
3/32" = 1'-0"
140
0.09375
141
12.0
290
     0
  0
SCALE
  5
5E
102
{ACAD_REACTORS
330
47
102
}
330
47
100
AcDbScale
 70
     0
300
1/8" = 1'-0"
140
0.125
141
12.0
290
     0
  0
SCALE
  5
5F
102
{ACAD_REACTORS
330
47
102
}
330
47
100
AcDbScale
 70
     0
300
3/16" = 1'-0"
140
0.1875
141
12.0
290
     0
  0
SCALE
  5
60
102
{ACAD_REACTORS
330
47
102
}
330
47
100
AcDbScale
 70
     0
300
1/4" = 1'-0"
140
0.25
141
12.0
290
     0
  0
SCALE
  5
61
102
{ACAD_REACTORS
330
47
102
}
330
47
100
AcDbScale
 70
     0
300
3/8" = 1'-0"
140
0.375
141
12.0
290
     0
  0
SCALE
  5
62
102
{ACAD_REACTORS
330
47
102
}
330
47
100
AcDbScale
 70
     0
300
1/2" = 1'-0"
140
0.5
141
12.0
290
     0
  0
SCALE
  5
63
102
{ACAD_REACTORS
330
47
102
}
330
47
100
AcDbScale
 70
     0
300
3/4" = 1'-0"
140
0.75
141
12.0
290
     0
  0
SCALE
  5
64
102
{ACAD_REACTORS
330
47
102
}
330
47
100
AcDbScale
 70
     0
300
1" = 1'-0"
140
1.0
141
12.0
290
     0
  0
SCALE
  5
65
102
{ACAD_REACTORS
330
47
102
}
330
47
100
AcDbScale
 70
     0
300
1-1/2" = 1'-0"
140
1.5
141
12.0
290
     0
  0
SCALE
  5
66
102
{ACAD_REACTORS
330
47
102
}
330
47
100
AcDbScale
 70
     0
300
3" = 1'-0"
140
3.0
141
12.0
290
     0
  0
SCALE
  5
67
102
{ACAD_REACTORS
330
47
102
}
330
47
100
AcDbScale
 70
     0
300
6" = 1'-0"
140
6.0
141
12.0
290
     0
  0
SCALE
  5
68
102
{ACAD_REACTORS
330
47
102
}
330
47
100
AcDbScale
 70
     0
300
1'-0" = 1'-0"
140
12.0
141
12.0
290
     0
  0
TABLESTYLE
  5
6A
102
{ACAD_REACTORS
330
69
102
}
102
{ACAD_XDICTIONARY
360
36B
102
}
330
69
100
AcDbTableStyle
  3
Standard
 70
     0
 71
     0
 40
0.06
 41
0.06
280
     0
281
     0
  7
Standard
140
4.5
170
     2
 62
     0
 63
   257
283
     0
 90
        4
 91
        0
  1

274
    -2
284
     1
 64
     0
275
    -2
285
     1
 65
     0
276
    -2
286
     1
 66
     0
277
    -2
287
     1
 67
     0
278
    -2
288
     1
 68
     0
279
    -2
289
     1
 69
     0
  7
Standard
140
6.0
170
     5
 62
     0
 63
   257
283
     0
 90
        4
 91
        0
  1

274
    -2
284
     1
 64
     0
275
    -2
285
     1
 65
     0
276
    -2
286
     1
 66
     0
277
    -2
287
     1
 67
     0
278
    -2
288
     1
 68
     0
279
    -2
289
     1
 69
     0
  7
Standard
140
4.5
170
     5
 62
     0
 63
   257
283
     0
 90
        4
 91
        0
  1

274
    -2
284
     1
 64
     0
275
    -2
285
     1
 65
     0
276
    -2
286
     1
 66
     0
277
    -2
287
     1
 67
     0
278
    -2
288
     1
 68
     0
279
    -2
289
     1
 69
     0
  0
VISUALSTYLE
  5
2F
102
{ACAD_REACTORS
330
2A
102
}
102
{ACAD_XDICTIONARY
360
343
102
}
330
2A
100
AcDbVisualStyle
  2
2dWireframe
 70
     4
 71
     0
 72
     2
 73
     0
 90
        0
 40
0.6
 41
30.0
 62
     5
 63
     7
421
 16777215
 74
     1
 91
        4
 64
     7
 65
   257
 75
     1
175
     1
 42
1.0
 92
        0
 66
   257
 43
1.0
 76
     1
 77
     6
 78
     2
 67
     7
 79
     5
170
     0
171
     0
290
     0
174
     0
 93
        1
 44
0.0
173
     0
291
     0
 45
0.0
  0
VISUALSTYLE
  5
32
102
{ACAD_REACTORS
330
2A
102
}
102
{ACAD_XDICTIONARY
360
349
102
}
330
2A
100
AcDbVisualStyle
  2
Basic
 70
     7
 71
     1
 72
     0
 73
     1
 90
        0
 40
0.6
 41
30.0
 62
     5
 63
     7
421
 16777215
 74
     0
 91
        4
 64
     7
 65
   257
 75
     1
175
     1
 42
1.0
 92
        8
 66
     7
 43
1.0
 76
     1
 77
     6
 78
     2
 67
     7
 79
     5
170
     0
171
     0
290
     0
174
     0
 93
        1
 44
0.0
173
     0
291
     1
 45
0.0
  0
VISUALSTYLE
  5
36
102
{ACAD_REACTORS
330
2A
102
}
102
{ACAD_XDICTIONARY
360
351
102
}
330
2A
100
AcDbVisualStyle
  2
Brighten
 70
    12
 71
     2
 72
     2
 73
     0
 90
        0
 40
0.6
 41
30.0
 62
     5
 63
     7
421
 16777215
 74
     1
 91
        4
 64
     7
 65
   257
 75
     1
175
     1
 42
1.0
 92
        8
 66
     7
 43
1.0
 76
     1
 77
     6
 78
     2
 67
     7
 79
     5
170
     0
171
     0
290
     0
174
     0
 93
        1
 44
50.0
173
     0
291
     1
 45
0.0
  0
VISUALSTYLE
  5
3A
102
{ACAD_REACTORS
330
2A
102
}
102
{ACAD_XDICTIONARY
360
359
102
}
330
2A
100
AcDbVisualStyle
  2
ColorChange
 70
    16
 71
     2
 72
     2
 73
     3
 90
        0
 40
0.6
 41
30.0
 62
     5
 63
     8
421
  8421504
 74
     1
 91
        4
 64
     7
 65
   257
 75
     1
175
     1
 42
1.0
 92
        8
 66
     8
424
  8421504
 43
1.0
 76
     1
 77
     6
 78
     2
 67
     7
 79
     5
170
     0
171
     0
290
     0
174
     0
 93
        1
 44
0.0
173
     0
291
     1
 45
0.0
  0
VISUALSTYLE
  5
34
102
{ACAD_REACTORS
330
2A
102
}
102
{ACAD_XDICTIONARY
360
34D
102
}
330
2A
100
AcDbVisualStyle
  2
Conceptual
 70
     9
 71
     3
 72
     2
 73
     0
 90
        0
 40
0.6
 41
30.0
 62
     5
 63
     7
421
 16777215
 74
     2
 91
        2
 64
     7
 65
   257
 75
     1
175
     1
 42
179.0
 92
        8
 66
     7
 43
1.0
 76
     1
 77
     6
 78
     2
 67
     7
 79
     3
170
     0
171
     0
290
     0
174
     0
 93
        1
 44
0.0
173
     0
291
     0
 45
0.0
  0
VISUALSTYLE
  5
35
102
{ACAD_REACTORS
330
2A
102
}
102
{ACAD_XDICTIONARY
360
34F
102
}
330
2A
100
AcDbVisualStyle
  2
Dim
 70
    11
 71
     2
 72
     2
 73
     0
 90
        0
 40
0.6
 41
30.0
 62
     5
 63
     7
421
 16777215
 74
     1
 91
        4
 64
     7
 65
   257
 75
     1
175
     1
 42
1.0
 92
        8
 66
     7
 43
1.0
 76
     1
 77
     6
 78
     2
 67
     7
 79
     5
170
     0
171
     0
290
     0
174
     0
 93
        1
 44
-50.0
173
     0
291
     1
 45
0.0
  0
VISUALSTYLE
  5
3D
102
{ACAD_REACTORS
330
2A
102
}
102
{ACAD_XDICTIONARY
360
35F
102
}
330
2A
100
AcDbVisualStyle
  2
EdgeColorOff
 70
    22
 71
     2
 72
     2
 73
     0
 90
        0
 40
0.6
 41
30.0
 62
     5
 63
     7
421
 16777215
 74
     1
 91
        4
 64
     7
 65
   257
 75
     1
175
     1
 42
1.0
 92
        8
 66
     7
 43
1.0
 76
     1
 77
     6
 78
     2
 67
     7
 79
     5
170
     0
171
     0
290
     0
174
     0
 93
        1
 44
0.0
173
     0
291
     1
 45
0.0
  0
VISUALSTYLE
  5
39
102
{ACAD_REACTORS
330
2A
102
}
102
{ACAD_XDICTIONARY
360
357
102
}
330
2A
100
AcDbVisualStyle
  2
Facepattern
 70
    15
 71
     2
 72
     2
 73
     0
 90
        0
 40
0.6
 41
30.0
 62
     5
 63
     7
421
 16777215
 74
     1
 91
        4
 64
     7
 65
   257
 75
     1
175
     1
 42
1.0
 92
        8
 66
     7
 43
1.0
 76
     1
 77
     6
 78
     2
 67
     7
 79
     5
170
     0
171
     0
290
     0
174
     0
 93
        1
 44
0.0
173
     0
291
     1
 45
0.0
  0
VISUALSTYLE
  5
2B
102
{ACAD_REACTORS
330
2A
102
}
102
{ACAD_XDICTIONARY
360
33B
102
}
330
2A
100
AcDbVisualStyle
  2
Flat
 70
     0
 71
     2
 72
     1
 73
     1
 90
        2
 40
0.6
 41
30.0
 62
     5
 63
     7
421
 16777215
 74
     0
 91
        0
 64
     7
 65
   257
 75
     1
175
     1
 42
1.0
 92
        8
 66
     7
 43
1.0
 76
     1
 77
     6
 78
     2
 67
     7
 79
     5
170
     0
171
     0
290
     0
174
     0
 93
       13
 44
0.0
173
     0
291
     1
 45
0.0
  0
VISUALSTYLE
  5
2C
102
{ACAD_REACTORS
330
2A
102
}
102
{ACAD_XDICTIONARY
360
33D
102
}
330
2A
100
AcDbVisualStyle
  2
FlatWithEdges
 70
     1
 71
     2
 72
     1
 73
     1
 90
        2
 40
0.6
 41
30.0
 62
     5
 63
     7
421
 16777215
 74
     1
 91
        0
 64
     7
 65
   257
 75
     1
175
     1
 42
1.0
 92
        0
 66
   257
 43
1.0
 76
     1
 77
     6
 78
     2
 67
     7
 79
     5
170
     0
171
     0
290
     0
174
     0
 93
       13
 44
0.0
173
     0
291
     1
 45
0.0
  0
VISUALSTYLE
  5
2D
102
{ACAD_REACTORS
330
2A
102
}
102
{ACAD_XDICTIONARY
360
33F
102
}
330
2A
100
AcDbVisualStyle
  2
Gouraud
 70
     2
 71
     2
 72
     2
 73
     1
 90
        2
 40
0.6
 41
30.0
 62
     5
 63
     7
421
 16777215
 74
     0
 91
        0
 64
     7
 65
   257
 75
     1
175
     1
 42
1.0
 92
        0
 66
     7
 43
1.0
 76
     1
 77
     6
 78
     2
 67
     7
 79
     5
170
     0
171
     0
290
     0
174
     0
 93
       13
 44
0.0
173
     0
291
     1
 45
0.0
  0
VISUALSTYLE
  5
2E
102
{ACAD_REACTORS
330
2A
102
}
102
{ACAD_XDICTIONARY
360
341
102
}
330
2A
100
AcDbVisualStyle
  2
GouraudWithEdges
 70
     3
 71
     2
 72
     2
 73
     1
 90
        2
 40
0.6
 41
30.0
 62
     5
 63
     7
421
 16777215
 74
     1
 91
        0
 64
     7
 65
   257
 75
     1
175
     1
 42
1.0
 92
        0
 66
   257
 43
1.0
 76
     1
 77
     6
 78
     2
 67
     7
 79
     5
170
     0
171
     0
290
     0
174
     0
 93
       13
 44
0.0
173
     0
291
     1
 45
0.0
  0
VISUALSTYLE
  5
31
102
{ACAD_REACTORS
330
2A
102
}
102
{ACAD_XDICTIONARY
360
347
102
}
330
2A
100
AcDbVisualStyle
  2
Hidden
 70
     6
 71
     1
 72
     2
 73
     2
 90
        0
 40
0.6
 41
30.0
 62
     5
 63
     7
421
 16777215
 74
     2
 91
        2
 64
     7
 65
   257
 75
     2
175
     1
 42
40.0
 92
        0
 66
   257
 43
1.0
 76
     1
 77
     6
 78
     2
 67
     7
 79
     3
170
     0
171
     0
290
     0
174
     0
 93
        1
 44
0.0
173
     0
291
     0
 45
0.0
  0
VISUALSTYLE
  5
3B
102
{ACAD_REACTORS
330
2A
102
}
102
{ACAD_XDICTIONARY
360
35B
102
}
330
2A
100
AcDbVisualStyle
  2
JitterOff
 70
    20
 71
     2
 72
     2
 73
     0
 90
        0
 40
0.6
 41
30.0
 62
     5
 63
     7
421
 16777215
 74
     1
 91
        4
 64
     7
 65
   257
 75
     1
175
     1
 42
1.0
 92
       10
 66
     7
 43
1.0
 76
     1
 77
     6
 78
     2
 67
     7
 79
     5
170
     0
171
     0
290
     0
174
     0
 93
        1
 44
0.0
173
     0
291
     1
 45
0.0
  0
VISUALSTYLE
  5
38
102
{ACAD_REACTORS
330
2A
102
}
102
{ACAD_XDICTIONARY
360
355
102
}
330
2A
100
AcDbVisualStyle
  2
Linepattern
 70
    14
 71
     2
 72
     2
 73
     0
 90
        0
 40
0.6
 41
30.0
 62
     5
 63
     7
421
 16777215
 74
     1
 91
        4
 64
     7
 65
   257
 75
     7
175
     7
 42
1.0
 92
        8
 66
     7
 43
1.0
 76
     1
 77
     6
 78
     2
 67
     7
 79
     5
170
     0
171
     0
290
     0
174
     0
 93
        1
 44
0.0
173
     0
291
     1
 45
0.0
  0
VISUALSTYLE
  5
3C
102
{ACAD_REACTORS
330
2A
102
}
102
{ACAD_XDICTIONARY
360
35D
102
}
330
2A
100
AcDbVisualStyle
  2
OverhangOff
 70
    21
 71
     2
 72
     2
 73
     0
 90
        0
 40
0.6
 41
30.0
 62
     5
 63
     7
421
 16777215
 74
     1
 91
        4
 64
     7
 65
   257
 75
     1
175
     1
 42
1.0
 92
        9
 66
     7
 43
1.0
 76
     1
 77
     6
 78
     2
 67
     7
 79
     5
170
     0
171
     0
290
     0
174
     0
 93
        1
 44
0.0
173
     0
291
     1
 45
0.0
  0
VISUALSTYLE
  5
33
102
{ACAD_REACTORS
330
2A
102
}
102
{ACAD_XDICTIONARY
360
34B
102
}
330
2A
100
AcDbVisualStyle
  2
Realistic
 70
     8
 71
     2
 72
     3
 73
     0
 90
        2
 40
0.6
 41
30.0
 62
     5
 63
     7
421
 16777215
 74
     0
 91
        0
 64
     7
 65
   257
 75
     1
175
     1
 42
1.0
 92
        8
 66
   257
 43
1.0
 76
     1
 77
     6
 78
     2
 67
     7
 79
     3
170
     0
171
     0
290
     0
174
     0
 93
       13
 44
0.0
173
     0
291
     0
 45
0.0
  0
VISUALSTYLE
  5
42
102
{ACAD_REACTORS
330
2A
102
}
102
{ACAD_XDICTIONARY
360
369
102
}
330
2A
100
AcDbVisualStyle
  2
Shaded
 70
    27
 71
     2
 72
     2
 73
     1
 90
        2
 40
0.6
 41
30.0
 62
     5
 63
     7
421
 16777215
 74
     0
 91
        4
 64
     7
 65
   257
 75
     1
175
     1
 42
1.0
 92
        8
 66
   257
 43
1.0
 76
     1
 77
     6
 78
     2
 67
     8
425
  7895160
 79
     3
170
     0
171
     0
290
     0
174
     0
 93
        5
 44
0.0
173
     0
291
     0
 45
0.0
  0
VISUALSTYLE
  5
41
102
{ACAD_REACTORS
330
2A
102
}
102
{ACAD_XDICTIONARY
360
367
102
}
330
2A
100
AcDbVisualStyle
  2
Shaded with edges
 70
    26
 71
     2
 72
     2
 73
     1
 90
        2
 40
0.6
 41
30.0
 62
     5
 63
     7
421
 16777215
 74
     1
 91
       10
 64
     7
 65
   257
 75
     2
175
     1
 42
1.0
 92
        8
 66
   257
 43
1.0
 76
     1
 77
     6
 78
     2
 67
     7
 79
     3
170
     0
171
     0
290
     0
174
     0
 93
        5
 44
0.0
173
     0
291
     0
 45
0.0
  0
VISUALSTYLE
  5
3E
102
{ACAD_REACTORS
330
2A
102
}
102
{ACAD_XDICTIONARY
360
361
102
}
330
2A
100
AcDbVisualStyle
  2
Shades of Gray
 70
    23
 71
     2
 72
     2
 73
     3
 90
        0
 40
0.6
 41
30.0
 62
     5
 63
     7
421
 16777215
 74
     2
 91
        2
 64
     7
 65
     7
 75
     1
175
     1
 42
40.0
 92
        8
 66
     7
 43
1.0
 76
     1
 77
     6
 78
     2
 67
     7
 79
     3
170
     0
171
     0
290
     0
174
     0
 93
        1
 44
0.0
173
     0
291
     0
 45
0.0
  0
VISUALSTYLE
  5
3F
102
{ACAD_REACTORS
330
2A
102
}
102
{ACAD_XDICTIONARY
360
363
102
}
330
2A
100
AcDbVisualStyle
  2
Sketchy
 70
    24
 71
     1
 72
     2
 73
     2
 90
        0
 40
0.6
 41
30.0
 62
     5
 63
     7
421
 16777215
 74
     2
 91
        2
 64
     7
 65
     7
 75
     1
175
     1
 42
40.0
 92
       11
 66
     7
 43
1.0
 76
     1
 77
     6
 78
     2
 67
     7
 79
     6
170
     0
171
     0
290
     0
174
     0
 93
        1
 44
0.0
173
     0
291
     0
 45
0.0
  0
VISUALSTYLE
  5
37
102
{ACAD_REACTORS
330
2A
102
}
102
{ACAD_XDICTIONARY
360
353
102
}
330
2A
100
AcDbVisualStyle
  2
Thicken
 70
    13
 71
     2
 72
     2
 73
     0
 90
        0
 40
0.6
 41
30.0
 62
     5
 63
     7
421
 16777215
 74
     1
 91
        4
 64
     7
 65
   257
 75
     1
175
     1
 42
1.0
 92
       12
 66
     7
 43
1.0
 76
     1
 77
     6
 78
     2
 67
     7
 79
     5
170
     0
171
     0
290
     0
174
     0
 93
        1
 44
0.0
173
     0
291
     1
 45
0.0
  0
VISUALSTYLE
  5
30
102
{ACAD_REACTORS
330
2A
102
}
102
{ACAD_XDICTIONARY
360
345
102
}
330
2A
100
AcDbVisualStyle
  2
Wireframe
 70
     5
 71
     0
 72
     2
 73
     0
 90
        0
 40
0.6
 41
30.0
 62
     5
 63
     7
421
 16777215
 74
     1
 91
        4
 64
     7
 65
   257
 75
     1
175
     1
 42
1.0
 92
        0
 66
   257
 43
1.0
 76
     1
 77
     6
 78
     2
 67
     7
 79
     3
170
     0
171
     0
290
     0
174
     0
 93
        1
 44
0.0
173
     0
291
     0
 45
0.0
  0
VISUALSTYLE
  5
40
102
{ACAD_REACTORS
330
2A
102
}
102
{ACAD_XDICTIONARY
360
365
102
}
330
2A
100
AcDbVisualStyle
  2
X-Ray
 70
    25
 71
     2
 72
     2
 73
     1
 90
        1
 40
0.5
 41
30.0
 62
     5
 63
     7
421
 16777215
 74
     1
 91
        0
 64
     7
 65
   257
 75
     1
175
     1
 42
1.0
 92
        8
 66
     7
 43
1.0
 76
     1
 77
     6
 78
     2
 67
     7
 79
     3
170
     0
171
     0
290
     0
174
     0
 93
       13
 44
0.0
173
     0
291
     0
 45
0.0
  0
DICTIONARYVAR
  5
339
102
{ACAD_REACTORS
330
338
102
}
330
338
100
DictionaryVariables
280
     0
  1
1:1
  0
DICTIONARYVAR
  5
374
102
{ACAD_REACTORS
330
338
102
}
330
338
100
DictionaryVariables
280
     0
  1
3.500000
  0
DICTIONARYVAR
  5
375
102
{ACAD_REACTORS
330
338
102
}
330
338
100
DictionaryVariables
280
     0
  1
acadiso.lin
  0
DICTIONARYVAR
  5
371
102
{ACAD_REACTORS
330
338
102
}
330
338
100
DictionaryVariables
280
     0
  1
Standard
  0
DICTIONARYVAR
  5
370
102
{ACAD_REACTORS
330
338
102
}
330
338
100
DictionaryVariables
280
     0
  1
Standard
  0
DICTIONARYVAR
  5
33A
102
{ACAD_REACTORS
330
338
102
}
330
338
100
DictionaryVariables
280
     0
  1
2
  0
DICTIONARY
  5
36D
330
6C
100
AcDbDictionary
280
     1
281
     1
  3
ACAD_XREC_ROUNDTRIP
360
36E
  0
DICTIONARY
  5
36B
330
6A
100
AcDbDictionary
280
     1
281
     1
  3
ACAD_ROUNDTRIP_2008_TABLESTYLE_CELLSTYLEMAP
360
36C
  0
DICTIONARY
  5
343
330
2F
100
AcDbDictionary
280
     1
281
     1
  3
ACAD_XREC_ROUNDTRIP
360
344
  0
DICTIONARY
  5
349
330
32
100
AcDbDictionary
280
     1
281
     1
  3
ACAD_XREC_ROUNDTRIP
360
34A
  0
DICTIONARY
  5
351
330
36
100
AcDbDictionary
280
     1
281
     1
  3
ACAD_XREC_ROUNDTRIP
360
352
  0
DICTIONARY
  5
359
330
3A
100
AcDbDictionary
280
     1
281
     1
  3
ACAD_XREC_ROUNDTRIP
360
35A
  0
DICTIONARY
  5
34D
330
34
100
AcDbDictionary
280
     1
281
     1
  3
ACAD_XREC_ROUNDTRIP
360
34E
  0
DICTIONARY
  5
34F
330
35
100
AcDbDictionary
280
     1
281
     1
  3
ACAD_XREC_ROUNDTRIP
360
350
  0
DICTIONARY
  5
35F
330
3D
100
AcDbDictionary
280
     1
281
     1
  3
ACAD_XREC_ROUNDTRIP
360
360
  0
DICTIONARY
  5
357
330
39
100
AcDbDictionary
280
     1
281
     1
  3
ACAD_XREC_ROUNDTRIP
360
358
  0
DICTIONARY
  5
33B
330
2B
100
AcDbDictionary
280
     1
281
     1
  3
ACAD_XREC_ROUNDTRIP
360
33C
  0
DICTIONARY
  5
33D
330
2C
100
AcDbDictionary
280
     1
281
     1
  3
ACAD_XREC_ROUNDTRIP
360
33E
  0
DICTIONARY
  5
33F
330
2D
100
AcDbDictionary
280
     1
281
     1
  3
ACAD_XREC_ROUNDTRIP
360
340
  0
DICTIONARY
  5
341
330
2E
100
AcDbDictionary
280
     1
281
     1
  3
ACAD_XREC_ROUNDTRIP
360
342
  0
DICTIONARY
  5
347
330
31
100
AcDbDictionary
280
     1
281
     1
  3
ACAD_XREC_ROUNDTRIP
360
348
  0
DICTIONARY
  5
35B
330
3B
100
AcDbDictionary
280
     1
281
     1
  3
ACAD_XREC_ROUNDTRIP
360
35C
  0
DICTIONARY
  5
355
330
38
100
AcDbDictionary
280
     1
281
     1
  3
ACAD_XREC_ROUNDTRIP
360
356
  0
DICTIONARY
  5
35D
330
3C
100
AcDbDictionary
280
     1
281
     1
  3
ACAD_XREC_ROUNDTRIP
360
35E
  0
DICTIONARY
  5
34B
330
33
100
AcDbDictionary
280
     1
281
     1
  3
ACAD_XREC_ROUNDTRIP
360
34C
  0
DICTIONARY
  5
369
330
42
100
AcDbDictionary
280
     1
281
     1
  3
ACAD_XREC_ROUNDTRIP
360
36A
  0
DICTIONARY
  5
367
330
41
100
AcDbDictionary
280
     1
281
     1
  3
ACAD_XREC_ROUNDTRIP
360
368
  0
DICTIONARY
  5
361
330
3E
100
AcDbDictionary
280
     1
281
     1
  3
ACAD_XREC_ROUNDTRIP
360
362
  0
DICTIONARY
  5
363
330
3F
100
AcDbDictionary
280
     1
281
     1
  3
ACAD_XREC_ROUNDTRIP
360
364
  0
DICTIONARY
  5
353
330
37
100
AcDbDictionary
280
     1
281
     1
  3
ACAD_XREC_ROUNDTRIP
360
354
  0
DICTIONARY
  5
345
330
30
100
AcDbDictionary
280
     1
281
     1
  3
ACAD_XREC_ROUNDTRIP
360
346
  0
DICTIONARY
  5
365
330
40
100
AcDbDictionary
280
     1
281
     1
  3
ACAD_XREC_ROUNDTRIP
360
366
  0
XRECORD
  5
36E
102
{ACAD_REACTORS
330
36D
102
}
330
36D
100
AcDbXrecord
280
     1
102
ACAD_ROUNDTRIP_2010_MLEADER_STYLE
  0
CELLSTYLEMAP
  5
36C
102
{ACAD_REACTORS
330
36B
102
}
330
36B
100
AcDbCellStyleMap
 90
        3
300
CELLSTYLE
  1
TABLEFORMAT_BEGIN
 90
        5
170
     1
 91
        0
 92
    32768
 62
   257
 93
        1
300
CONTENTFORMAT
  1
CONTENTFORMAT_BEGIN
 90
        0
 91
        0
 92
        4
 93
        0
300

 40
0.0
140
1.0
 94
        5
 62
     0
340
11
144
6.0
309
CONTENTFORMAT_END
171
     1
301
MARGIN
  1
CELLMARGIN_BEGIN
 40
1.5
 40
1.5
 40
1.5
 40
1.5
 40
1.5
 40
1.5
309
CELLMARGIN_END
 94
        6
 95
        1
302
GRIDFORMAT
  1
GRIDFORMAT_BEGIN
 90
        0
 91
        1
 62
     0
 92
       -2
340
14
 93
        0
 40
0.045
309
GRIDFORMAT_END
 95
        2
302
GRIDFORMAT
  1
GRIDFORMAT_BEGIN
 90
        0
 91
        1
 62
     0
 92
       -2
340
14
 93
        0
 40
0.045
309
GRIDFORMAT_END
 95
        4
302
GRIDFORMAT
  1
GRIDFORMAT_BEGIN
 90
        0
 91
        1
 62
     0
 92
       -2
340
14
 93
        0
 40
0.045
309
GRIDFORMAT_END
 95
        8
302
GRIDFORMAT
  1
GRIDFORMAT_BEGIN
 90
        0
 91
        1
 62
     0
 92
       -2
340
14
 93
        0
 40
0.045
309
GRIDFORMAT_END
 95
       16
302
GRIDFORMAT
  1
GRIDFORMAT_BEGIN
 90
        0
 91
        1
 62
     0
 92
       -2
340
14
 93
        0
 40
0.045
309
GRIDFORMAT_END
 95
       32
302
GRIDFORMAT
  1
GRIDFORMAT_BEGIN
 90
        0
 91
        1
 62
     0
 92
       -2
340
14
 93
        0
 40
0.045
309
GRIDFORMAT_END
309
TABLEFORMAT_END
  1
CELLSTYLE_BEGIN
 90
        1
 91
        1
300
_TITLE
309
CELLSTYLE_END
300
CELLSTYLE
  1
TABLEFORMAT_BEGIN
 90
        5
170
     1
 91
        0
 92
        0
 62
   257
 93
        1
300
CONTENTFORMAT
  1
CONTENTFORMAT_BEGIN
 90
        0
 91
        0
 92
        4
 93
        0
300

 40
0.0
140
1.0
 94
        5
 62
     0
340
11
144
4.5
309
CONTENTFORMAT_END
171
     1
301
MARGIN
  1
CELLMARGIN_BEGIN
 40
1.5
 40
1.5
 40
1.5
 40
1.5
 40
1.5
 40
1.5
309
CELLMARGIN_END
 94
        6
 95
        1
302
GRIDFORMAT
  1
GRIDFORMAT_BEGIN
 90
        0
 91
        1
 62
     0
 92
       -2
340
14
 93
        0
 40
0.045
309
GRIDFORMAT_END
 95
        2
302
GRIDFORMAT
  1
GRIDFORMAT_BEGIN
 90
        0
 91
        1
 62
     0
 92
       -2
340
14
 93
        0
 40
0.045
309
GRIDFORMAT_END
 95
        4
302
GRIDFORMAT
  1
GRIDFORMAT_BEGIN
 90
        0
 91
        1
 62
     0
 92
       -2
340
14
 93
        0
 40
0.045
309
GRIDFORMAT_END
 95
        8
302
GRIDFORMAT
  1
GRIDFORMAT_BEGIN
 90
        0
 91
        1
 62
     0
 92
       -2
340
14
 93
        0
 40
0.045
309
GRIDFORMAT_END
 95
       16
302
GRIDFORMAT
  1
GRIDFORMAT_BEGIN
 90
        0
 91
        1
 62
     0
 92
       -2
340
14
 93
        0
 40
0.045
309
GRIDFORMAT_END
 95
       32
302
GRIDFORMAT
  1
GRIDFORMAT_BEGIN
 90
        0
 91
        1
 62
     0
 92
       -2
340
14
 93
        0
 40
0.045
309
GRIDFORMAT_END
309
TABLEFORMAT_END
  1
CELLSTYLE_BEGIN
 90
        2
 91
        1
300
_HEADER
309
CELLSTYLE_END
300
CELLSTYLE
  1
TABLEFORMAT_BEGIN
 90
        5
170
     1
 91
        0
 92
        0
 62
   257
 93
        1
300
CONTENTFORMAT
  1
CONTENTFORMAT_BEGIN
 90
        0
 91
        0
 92
        4
 93
        0
300

 40
0.0
140
1.0
 94
        2
 62
     0
340
11
144
4.5
309
CONTENTFORMAT_END
171
     1
301
MARGIN
  1
CELLMARGIN_BEGIN
 40
1.5
 40
1.5
 40
1.5
 40
1.5
 40
1.5
 40
1.5
309
CELLMARGIN_END
 94
        6
 95
        1
302
GRIDFORMAT
  1
GRIDFORMAT_BEGIN
 90
        0
 91
        1
 62
     0
 92
       -2
340
14
 93
        0
 40
0.045
309
GRIDFORMAT_END
 95
        2
302
GRIDFORMAT
  1
GRIDFORMAT_BEGIN
 90
        0
 91
        1
 62
     0
 92
       -2
340
14
 93
        0
 40
0.045
309
GRIDFORMAT_END
 95
        4
302
GRIDFORMAT
  1
GRIDFORMAT_BEGIN
 90
        0
 91
        1
 62
     0
 92
       -2
340
14
 93
        0
 40
0.045
309
GRIDFORMAT_END
 95
        8
302
GRIDFORMAT
  1
GRIDFORMAT_BEGIN
 90
        0
 91
        1
 62
     0
 92
       -2
340
14
 93
        0
 40
0.045
309
GRIDFORMAT_END
 95
       16
302
GRIDFORMAT
  1
GRIDFORMAT_BEGIN
 90
        0
 91
        1
 62
     0
 92
       -2
340
14
 93
        0
 40
0.045
309
GRIDFORMAT_END
 95
       32
302
GRIDFORMAT
  1
GRIDFORMAT_BEGIN
 90
        0
 91
        1
 62
     0
 92
       -2
340
14
 93
        0
 40
0.045
309
GRIDFORMAT_END
309
TABLEFORMAT_END
  1
CELLSTYLE_BEGIN
 90
        3
 91
        2
300
_DATA
309
CELLSTYLE_END
  0
XRECORD
  5
344
102
{ACAD_REACTORS
330
343
102
}
330
343
100
AcDbXrecord
280
     1
102
RTVSPropertyOp0
 70
     1
102
RTVSPropertyOp1
 70
     1
102
RTVSPropertyOp2
 70
     1
102
RTVSPropertyOp3
 70
     1
102
RTVSPropertyOp4
 70
     1
102
RTVSPropertyOp5
 70
     1
102
RTVSPropertyOp6
 70
     1
102
RTVSPropertyOp7
 70
     1
102
RTVSPropertyOp8
 70
     1
102
RTVSPropertyOp9
 70
     1
102
RTVSPropertyOp10
 70
     1
102
RTVSPropertyOp11
 70
     1
102
RTVSPropertyOp12
 70
     1
102
RTVSPropertyOp13
 70
     1
102
RTVSPropertyOp14
 70
     1
102
RTVSPropertyOp15
 70
     1
102
RTVSPropertyOp16
 70
     1
102
RTVSPropertyOp17
 70
     1
102
RTVSPropertyOp18
 70
     1
102
RTVSPropertyOp19
 70
     1
102
RTVSPropertyOp20
 70
     1
102
RTVSPropertyOp21
 70
     1
102
RTVSPropertyOp22
 70
     1
102
RTVSPropertyOp23
 70
     1
102
RTVSPropertyOp24
 70
     1
102
RTVSPropertyOp25
 70
     1
102
RTVSPropertyOp26
 70
     1
102
RTVSPropertyOp27
 70
     1
102
RTVSPropertyOp28
 70
     1
102
RTVSPropertyOp29
 70
     1
102
RTVSPropertyOp30
 70
     1
102
RTVSPropertyOp31
 70
     1
102
RTVSPropertyOp32
 70
     1
102
RTVSPropertyOp33
 70
     1
102
RTVSPropertyOp34
 70
     1
102
RTVSPropertyOp35
 70
     1
102
RTVSPropertyOp36
 70
     1
102
RTVSPropertyOp37
 70
     1
102
RTVSPropertyOp38
 70
     1
102
RTVSPropertyOp39
 70
     1
102
RTVSPropertyOp40
 70
     1
102
RTVSPropertyOp41
 70
     1
102
RTVSPropertyOp42
 70
     1
102
RTVSPropertyOp43
 70
     1
102
RTVSPropertyOp44
 70
     1
102
RTVSPropertyOp45
 70
     1
102
RTVSPropertyOp46
 70
     1
102
RTVSPropertyOp47
 70
     1
102
RTVSPropertyOp48
 70
     1
102
RTVSPropertyOp49
 70
     1
102
RTVSPropertyOp50
 70
     1
102
RTVSPropertyOp51
 70
     0
102
RTVSPropertyOp52
 70
     0
102
RTVSPropertyOp53
 70
     1
102
RTVSPropertyOp54
 70
     1
102
RTVSPropertyOp55
 70
     1
102
RTVSPropertyOp56
 70
     1
102
RTVSPropertyOp57
 70
     1
102
RTVSPost2010Prop28
280
     1
102
RTVSPost2010PropOp28
 70
     1
102
RTVSPost2010Prop29
280
     1
102
RTVSPost2010PropOp29
 70
     1
102
RTVSPost2010Prop30
280
     0
102
RTVSPost2010PropOp30
 70
     1
102
RTVSPost2010Prop31
280
     0
102
RTVSPost2010PropOp31
 70
     1
102
RTVSPost2010Prop32
280
     0
102
RTVSPost2010PropOp32
 70
     1
102
RTVSPost2010Prop33
280
     0
102
RTVSPost2010PropOp33
 70
     1
102
RTVSPost2010Prop34
280
     0
102
RTVSPost2010PropOp34
 70
     1
102
RTVSPost2010Prop35
280
     0
102
RTVSPost2010PropOp35
 70
     1
102
RTVSPost2010Prop36
280
     0
102
RTVSPost2010PropOp36
 70
     1
102
RTVSPost2010Prop37
 90
       50
102
RTVSPost2010PropOp37
 70
     1
102
RTVSPost2010Prop38
140
0.0
102
RTVSPost2010PropOp38
 70
     1
102
RTVSPost2010Prop39
140
1.0
102
RTVSPost2010PropOp39
 70
     1
102
RTVSPost2010Prop40
 90
        0
102
RTVSPost2010PropOp40
 70
     1
102
RTVSPost2010Prop41ColorIndex
 90
       18
102
RTVSPost2010Prop41ColorRGB
 90
        0
102
RTVSPost2010PropOp41
 70
     1
102
RTVSPost2010Prop42
 90
       50
102
RTVSPost2010PropOp42
 70
     1
102
RTVSPost2010Prop43
 90
        3
102
RTVSPost2010PropOp43
 70
     1
102
RTVSPost2010Prop44ColorIndex
 90
        5
102
RTVSPost2010Prop44ColorRGB
 90
      255
102
RTVSPost2010PropOp44
 70
     1
102
RTVSPost2010Prop45
280
     0
102
RTVSPost2010PropOp45
 70
     1
102
RTVSPost2010Prop46
 90
       50
102
RTVSPost2010PropOp46
 70
     1
102
RTVSPost2010Prop47
 90
       50
102
RTVSPost2010PropOp47
 70
     1
102
RTVSPost2010Prop48
 90
       50
102
RTVSPost2010PropOp48
 70
     1
102
RTVSPost2010Prop49
280
     0
102
RTVSPost2010PropOp49
 70
     1
102
RTVSPost2010Prop50
 90
       50
102
RTVSPost2010PropOp50
 70
     1
102
RTVSPost2010Prop51ColorIndex
 90
      256
102
RTVSPost2010Prop51ColorRGB
 90
-16777216
102
RTVSPost2010PropOp51
 70
     0
102
RTVSPost2010Prop52
140
1.0
102
RTVSPost2010PropOp52
 70
     0
102
RTVSPost2010Prop53
 90
        2
102
RTVSPost2010PropOp53
 70
     1
102
RTVSPost2010Prop54
  1
strokes_ogs.tif
102
RTVSPost2010PropOp54
 70
     1
102
RTVSPost2010Prop55
280
     0
102
RTVSPost2010PropOp55
 70
     1
102
RTVSPost2010Prop56
140
1.0
102
RTVSPost2010PropOp56
 70
     1
102
RTVSPost2010Prop57
140
1.0
102
RTVSPost2010PropOp57
 70
     1
  0
XRECORD
  5
34A
102
{ACAD_REACTORS
330
349
102
}
330
349
100
AcDbXrecord
280
     1
102
RTVSPropertyOp0
 70
     1
102
RTVSPropertyOp1
 70
     1
102
RTVSPropertyOp2
 70
     1
102
RTVSPropertyOp3
 70
     1
102
RTVSPropertyOp4
 70
     1
102
RTVSPropertyOp5
 70
     1
102
RTVSPropertyOp6
 70
     1
102
RTVSPropertyOp7
 70
     1
102
RTVSPropertyOp8
 70
     1
102
RTVSPropertyOp9
 70
     1
102
RTVSPropertyOp10
 70
     1
102
RTVSPropertyOp11
 70
     1
102
RTVSPropertyOp12
 70
     1
102
RTVSPropertyOp13
 70
     1
102
RTVSPropertyOp14
 70
     1
102
RTVSPropertyOp15
 70
     1
102
RTVSPropertyOp16
 70
     1
102
RTVSPropertyOp17
 70
     1
102
RTVSPropertyOp18
 70
     1
102
RTVSPropertyOp19
 70
     1
102
RTVSPropertyOp20
 70
     1
102
RTVSPropertyOp21
 70
     1
102
RTVSPropertyOp22
 70
     1
102
RTVSPropertyOp23
 70
     1
102
RTVSPropertyOp24
 70
     1
102
RTVSPropertyOp25
 70
     1
102
RTVSPropertyOp26
 70
     1
102
RTVSPropertyOp27
 70
     1
102
RTVSPropertyOp28
 70
     1
102
RTVSPropertyOp29
 70
     1
102
RTVSPropertyOp30
 70
     1
102
RTVSPropertyOp31
 70
     1
102
RTVSPropertyOp32
 70
     1
102
RTVSPropertyOp33
 70
     1
102
RTVSPropertyOp34
 70
     1
102
RTVSPropertyOp35
 70
     1
102
RTVSPropertyOp36
 70
     1
102
RTVSPropertyOp37
 70
     1
102
RTVSPropertyOp38
 70
     1
102
RTVSPropertyOp39
 70
     1
102
RTVSPropertyOp40
 70
     1
102
RTVSPropertyOp41
 70
     1
102
RTVSPropertyOp42
 70
     1
102
RTVSPropertyOp43
 70
     1
102
RTVSPropertyOp44
 70
     1
102
RTVSPropertyOp45
 70
     1
102
RTVSPropertyOp46
 70
     1
102
RTVSPropertyOp47
 70
     1
102
RTVSPropertyOp48
 70
     1
102
RTVSPropertyOp49
 70
     1
102
RTVSPropertyOp50
 70
     1
102
RTVSPropertyOp51
 70
     0
102
RTVSPropertyOp52
 70
     0
102
RTVSPropertyOp53
 70
     1
102
RTVSPropertyOp54
 70
     1
102
RTVSPropertyOp55
 70
     1
102
RTVSPropertyOp56
 70
     1
102
RTVSPropertyOp57
 70
     1
102
RTVSPost2010Prop28
280
     0
102
RTVSPost2010PropOp28
 70
     1
102
RTVSPost2010Prop29
280
     1
102
RTVSPost2010PropOp29
 70
     1
102
RTVSPost2010Prop30
280
     1
102
RTVSPost2010PropOp30
 70
     1
102
RTVSPost2010Prop31
280
     0
102
RTVSPost2010PropOp31
 70
     1
102
RTVSPost2010Prop32
280
     0
102
RTVSPost2010PropOp32
 70
     1
102
RTVSPost2010Prop33
280
     0
102
RTVSPost2010PropOp33
 70
     1
102
RTVSPost2010Prop34
280
     0
102
RTVSPost2010PropOp34
 70
     1
102
RTVSPost2010Prop35
280
     0
102
RTVSPost2010PropOp35
 70
     1
102
RTVSPost2010Prop36
280
     0
102
RTVSPost2010PropOp36
 70
     1
102
RTVSPost2010Prop37
 90
       50
102
RTVSPost2010PropOp37
 70
     1
102
RTVSPost2010Prop38
140
0.0
102
RTVSPost2010PropOp38
 70
     1
102
RTVSPost2010Prop39
140
1.0
102
RTVSPost2010PropOp39
 70
     1
102
RTVSPost2010Prop40
 90
        0
102
RTVSPost2010PropOp40
 70
     1
102
RTVSPost2010Prop41ColorIndex
 90
       18
102
RTVSPost2010Prop41ColorRGB
 90
        0
102
RTVSPost2010PropOp41
 70
     1
102
RTVSPost2010Prop42
 90
       50
102
RTVSPost2010PropOp42
 70
     1
102
RTVSPost2010Prop43
 90
        3
102
RTVSPost2010PropOp43
 70
     1
102
RTVSPost2010Prop44ColorIndex
 90
        5
102
RTVSPost2010Prop44ColorRGB
 90
      255
102
RTVSPost2010PropOp44
 70
     1
102
RTVSPost2010Prop45
280
     0
102
RTVSPost2010PropOp45
 70
     1
102
RTVSPost2010Prop46
 90
       50
102
RTVSPost2010PropOp46
 70
     1
102
RTVSPost2010Prop47
 90
       50
102
RTVSPost2010PropOp47
 70
     1
102
RTVSPost2010Prop48
 90
       50
102
RTVSPost2010PropOp48
 70
     1
102
RTVSPost2010Prop49
280
     0
102
RTVSPost2010PropOp49
 70
     1
102
RTVSPost2010Prop50
 90
       50
102
RTVSPost2010PropOp50
 70
     1
102
RTVSPost2010Prop51ColorIndex
 90
      256
102
RTVSPost2010Prop51ColorRGB
 90
-16777216
102
RTVSPost2010PropOp51
 70
     0
102
RTVSPost2010Prop52
140
1.0
102
RTVSPost2010PropOp52
 70
     0
102
RTVSPost2010Prop53
 90
        2
102
RTVSPost2010PropOp53
 70
     1
102
RTVSPost2010Prop54
  1
strokes_ogs.tif
102
RTVSPost2010PropOp54
 70
     1
102
RTVSPost2010Prop55
280
     0
102
RTVSPost2010PropOp55
 70
     1
102
RTVSPost2010Prop56
140
1.0
102
RTVSPost2010PropOp56
 70
     1
102
RTVSPost2010Prop57
140
1.0
102
RTVSPost2010PropOp57
 70
     1
  0
XRECORD
  5
352
102
{ACAD_REACTORS
330
351
102
}
330
351
100
AcDbXrecord
280
     1
102
RTVSPropertyOp0
 70
     1
102
RTVSPropertyOp1
 70
     1
102
RTVSPropertyOp2
 70
     1
102
RTVSPropertyOp3
 70
     1
102
RTVSPropertyOp4
 70
     1
102
RTVSPropertyOp5
 70
     1
102
RTVSPropertyOp6
 70
     1
102
RTVSPropertyOp7
 70
     1
102
RTVSPropertyOp8
 70
     1
102
RTVSPropertyOp9
 70
     1
102
RTVSPropertyOp10
 70
     1
102
RTVSPropertyOp11
 70
     1
102
RTVSPropertyOp12
 70
     1
102
RTVSPropertyOp13
 70
     1
102
RTVSPropertyOp14
 70
     1
102
RTVSPropertyOp15
 70
     1
102
RTVSPropertyOp16
 70
     1
102
RTVSPropertyOp17
 70
     1
102
RTVSPropertyOp18
 70
     1
102
RTVSPropertyOp19
 70
     1
102
RTVSPropertyOp20
 70
     1
102
RTVSPropertyOp21
 70
     1
102
RTVSPropertyOp22
 70
     1
102
RTVSPropertyOp23
 70
     1
102
RTVSPropertyOp24
 70
     1
102
RTVSPropertyOp25
 70
     1
102
RTVSPropertyOp26
 70
     1
102
RTVSPropertyOp27
 70
     1
102
RTVSPropertyOp28
 70
     1
102
RTVSPropertyOp29
 70
     1
102
RTVSPropertyOp30
 70
     1
102
RTVSPropertyOp31
 70
     1
102
RTVSPropertyOp32
 70
     1
102
RTVSPropertyOp33
 70
     1
102
RTVSPropertyOp34
 70
     1
102
RTVSPropertyOp35
 70
     1
102
RTVSPropertyOp36
 70
     1
102
RTVSPropertyOp37
 70
     1
102
RTVSPropertyOp38
 70
     1
102
RTVSPropertyOp39
 70
     1
102
RTVSPropertyOp40
 70
     1
102
RTVSPropertyOp41
 70
     1
102
RTVSPropertyOp42
 70
     1
102
RTVSPropertyOp43
 70
     1
102
RTVSPropertyOp44
 70
     1
102
RTVSPropertyOp45
 70
     1
102
RTVSPropertyOp46
 70
     1
102
RTVSPropertyOp47
 70
     1
102
RTVSPropertyOp48
 70
     1
102
RTVSPropertyOp49
 70
     1
102
RTVSPropertyOp50
 70
     1
102
RTVSPropertyOp51
 70
     0
102
RTVSPropertyOp52
 70
     0
102
RTVSPropertyOp53
 70
     1
102
RTVSPropertyOp54
 70
     1
102
RTVSPropertyOp55
 70
     1
102
RTVSPropertyOp56
 70
     1
102
RTVSPropertyOp57
 70
     1
102
RTVSPost2010Prop28
280
     0
102
RTVSPost2010PropOp28
 70
     1
102
RTVSPost2010Prop29
280
     1
102
RTVSPost2010PropOp29
 70
     1
102
RTVSPost2010Prop30
280
     1
102
RTVSPost2010PropOp30
 70
     1
102
RTVSPost2010Prop31
280
     0
102
RTVSPost2010PropOp31
 70
     1
102
RTVSPost2010Prop32
280
     0
102
RTVSPost2010PropOp32
 70
     1
102
RTVSPost2010Prop33
280
     0
102
RTVSPost2010PropOp33
 70
     1
102
RTVSPost2010Prop34
280
     0
102
RTVSPost2010PropOp34
 70
     1
102
RTVSPost2010Prop35
280
     0
102
RTVSPost2010PropOp35
 70
     1
102
RTVSPost2010Prop36
280
     0
102
RTVSPost2010PropOp36
 70
     1
102
RTVSPost2010Prop37
 90
       50
102
RTVSPost2010PropOp37
 70
     1
102
RTVSPost2010Prop38
140
0.0
102
RTVSPost2010PropOp38
 70
     1
102
RTVSPost2010Prop39
140
1.0
102
RTVSPost2010PropOp39
 70
     1
102
RTVSPost2010Prop40
 90
        0
102
RTVSPost2010PropOp40
 70
     1
102
RTVSPost2010Prop41ColorIndex
 90
       18
102
RTVSPost2010Prop41ColorRGB
 90
        0
102
RTVSPost2010PropOp41
 70
     1
102
RTVSPost2010Prop42
 90
       50
102
RTVSPost2010PropOp42
 70
     1
102
RTVSPost2010Prop43
 90
        3
102
RTVSPost2010PropOp43
 70
     1
102
RTVSPost2010Prop44ColorIndex
 90
        5
102
RTVSPost2010Prop44ColorRGB
 90
      255
102
RTVSPost2010PropOp44
 70
     1
102
RTVSPost2010Prop45
280
     0
102
RTVSPost2010PropOp45
 70
     1
102
RTVSPost2010Prop46
 90
       50
102
RTVSPost2010PropOp46
 70
     1
102
RTVSPost2010Prop47
 90
       50
102
RTVSPost2010PropOp47
 70
     1
102
RTVSPost2010Prop48
 90
       50
102
RTVSPost2010PropOp48
 70
     1
102
RTVSPost2010Prop49
280
     0
102
RTVSPost2010PropOp49
 70
     1
102
RTVSPost2010Prop50
 90
       50
102
RTVSPost2010PropOp50
 70
     1
102
RTVSPost2010Prop51ColorIndex
 90
      256
102
RTVSPost2010Prop51ColorRGB
 90
-16777216
102
RTVSPost2010PropOp51
 70
     0
102
RTVSPost2010Prop52
140
1.0
102
RTVSPost2010PropOp52
 70
     0
102
RTVSPost2010Prop53
 90
        2
102
RTVSPost2010PropOp53
 70
     1
102
RTVSPost2010Prop54
  1
strokes_ogs.tif
102
RTVSPost2010PropOp54
 70
     1
102
RTVSPost2010Prop55
280
     0
102
RTVSPost2010PropOp55
 70
     1
102
RTVSPost2010Prop56
140
1.0
102
RTVSPost2010PropOp56
 70
     1
102
RTVSPost2010Prop57
140
1.0
102
RTVSPost2010PropOp57
 70
     1
  0
XRECORD
  5
35A
102
{ACAD_REACTORS
330
359
102
}
330
359
100
AcDbXrecord
280
     1
102
RTVSPropertyOp0
 70
     1
102
RTVSPropertyOp1
 70
     1
102
RTVSPropertyOp2
 70
     1
102
RTVSPropertyOp3
 70
     1
102
RTVSPropertyOp4
 70
     1
102
RTVSPropertyOp5
 70
     1
102
RTVSPropertyOp6
 70
     1
102
RTVSPropertyOp7
 70
     1
102
RTVSPropertyOp8
 70
     1
102
RTVSPropertyOp9
 70
     1
102
RTVSPropertyOp10
 70
     1
102
RTVSPropertyOp11
 70
     1
102
RTVSPropertyOp12
 70
     1
102
RTVSPropertyOp13
 70
     1
102
RTVSPropertyOp14
 70
     1
102
RTVSPropertyOp15
 70
     1
102
RTVSPropertyOp16
 70
     1
102
RTVSPropertyOp17
 70
     1
102
RTVSPropertyOp18
 70
     1
102
RTVSPropertyOp19
 70
     1
102
RTVSPropertyOp20
 70
     1
102
RTVSPropertyOp21
 70
     1
102
RTVSPropertyOp22
 70
     1
102
RTVSPropertyOp23
 70
     1
102
RTVSPropertyOp24
 70
     1
102
RTVSPropertyOp25
 70
     1
102
RTVSPropertyOp26
 70
     1
102
RTVSPropertyOp27
 70
     1
102
RTVSPropertyOp28
 70
     1
102
RTVSPropertyOp29
 70
     1
102
RTVSPropertyOp30
 70
     1
102
RTVSPropertyOp31
 70
     1
102
RTVSPropertyOp32
 70
     1
102
RTVSPropertyOp33
 70
     1
102
RTVSPropertyOp34
 70
     1
102
RTVSPropertyOp35
 70
     1
102
RTVSPropertyOp36
 70
     1
102
RTVSPropertyOp37
 70
     1
102
RTVSPropertyOp38
 70
     1
102
RTVSPropertyOp39
 70
     1
102
RTVSPropertyOp40
 70
     1
102
RTVSPropertyOp41
 70
     1
102
RTVSPropertyOp42
 70
     1
102
RTVSPropertyOp43
 70
     1
102
RTVSPropertyOp44
 70
     1
102
RTVSPropertyOp45
 70
     1
102
RTVSPropertyOp46
 70
     1
102
RTVSPropertyOp47
 70
     1
102
RTVSPropertyOp48
 70
     1
102
RTVSPropertyOp49
 70
     1
102
RTVSPropertyOp50
 70
     1
102
RTVSPropertyOp51
 70
     0
102
RTVSPropertyOp52
 70
     0
102
RTVSPropertyOp53
 70
     1
102
RTVSPropertyOp54
 70
     1
102
RTVSPropertyOp55
 70
     1
102
RTVSPropertyOp56
 70
     1
102
RTVSPropertyOp57
 70
     1
102
RTVSPost2010Prop28
280
     0
102
RTVSPost2010PropOp28
 70
     1
102
RTVSPost2010Prop29
280
     1
102
RTVSPost2010PropOp29
 70
     1
102
RTVSPost2010Prop30
280
     1
102
RTVSPost2010PropOp30
 70
     1
102
RTVSPost2010Prop31
280
     0
102
RTVSPost2010PropOp31
 70
     1
102
RTVSPost2010Prop32
280
     0
102
RTVSPost2010PropOp32
 70
     1
102
RTVSPost2010Prop33
280
     0
102
RTVSPost2010PropOp33
 70
     1
102
RTVSPost2010Prop34
280
     0
102
RTVSPost2010PropOp34
 70
     1
102
RTVSPost2010Prop35
280
     0
102
RTVSPost2010PropOp35
 70
     1
102
RTVSPost2010Prop36
280
     0
102
RTVSPost2010PropOp36
 70
     1
102
RTVSPost2010Prop37
 90
       50
102
RTVSPost2010PropOp37
 70
     1
102
RTVSPost2010Prop38
140
0.0
102
RTVSPost2010PropOp38
 70
     1
102
RTVSPost2010Prop39
140
1.0
102
RTVSPost2010PropOp39
 70
     1
102
RTVSPost2010Prop40
 90
        0
102
RTVSPost2010PropOp40
 70
     1
102
RTVSPost2010Prop41ColorIndex
 90
       18
102
RTVSPost2010Prop41ColorRGB
 90
        0
102
RTVSPost2010PropOp41
 70
     1
102
RTVSPost2010Prop42
 90
       50
102
RTVSPost2010PropOp42
 70
     1
102
RTVSPost2010Prop43
 90
        3
102
RTVSPost2010PropOp43
 70
     1
102
RTVSPost2010Prop44ColorIndex
 90
        5
102
RTVSPost2010Prop44ColorRGB
 90
      255
102
RTVSPost2010PropOp44
 70
     1
102
RTVSPost2010Prop45
280
     0
102
RTVSPost2010PropOp45
 70
     1
102
RTVSPost2010Prop46
 90
       50
102
RTVSPost2010PropOp46
 70
     1
102
RTVSPost2010Prop47
 90
       50
102
RTVSPost2010PropOp47
 70
     1
102
RTVSPost2010Prop48
 90
       50
102
RTVSPost2010PropOp48
 70
     1
102
RTVSPost2010Prop49
280
     0
102
RTVSPost2010PropOp49
 70
     1
102
RTVSPost2010Prop50
 90
       50
102
RTVSPost2010PropOp50
 70
     1
102
RTVSPost2010Prop51ColorIndex
 90
      256
102
RTVSPost2010Prop51ColorRGB
 90
-16777216
102
RTVSPost2010PropOp51
 70
     0
102
RTVSPost2010Prop52
140
1.0
102
RTVSPost2010PropOp52
 70
     0
102
RTVSPost2010Prop53
 90
        2
102
RTVSPost2010PropOp53
 70
     1
102
RTVSPost2010Prop54
  1
strokes_ogs.tif
102
RTVSPost2010PropOp54
 70
     1
102
RTVSPost2010Prop55
280
     0
102
RTVSPost2010PropOp55
 70
     1
102
RTVSPost2010Prop56
140
1.0
102
RTVSPost2010PropOp56
 70
     1
102
RTVSPost2010Prop57
140
1.0
102
RTVSPost2010PropOp57
 70
     1
  0
XRECORD
  5
34E
102
{ACAD_REACTORS
330
34D
102
}
330
34D
100
AcDbXrecord
280
     1
102
RTVSPropertyOp0
 70
     1
102
RTVSPropertyOp1
 70
     1
102
RTVSPropertyOp2
 70
     1
102
RTVSPropertyOp3
 70
     1
102
RTVSPropertyOp4
 70
     1
102
RTVSPropertyOp5
 70
     1
102
RTVSPropertyOp6
 70
     1
102
RTVSPropertyOp7
 70
     1
102
RTVSPropertyOp8
 70
     1
102
RTVSPropertyOp9
 70
     1
102
RTVSPropertyOp10
 70
     1
102
RTVSPropertyOp11
 70
     1
102
RTVSPropertyOp12
 70
     1
102
RTVSPropertyOp13
 70
     1
102
RTVSPropertyOp14
 70
     1
102
RTVSPropertyOp15
 70
     1
102
RTVSPropertyOp16
 70
     1
102
RTVSPropertyOp17
 70
     1
102
RTVSPropertyOp18
 70
     1
102
RTVSPropertyOp19
 70
     1
102
RTVSPropertyOp20
 70
     1
102
RTVSPropertyOp21
 70
     1
102
RTVSPropertyOp22
 70
     1
102
RTVSPropertyOp23
 70
     1
102
RTVSPropertyOp24
 70
     1
102
RTVSPropertyOp25
 70
     1
102
RTVSPropertyOp26
 70
     1
102
RTVSPropertyOp27
 70
     1
102
RTVSPropertyOp28
 70
     1
102
RTVSPropertyOp29
 70
     1
102
RTVSPropertyOp30
 70
     1
102
RTVSPropertyOp31
 70
     1
102
RTVSPropertyOp32
 70
     1
102
RTVSPropertyOp33
 70
     1
102
RTVSPropertyOp34
 70
     1
102
RTVSPropertyOp35
 70
     1
102
RTVSPropertyOp36
 70
     1
102
RTVSPropertyOp37
 70
     1
102
RTVSPropertyOp38
 70
     1
102
RTVSPropertyOp39
 70
     1
102
RTVSPropertyOp40
 70
     1
102
RTVSPropertyOp41
 70
     1
102
RTVSPropertyOp42
 70
     1
102
RTVSPropertyOp43
 70
     1
102
RTVSPropertyOp44
 70
     1
102
RTVSPropertyOp45
 70
     1
102
RTVSPropertyOp46
 70
     1
102
RTVSPropertyOp47
 70
     1
102
RTVSPropertyOp48
 70
     1
102
RTVSPropertyOp49
 70
     1
102
RTVSPropertyOp50
 70
     1
102
RTVSPropertyOp51
 70
     0
102
RTVSPropertyOp52
 70
     0
102
RTVSPropertyOp53
 70
     1
102
RTVSPropertyOp54
 70
     1
102
RTVSPropertyOp55
 70
     1
102
RTVSPropertyOp56
 70
     1
102
RTVSPropertyOp57
 70
     1
102
RTVSPost2010Prop28
280
     0
102
RTVSPost2010PropOp28
 70
     1
102
RTVSPost2010Prop29
280
     1
102
RTVSPost2010PropOp29
 70
     1
102
RTVSPost2010Prop30
280
     1
102
RTVSPost2010PropOp30
 70
     1
102
RTVSPost2010Prop31
280
     0
102
RTVSPost2010PropOp31
 70
     1
102
RTVSPost2010Prop32
280
     0
102
RTVSPost2010PropOp32
 70
     1
102
RTVSPost2010Prop33
280
     0
102
RTVSPost2010PropOp33
 70
     1
102
RTVSPost2010Prop34
280
     0
102
RTVSPost2010PropOp34
 70
     1
102
RTVSPost2010Prop35
280
     0
102
RTVSPost2010PropOp35
 70
     1
102
RTVSPost2010Prop36
280
     0
102
RTVSPost2010PropOp36
 70
     1
102
RTVSPost2010Prop37
 90
       50
102
RTVSPost2010PropOp37
 70
     1
102
RTVSPost2010Prop38
140
0.0
102
RTVSPost2010PropOp38
 70
     1
102
RTVSPost2010Prop39
140
1.0
102
RTVSPost2010PropOp39
 70
     1
102
RTVSPost2010Prop40
 90
        0
102
RTVSPost2010PropOp40
 70
     1
102
RTVSPost2010Prop41ColorIndex
 90
       18
102
RTVSPost2010Prop41ColorRGB
 90
        0
102
RTVSPost2010PropOp41
 70
     1
102
RTVSPost2010Prop42
 90
       50
102
RTVSPost2010PropOp42
 70
     1
102
RTVSPost2010Prop43
 90
        3
102
RTVSPost2010PropOp43
 70
     1
102
RTVSPost2010Prop44ColorIndex
 90
        5
102
RTVSPost2010Prop44ColorRGB
 90
      255
102
RTVSPost2010PropOp44
 70
     1
102
RTVSPost2010Prop45
280
     0
102
RTVSPost2010PropOp45
 70
     1
102
RTVSPost2010Prop46
 90
       50
102
RTVSPost2010PropOp46
 70
     1
102
RTVSPost2010Prop47
 90
       50
102
RTVSPost2010PropOp47
 70
     1
102
RTVSPost2010Prop48
 90
       50
102
RTVSPost2010PropOp48
 70
     1
102
RTVSPost2010Prop49
280
     0
102
RTVSPost2010PropOp49
 70
     1
102
RTVSPost2010Prop50
 90
       50
102
RTVSPost2010PropOp50
 70
     1
102
RTVSPost2010Prop51ColorIndex
 90
      256
102
RTVSPost2010Prop51ColorRGB
 90
-16777216
102
RTVSPost2010PropOp51
 70
     0
102
RTVSPost2010Prop52
140
1.0
102
RTVSPost2010PropOp52
 70
     0
102
RTVSPost2010Prop53
 90
        2
102
RTVSPost2010PropOp53
 70
     1
102
RTVSPost2010Prop54
  1
strokes_ogs.tif
102
RTVSPost2010PropOp54
 70
     1
102
RTVSPost2010Prop55
280
     0
102
RTVSPost2010PropOp55
 70
     1
102
RTVSPost2010Prop56
140
1.0
102
RTVSPost2010PropOp56
 70
     1
102
RTVSPost2010Prop57
140
1.0
102
RTVSPost2010PropOp57
 70
     1
  0
XRECORD
  5
350
102
{ACAD_REACTORS
330
34F
102
}
330
34F
100
AcDbXrecord
280
     1
102
RTVSPropertyOp0
 70
     1
102
RTVSPropertyOp1
 70
     1
102
RTVSPropertyOp2
 70
     1
102
RTVSPropertyOp3
 70
     1
102
RTVSPropertyOp4
 70
     1
102
RTVSPropertyOp5
 70
     1
102
RTVSPropertyOp6
 70
     1
102
RTVSPropertyOp7
 70
     1
102
RTVSPropertyOp8
 70
     1
102
RTVSPropertyOp9
 70
     1
102
RTVSPropertyOp10
 70
     1
102
RTVSPropertyOp11
 70
     1
102
RTVSPropertyOp12
 70
     1
102
RTVSPropertyOp13
 70
     1
102
RTVSPropertyOp14
 70
     1
102
RTVSPropertyOp15
 70
     1
102
RTVSPropertyOp16
 70
     1
102
RTVSPropertyOp17
 70
     1
102
RTVSPropertyOp18
 70
     1
102
RTVSPropertyOp19
 70
     1
102
RTVSPropertyOp20
 70
     1
102
RTVSPropertyOp21
 70
     1
102
RTVSPropertyOp22
 70
     1
102
RTVSPropertyOp23
 70
     1
102
RTVSPropertyOp24
 70
     1
102
RTVSPropertyOp25
 70
     1
102
RTVSPropertyOp26
 70
     1
102
RTVSPropertyOp27
 70
     1
102
RTVSPropertyOp28
 70
     1
102
RTVSPropertyOp29
 70
     1
102
RTVSPropertyOp30
 70
     1
102
RTVSPropertyOp31
 70
     1
102
RTVSPropertyOp32
 70
     1
102
RTVSPropertyOp33
 70
     1
102
RTVSPropertyOp34
 70
     1
102
RTVSPropertyOp35
 70
     1
102
RTVSPropertyOp36
 70
     1
102
RTVSPropertyOp37
 70
     1
102
RTVSPropertyOp38
 70
     1
102
RTVSPropertyOp39
 70
     1
102
RTVSPropertyOp40
 70
     1
102
RTVSPropertyOp41
 70
     1
102
RTVSPropertyOp42
 70
     1
102
RTVSPropertyOp43
 70
     1
102
RTVSPropertyOp44
 70
     1
102
RTVSPropertyOp45
 70
     1
102
RTVSPropertyOp46
 70
     1
102
RTVSPropertyOp47
 70
     1
102
RTVSPropertyOp48
 70
     1
102
RTVSPropertyOp49
 70
     1
102
RTVSPropertyOp50
 70
     1
102
RTVSPropertyOp51
 70
     0
102
RTVSPropertyOp52
 70
     0
102
RTVSPropertyOp53
 70
     1
102
RTVSPropertyOp54
 70
     1
102
RTVSPropertyOp55
 70
     1
102
RTVSPropertyOp56
 70
     1
102
RTVSPropertyOp57
 70
     1
102
RTVSPost2010Prop28
280
     0
102
RTVSPost2010PropOp28
 70
     1
102
RTVSPost2010Prop29
280
     1
102
RTVSPost2010PropOp29
 70
     1
102
RTVSPost2010Prop30
280
     1
102
RTVSPost2010PropOp30
 70
     1
102
RTVSPost2010Prop31
280
     0
102
RTVSPost2010PropOp31
 70
     1
102
RTVSPost2010Prop32
280
     0
102
RTVSPost2010PropOp32
 70
     1
102
RTVSPost2010Prop33
280
     0
102
RTVSPost2010PropOp33
 70
     1
102
RTVSPost2010Prop34
280
     0
102
RTVSPost2010PropOp34
 70
     1
102
RTVSPost2010Prop35
280
     0
102
RTVSPost2010PropOp35
 70
     1
102
RTVSPost2010Prop36
280
     0
102
RTVSPost2010PropOp36
 70
     1
102
RTVSPost2010Prop37
 90
       50
102
RTVSPost2010PropOp37
 70
     1
102
RTVSPost2010Prop38
140
0.0
102
RTVSPost2010PropOp38
 70
     1
102
RTVSPost2010Prop39
140
1.0
102
RTVSPost2010PropOp39
 70
     1
102
RTVSPost2010Prop40
 90
        0
102
RTVSPost2010PropOp40
 70
     1
102
RTVSPost2010Prop41ColorIndex
 90
       18
102
RTVSPost2010Prop41ColorRGB
 90
        0
102
RTVSPost2010PropOp41
 70
     1
102
RTVSPost2010Prop42
 90
       50
102
RTVSPost2010PropOp42
 70
     1
102
RTVSPost2010Prop43
 90
        3
102
RTVSPost2010PropOp43
 70
     1
102
RTVSPost2010Prop44ColorIndex
 90
        5
102
RTVSPost2010Prop44ColorRGB
 90
      255
102
RTVSPost2010PropOp44
 70
     1
102
RTVSPost2010Prop45
280
     0
102
RTVSPost2010PropOp45
 70
     1
102
RTVSPost2010Prop46
 90
       50
102
RTVSPost2010PropOp46
 70
     1
102
RTVSPost2010Prop47
 90
       50
102
RTVSPost2010PropOp47
 70
     1
102
RTVSPost2010Prop48
 90
       50
102
RTVSPost2010PropOp48
 70
     1
102
RTVSPost2010Prop49
280
     0
102
RTVSPost2010PropOp49
 70
     1
102
RTVSPost2010Prop50
 90
       50
102
RTVSPost2010PropOp50
 70
     1
102
RTVSPost2010Prop51ColorIndex
 90
      256
102
RTVSPost2010Prop51ColorRGB
 90
-16777216
102
RTVSPost2010PropOp51
 70
     0
102
RTVSPost2010Prop52
140
1.0
102
RTVSPost2010PropOp52
 70
     0
102
RTVSPost2010Prop53
 90
        2
102
RTVSPost2010PropOp53
 70
     1
102
RTVSPost2010Prop54
  1
strokes_ogs.tif
102
RTVSPost2010PropOp54
 70
     1
102
RTVSPost2010Prop55
280
     0
102
RTVSPost2010PropOp55
 70
     1
102
RTVSPost2010Prop56
140
1.0
102
RTVSPost2010PropOp56
 70
     1
102
RTVSPost2010Prop57
140
1.0
102
RTVSPost2010PropOp57
 70
     1
  0
XRECORD
  5
360
102
{ACAD_REACTORS
330
35F
102
}
330
35F
100
AcDbXrecord
280
     1
102
RTVSPropertyOp0
 70
     0
102
RTVSPropertyOp1
 70
     0
102
RTVSPropertyOp2
 70
     0
102
RTVSPropertyOp3
 70
     0
102
RTVSPropertyOp4
 70
     0
102
RTVSPropertyOp5
 70
     0
102
RTVSPropertyOp6
 70
     0
102
RTVSPropertyOp7
 70
     0
102
RTVSPropertyOp8
 70
     0
102
RTVSPropertyOp9
 70
     0
102
RTVSPropertyOp10
 70
     0
102
RTVSPropertyOp11
 70
     0
102
RTVSPropertyOp12
 70
     0
102
RTVSPropertyOp13
 70
     0
102
RTVSPropertyOp14
 70
     2
102
RTVSPropertyOp15
 70
     0
102
RTVSPropertyOp16
 70
     0
102
RTVSPropertyOp17
 70
     0
102
RTVSPropertyOp18
 70
     0
102
RTVSPropertyOp19
 70
     0
102
RTVSPropertyOp20
 70
     0
102
RTVSPropertyOp21
 70
     0
102
RTVSPropertyOp22
 70
     0
102
RTVSPropertyOp23
 70
     0
102
RTVSPropertyOp24
 70
     0
102
RTVSPropertyOp25
 70
     0
102
RTVSPropertyOp26
 70
     0
102
RTVSPropertyOp27
 70
     0
102
RTVSPropertyOp28
 70
     0
102
RTVSPropertyOp29
 70
     0
102
RTVSPropertyOp30
 70
     0
102
RTVSPropertyOp31
 70
     0
102
RTVSPropertyOp32
 70
     0
102
RTVSPropertyOp33
 70
     0
102
RTVSPropertyOp34
 70
     0
102
RTVSPropertyOp35
 70
     0
102
RTVSPropertyOp36
 70
     0
102
RTVSPropertyOp37
 70
     0
102
RTVSPropertyOp38
 70
     0
102
RTVSPropertyOp39
 70
     0
102
RTVSPropertyOp40
 70
     0
102
RTVSPropertyOp41
 70
     0
102
RTVSPropertyOp42
 70
     0
102
RTVSPropertyOp43
 70
     0
102
RTVSPropertyOp44
 70
     0
102
RTVSPropertyOp45
 70
     0
102
RTVSPropertyOp46
 70
     0
102
RTVSPropertyOp47
 70
     0
102
RTVSPropertyOp48
 70
     0
102
RTVSPropertyOp49
 70
     0
102
RTVSPropertyOp50
 70
     0
102
RTVSPropertyOp51
 70
     0
102
RTVSPropertyOp52
 70
     0
102
RTVSPropertyOp53
 70
     0
102
RTVSPropertyOp54
 70
     0
102
RTVSPropertyOp55
 70
     0
102
RTVSPropertyOp56
 70
     0
102
RTVSPropertyOp57
 70
     0
102
RTVSPost2010Prop28
280
     0
102
RTVSPost2010PropOp28
 70
     0
102
RTVSPost2010Prop29
280
     1
102
RTVSPost2010PropOp29
 70
     0
102
RTVSPost2010Prop30
280
     1
102
RTVSPost2010PropOp30
 70
     0
102
RTVSPost2010Prop31
280
     0
102
RTVSPost2010PropOp31
 70
     0
102
RTVSPost2010Prop32
280
     0
102
RTVSPost2010PropOp32
 70
     0
102
RTVSPost2010Prop33
280
     0
102
RTVSPost2010PropOp33
 70
     0
102
RTVSPost2010Prop34
280
     0
102
RTVSPost2010PropOp34
 70
     0
102
RTVSPost2010Prop35
280
     0
102
RTVSPost2010PropOp35
 70
     0
102
RTVSPost2010Prop36
280
     0
102
RTVSPost2010PropOp36
 70
     0
102
RTVSPost2010Prop37
 90
       50
102
RTVSPost2010PropOp37
 70
     0
102
RTVSPost2010Prop38
140
0.0
102
RTVSPost2010PropOp38
 70
     0
102
RTVSPost2010Prop39
140
1.0
102
RTVSPost2010PropOp39
 70
     0
102
RTVSPost2010Prop40
 90
        0
102
RTVSPost2010PropOp40
 70
     0
102
RTVSPost2010Prop41ColorIndex
 90
       18
102
RTVSPost2010Prop41ColorRGB
 90
        0
102
RTVSPost2010PropOp41
 70
     0
102
RTVSPost2010Prop42
 90
       50
102
RTVSPost2010PropOp42
 70
     0
102
RTVSPost2010Prop43
 90
        3
102
RTVSPost2010PropOp43
 70
     0
102
RTVSPost2010Prop44ColorIndex
 90
        5
102
RTVSPost2010Prop44ColorRGB
 90
      255
102
RTVSPost2010PropOp44
 70
     0
102
RTVSPost2010Prop45
280
     0
102
RTVSPost2010PropOp45
 70
     0
102
RTVSPost2010Prop46
 90
       50
102
RTVSPost2010PropOp46
 70
     0
102
RTVSPost2010Prop47
 90
       50
102
RTVSPost2010PropOp47
 70
     0
102
RTVSPost2010Prop48
 90
       50
102
RTVSPost2010PropOp48
 70
     0
102
RTVSPost2010Prop49
280
     0
102
RTVSPost2010PropOp49
 70
     0
102
RTVSPost2010Prop50
 90
       50
102
RTVSPost2010PropOp50
 70
     0
102
RTVSPost2010Prop51ColorIndex
 90
      256
102
RTVSPost2010Prop51ColorRGB
 90
-16777216
102
RTVSPost2010PropOp51
 70
     0
102
RTVSPost2010Prop52
140
1.0
102
RTVSPost2010PropOp52
 70
     0
102
RTVSPost2010Prop53
 90
        2
102
RTVSPost2010PropOp53
 70
     0
102
RTVSPost2010Prop54
  1
strokes_ogs.tif
102
RTVSPost2010PropOp54
 70
     0
102
RTVSPost2010Prop55
280
     0
102
RTVSPost2010PropOp55
 70
     0
102
RTVSPost2010Prop56
140
1.0
102
RTVSPost2010PropOp56
 70
     0
102
RTVSPost2010Prop57
140
1.0
102
RTVSPost2010PropOp57
 70
     0
  0
XRECORD
  5
358
102
{ACAD_REACTORS
330
357
102
}
330
357
100
AcDbXrecord
280
     1
102
RTVSPropertyOp0
 70
     1
102
RTVSPropertyOp1
 70
     1
102
RTVSPropertyOp2
 70
     1
102
RTVSPropertyOp3
 70
     1
102
RTVSPropertyOp4
 70
     1
102
RTVSPropertyOp5
 70
     1
102
RTVSPropertyOp6
 70
     1
102
RTVSPropertyOp7
 70
     1
102
RTVSPropertyOp8
 70
     1
102
RTVSPropertyOp9
 70
     1
102
RTVSPropertyOp10
 70
     1
102
RTVSPropertyOp11
 70
     1
102
RTVSPropertyOp12
 70
     1
102
RTVSPropertyOp13
 70
     1
102
RTVSPropertyOp14
 70
     1
102
RTVSPropertyOp15
 70
     1
102
RTVSPropertyOp16
 70
     1
102
RTVSPropertyOp17
 70
     1
102
RTVSPropertyOp18
 70
     1
102
RTVSPropertyOp19
 70
     1
102
RTVSPropertyOp20
 70
     1
102
RTVSPropertyOp21
 70
     1
102
RTVSPropertyOp22
 70
     1
102
RTVSPropertyOp23
 70
     1
102
RTVSPropertyOp24
 70
     1
102
RTVSPropertyOp25
 70
     1
102
RTVSPropertyOp26
 70
     1
102
RTVSPropertyOp27
 70
     1
102
RTVSPropertyOp28
 70
     1
102
RTVSPropertyOp29
 70
     1
102
RTVSPropertyOp30
 70
     1
102
RTVSPropertyOp31
 70
     1
102
RTVSPropertyOp32
 70
     1
102
RTVSPropertyOp33
 70
     1
102
RTVSPropertyOp34
 70
     1
102
RTVSPropertyOp35
 70
     1
102
RTVSPropertyOp36
 70
     1
102
RTVSPropertyOp37
 70
     1
102
RTVSPropertyOp38
 70
     1
102
RTVSPropertyOp39
 70
     1
102
RTVSPropertyOp40
 70
     1
102
RTVSPropertyOp41
 70
     1
102
RTVSPropertyOp42
 70
     1
102
RTVSPropertyOp43
 70
     1
102
RTVSPropertyOp44
 70
     1
102
RTVSPropertyOp45
 70
     1
102
RTVSPropertyOp46
 70
     1
102
RTVSPropertyOp47
 70
     1
102
RTVSPropertyOp48
 70
     1
102
RTVSPropertyOp49
 70
     1
102
RTVSPropertyOp50
 70
     1
102
RTVSPropertyOp51
 70
     0
102
RTVSPropertyOp52
 70
     0
102
RTVSPropertyOp53
 70
     1
102
RTVSPropertyOp54
 70
     1
102
RTVSPropertyOp55
 70
     1
102
RTVSPropertyOp56
 70
     1
102
RTVSPropertyOp57
 70
     1
102
RTVSPost2010Prop28
280
     0
102
RTVSPost2010PropOp28
 70
     1
102
RTVSPost2010Prop29
280
     1
102
RTVSPost2010PropOp29
 70
     1
102
RTVSPost2010Prop30
280
     1
102
RTVSPost2010PropOp30
 70
     1
102
RTVSPost2010Prop31
280
     0
102
RTVSPost2010PropOp31
 70
     1
102
RTVSPost2010Prop32
280
     0
102
RTVSPost2010PropOp32
 70
     1
102
RTVSPost2010Prop33
280
     0
102
RTVSPost2010PropOp33
 70
     1
102
RTVSPost2010Prop34
280
     0
102
RTVSPost2010PropOp34
 70
     1
102
RTVSPost2010Prop35
280
     0
102
RTVSPost2010PropOp35
 70
     1
102
RTVSPost2010Prop36
280
     0
102
RTVSPost2010PropOp36
 70
     1
102
RTVSPost2010Prop37
 90
       50
102
RTVSPost2010PropOp37
 70
     1
102
RTVSPost2010Prop38
140
0.0
102
RTVSPost2010PropOp38
 70
     1
102
RTVSPost2010Prop39
140
1.0
102
RTVSPost2010PropOp39
 70
     1
102
RTVSPost2010Prop40
 90
        0
102
RTVSPost2010PropOp40
 70
     1
102
RTVSPost2010Prop41ColorIndex
 90
       18
102
RTVSPost2010Prop41ColorRGB
 90
        0
102
RTVSPost2010PropOp41
 70
     1
102
RTVSPost2010Prop42
 90
       50
102
RTVSPost2010PropOp42
 70
     1
102
RTVSPost2010Prop43
 90
        3
102
RTVSPost2010PropOp43
 70
     1
102
RTVSPost2010Prop44ColorIndex
 90
        5
102
RTVSPost2010Prop44ColorRGB
 90
      255
102
RTVSPost2010PropOp44
 70
     1
102
RTVSPost2010Prop45
280
     0
102
RTVSPost2010PropOp45
 70
     1
102
RTVSPost2010Prop46
 90
       50
102
RTVSPost2010PropOp46
 70
     1
102
RTVSPost2010Prop47
 90
       50
102
RTVSPost2010PropOp47
 70
     1
102
RTVSPost2010Prop48
 90
       50
102
RTVSPost2010PropOp48
 70
     1
102
RTVSPost2010Prop49
280
     0
102
RTVSPost2010PropOp49
 70
     1
102
RTVSPost2010Prop50
 90
       50
102
RTVSPost2010PropOp50
 70
     1
102
RTVSPost2010Prop51ColorIndex
 90
      256
102
RTVSPost2010Prop51ColorRGB
 90
-16777216
102
RTVSPost2010PropOp51
 70
     0
102
RTVSPost2010Prop52
140
1.0
102
RTVSPost2010PropOp52
 70
     0
102
RTVSPost2010Prop53
 90
        2
102
RTVSPost2010PropOp53
 70
     1
102
RTVSPost2010Prop54
  1
strokes_ogs.tif
102
RTVSPost2010PropOp54
 70
     1
102
RTVSPost2010Prop55
280
     0
102
RTVSPost2010PropOp55
 70
     1
102
RTVSPost2010Prop56
140
1.0
102
RTVSPost2010PropOp56
 70
     1
102
RTVSPost2010Prop57
140
1.0
102
RTVSPost2010PropOp57
 70
     1
  0
XRECORD
  5
33C
102
{ACAD_REACTORS
330
33B
102
}
330
33B
100
AcDbXrecord
280
     1
102
RTVSPropertyOp0
 70
     1
102
RTVSPropertyOp1
 70
     1
102
RTVSPropertyOp2
 70
     1
102
RTVSPropertyOp3
 70
     1
102
RTVSPropertyOp4
 70
     1
102
RTVSPropertyOp5
 70
     1
102
RTVSPropertyOp6
 70
     1
102
RTVSPropertyOp7
 70
     1
102
RTVSPropertyOp8
 70
     1
102
RTVSPropertyOp9
 70
     1
102
RTVSPropertyOp10
 70
     1
102
RTVSPropertyOp11
 70
     1
102
RTVSPropertyOp12
 70
     1
102
RTVSPropertyOp13
 70
     1
102
RTVSPropertyOp14
 70
     1
102
RTVSPropertyOp15
 70
     1
102
RTVSPropertyOp16
 70
     1
102
RTVSPropertyOp17
 70
     1
102
RTVSPropertyOp18
 70
     1
102
RTVSPropertyOp19
 70
     1
102
RTVSPropertyOp20
 70
     1
102
RTVSPropertyOp21
 70
     1
102
RTVSPropertyOp22
 70
     1
102
RTVSPropertyOp23
 70
     1
102
RTVSPropertyOp24
 70
     1
102
RTVSPropertyOp25
 70
     1
102
RTVSPropertyOp26
 70
     1
102
RTVSPropertyOp27
 70
     1
102
RTVSPropertyOp28
 70
     1
102
RTVSPropertyOp29
 70
     1
102
RTVSPropertyOp30
 70
     1
102
RTVSPropertyOp31
 70
     1
102
RTVSPropertyOp32
 70
     1
102
RTVSPropertyOp33
 70
     1
102
RTVSPropertyOp34
 70
     1
102
RTVSPropertyOp35
 70
     1
102
RTVSPropertyOp36
 70
     1
102
RTVSPropertyOp37
 70
     1
102
RTVSPropertyOp38
 70
     1
102
RTVSPropertyOp39
 70
     1
102
RTVSPropertyOp40
 70
     1
102
RTVSPropertyOp41
 70
     1
102
RTVSPropertyOp42
 70
     1
102
RTVSPropertyOp43
 70
     1
102
RTVSPropertyOp44
 70
     1
102
RTVSPropertyOp45
 70
     1
102
RTVSPropertyOp46
 70
     1
102
RTVSPropertyOp47
 70
     1
102
RTVSPropertyOp48
 70
     1
102
RTVSPropertyOp49
 70
     1
102
RTVSPropertyOp50
 70
     1
102
RTVSPropertyOp51
 70
     0
102
RTVSPropertyOp52
 70
     0
102
RTVSPropertyOp53
 70
     1
102
RTVSPropertyOp54
 70
     1
102
RTVSPropertyOp55
 70
     1
102
RTVSPropertyOp56
 70
     1
102
RTVSPropertyOp57
 70
     1
102
RTVSPost2010Prop28
280
     0
102
RTVSPost2010PropOp28
 70
     1
102
RTVSPost2010Prop29
280
     1
102
RTVSPost2010PropOp29
 70
     1
102
RTVSPost2010Prop30
280
     1
102
RTVSPost2010PropOp30
 70
     1
102
RTVSPost2010Prop31
280
     0
102
RTVSPost2010PropOp31
 70
     1
102
RTVSPost2010Prop32
280
     0
102
RTVSPost2010PropOp32
 70
     1
102
RTVSPost2010Prop33
280
     0
102
RTVSPost2010PropOp33
 70
     1
102
RTVSPost2010Prop34
280
     0
102
RTVSPost2010PropOp34
 70
     1
102
RTVSPost2010Prop35
280
     0
102
RTVSPost2010PropOp35
 70
     1
102
RTVSPost2010Prop36
280
     0
102
RTVSPost2010PropOp36
 70
     1
102
RTVSPost2010Prop37
 90
       50
102
RTVSPost2010PropOp37
 70
     1
102
RTVSPost2010Prop38
140
0.0
102
RTVSPost2010PropOp38
 70
     1
102
RTVSPost2010Prop39
140
1.0
102
RTVSPost2010PropOp39
 70
     1
102
RTVSPost2010Prop40
 90
        0
102
RTVSPost2010PropOp40
 70
     1
102
RTVSPost2010Prop41ColorIndex
 90
       18
102
RTVSPost2010Prop41ColorRGB
 90
        0
102
RTVSPost2010PropOp41
 70
     1
102
RTVSPost2010Prop42
 90
       50
102
RTVSPost2010PropOp42
 70
     1
102
RTVSPost2010Prop43
 90
        3
102
RTVSPost2010PropOp43
 70
     1
102
RTVSPost2010Prop44ColorIndex
 90
        5
102
RTVSPost2010Prop44ColorRGB
 90
      255
102
RTVSPost2010PropOp44
 70
     1
102
RTVSPost2010Prop45
280
     0
102
RTVSPost2010PropOp45
 70
     1
102
RTVSPost2010Prop46
 90
       50
102
RTVSPost2010PropOp46
 70
     1
102
RTVSPost2010Prop47
 90
       50
102
RTVSPost2010PropOp47
 70
     1
102
RTVSPost2010Prop48
 90
       50
102
RTVSPost2010PropOp48
 70
     1
102
RTVSPost2010Prop49
280
     0
102
RTVSPost2010PropOp49
 70
     1
102
RTVSPost2010Prop50
 90
       50
102
RTVSPost2010PropOp50
 70
     1
102
RTVSPost2010Prop51ColorIndex
 90
      256
102
RTVSPost2010Prop51ColorRGB
 90
-16777216
102
RTVSPost2010PropOp51
 70
     0
102
RTVSPost2010Prop52
140
1.0
102
RTVSPost2010PropOp52
 70
     0
102
RTVSPost2010Prop53
 90
        2
102
RTVSPost2010PropOp53
 70
     1
102
RTVSPost2010Prop54
  1
strokes_ogs.tif
102
RTVSPost2010PropOp54
 70
     1
102
RTVSPost2010Prop55
280
     0
102
RTVSPost2010PropOp55
 70
     1
102
RTVSPost2010Prop56
140
1.0
102
RTVSPost2010PropOp56
 70
     1
102
RTVSPost2010Prop57
140
1.0
102
RTVSPost2010PropOp57
 70
     1
  0
XRECORD
  5
33E
102
{ACAD_REACTORS
330
33D
102
}
330
33D
100
AcDbXrecord
280
     1
102
RTVSPropertyOp0
 70
     1
102
RTVSPropertyOp1
 70
     1
102
RTVSPropertyOp2
 70
     1
102
RTVSPropertyOp3
 70
     1
102
RTVSPropertyOp4
 70
     1
102
RTVSPropertyOp5
 70
     1
102
RTVSPropertyOp6
 70
     1
102
RTVSPropertyOp7
 70
     1
102
RTVSPropertyOp8
 70
     1
102
RTVSPropertyOp9
 70
     1
102
RTVSPropertyOp10
 70
     1
102
RTVSPropertyOp11
 70
     1
102
RTVSPropertyOp12
 70
     1
102
RTVSPropertyOp13
 70
     1
102
RTVSPropertyOp14
 70
     1
102
RTVSPropertyOp15
 70
     1
102
RTVSPropertyOp16
 70
     1
102
RTVSPropertyOp17
 70
     1
102
RTVSPropertyOp18
 70
     1
102
RTVSPropertyOp19
 70
     1
102
RTVSPropertyOp20
 70
     1
102
RTVSPropertyOp21
 70
     1
102
RTVSPropertyOp22
 70
     1
102
RTVSPropertyOp23
 70
     1
102
RTVSPropertyOp24
 70
     1
102
RTVSPropertyOp25
 70
     1
102
RTVSPropertyOp26
 70
     1
102
RTVSPropertyOp27
 70
     1
102
RTVSPropertyOp28
 70
     1
102
RTVSPropertyOp29
 70
     1
102
RTVSPropertyOp30
 70
     1
102
RTVSPropertyOp31
 70
     1
102
RTVSPropertyOp32
 70
     1
102
RTVSPropertyOp33
 70
     1
102
RTVSPropertyOp34
 70
     1
102
RTVSPropertyOp35
 70
     1
102
RTVSPropertyOp36
 70
     1
102
RTVSPropertyOp37
 70
     1
102
RTVSPropertyOp38
 70
     1
102
RTVSPropertyOp39
 70
     1
102
RTVSPropertyOp40
 70
     1
102
RTVSPropertyOp41
 70
     1
102
RTVSPropertyOp42
 70
     1
102
RTVSPropertyOp43
 70
     1
102
RTVSPropertyOp44
 70
     1
102
RTVSPropertyOp45
 70
     1
102
RTVSPropertyOp46
 70
     1
102
RTVSPropertyOp47
 70
     1
102
RTVSPropertyOp48
 70
     1
102
RTVSPropertyOp49
 70
     1
102
RTVSPropertyOp50
 70
     1
102
RTVSPropertyOp51
 70
     0
102
RTVSPropertyOp52
 70
     0
102
RTVSPropertyOp53
 70
     1
102
RTVSPropertyOp54
 70
     1
102
RTVSPropertyOp55
 70
     1
102
RTVSPropertyOp56
 70
     1
102
RTVSPropertyOp57
 70
     1
102
RTVSPost2010Prop28
280
     0
102
RTVSPost2010PropOp28
 70
     1
102
RTVSPost2010Prop29
280
     1
102
RTVSPost2010PropOp29
 70
     1
102
RTVSPost2010Prop30
280
     1
102
RTVSPost2010PropOp30
 70
     1
102
RTVSPost2010Prop31
280
     0
102
RTVSPost2010PropOp31
 70
     1
102
RTVSPost2010Prop32
280
     0
102
RTVSPost2010PropOp32
 70
     1
102
RTVSPost2010Prop33
280
     0
102
RTVSPost2010PropOp33
 70
     1
102
RTVSPost2010Prop34
280
     0
102
RTVSPost2010PropOp34
 70
     1
102
RTVSPost2010Prop35
280
     0
102
RTVSPost2010PropOp35
 70
     1
102
RTVSPost2010Prop36
280
     0
102
RTVSPost2010PropOp36
 70
     1
102
RTVSPost2010Prop37
 90
       50
102
RTVSPost2010PropOp37
 70
     1
102
RTVSPost2010Prop38
140
0.0
102
RTVSPost2010PropOp38
 70
     1
102
RTVSPost2010Prop39
140
1.0
102
RTVSPost2010PropOp39
 70
     1
102
RTVSPost2010Prop40
 90
        0
102
RTVSPost2010PropOp40
 70
     1
102
RTVSPost2010Prop41ColorIndex
 90
       18
102
RTVSPost2010Prop41ColorRGB
 90
        0
102
RTVSPost2010PropOp41
 70
     1
102
RTVSPost2010Prop42
 90
       50
102
RTVSPost2010PropOp42
 70
     1
102
RTVSPost2010Prop43
 90
        3
102
RTVSPost2010PropOp43
 70
     1
102
RTVSPost2010Prop44ColorIndex
 90
        5
102
RTVSPost2010Prop44ColorRGB
 90
      255
102
RTVSPost2010PropOp44
 70
     1
102
RTVSPost2010Prop45
280
     0
102
RTVSPost2010PropOp45
 70
     1
102
RTVSPost2010Prop46
 90
       50
102
RTVSPost2010PropOp46
 70
     1
102
RTVSPost2010Prop47
 90
       50
102
RTVSPost2010PropOp47
 70
     1
102
RTVSPost2010Prop48
 90
       50
102
RTVSPost2010PropOp48
 70
     1
102
RTVSPost2010Prop49
280
     0
102
RTVSPost2010PropOp49
 70
     1
102
RTVSPost2010Prop50
 90
       50
102
RTVSPost2010PropOp50
 70
     1
102
RTVSPost2010Prop51ColorIndex
 90
      256
102
RTVSPost2010Prop51ColorRGB
 90
-16777216
102
RTVSPost2010PropOp51
 70
     0
102
RTVSPost2010Prop52
140
1.0
102
RTVSPost2010PropOp52
 70
     0
102
RTVSPost2010Prop53
 90
        2
102
RTVSPost2010PropOp53
 70
     1
102
RTVSPost2010Prop54
  1
strokes_ogs.tif
102
RTVSPost2010PropOp54
 70
     1
102
RTVSPost2010Prop55
280
     0
102
RTVSPost2010PropOp55
 70
     1
102
RTVSPost2010Prop56
140
1.0
102
RTVSPost2010PropOp56
 70
     1
102
RTVSPost2010Prop57
140
1.0
102
RTVSPost2010PropOp57
 70
     1
  0
XRECORD
  5
340
102
{ACAD_REACTORS
330
33F
102
}
330
33F
100
AcDbXrecord
280
     1
102
RTVSPropertyOp0
 70
     1
102
RTVSPropertyOp1
 70
     1
102
RTVSPropertyOp2
 70
     1
102
RTVSPropertyOp3
 70
     1
102
RTVSPropertyOp4
 70
     1
102
RTVSPropertyOp5
 70
     1
102
RTVSPropertyOp6
 70
     1
102
RTVSPropertyOp7
 70
     1
102
RTVSPropertyOp8
 70
     1
102
RTVSPropertyOp9
 70
     1
102
RTVSPropertyOp10
 70
     1
102
RTVSPropertyOp11
 70
     1
102
RTVSPropertyOp12
 70
     1
102
RTVSPropertyOp13
 70
     1
102
RTVSPropertyOp14
 70
     1
102
RTVSPropertyOp15
 70
     1
102
RTVSPropertyOp16
 70
     1
102
RTVSPropertyOp17
 70
     1
102
RTVSPropertyOp18
 70
     1
102
RTVSPropertyOp19
 70
     1
102
RTVSPropertyOp20
 70
     1
102
RTVSPropertyOp21
 70
     1
102
RTVSPropertyOp22
 70
     1
102
RTVSPropertyOp23
 70
     1
102
RTVSPropertyOp24
 70
     1
102
RTVSPropertyOp25
 70
     1
102
RTVSPropertyOp26
 70
     1
102
RTVSPropertyOp27
 70
     1
102
RTVSPropertyOp28
 70
     1
102
RTVSPropertyOp29
 70
     1
102
RTVSPropertyOp30
 70
     1
102
RTVSPropertyOp31
 70
     1
102
RTVSPropertyOp32
 70
     1
102
RTVSPropertyOp33
 70
     1
102
RTVSPropertyOp34
 70
     1
102
RTVSPropertyOp35
 70
     1
102
RTVSPropertyOp36
 70
     1
102
RTVSPropertyOp37
 70
     1
102
RTVSPropertyOp38
 70
     1
102
RTVSPropertyOp39
 70
     1
102
RTVSPropertyOp40
 70
     1
102
RTVSPropertyOp41
 70
     1
102
RTVSPropertyOp42
 70
     1
102
RTVSPropertyOp43
 70
     1
102
RTVSPropertyOp44
 70
     1
102
RTVSPropertyOp45
 70
     1
102
RTVSPropertyOp46
 70
     1
102
RTVSPropertyOp47
 70
     1
102
RTVSPropertyOp48
 70
     1
102
RTVSPropertyOp49
 70
     1
102
RTVSPropertyOp50
 70
     1
102
RTVSPropertyOp51
 70
     0
102
RTVSPropertyOp52
 70
     0
102
RTVSPropertyOp53
 70
     1
102
RTVSPropertyOp54
 70
     1
102
RTVSPropertyOp55
 70
     1
102
RTVSPropertyOp56
 70
     1
102
RTVSPropertyOp57
 70
     1
102
RTVSPost2010Prop28
280
     0
102
RTVSPost2010PropOp28
 70
     1
102
RTVSPost2010Prop29
280
     1
102
RTVSPost2010PropOp29
 70
     1
102
RTVSPost2010Prop30
280
     1
102
RTVSPost2010PropOp30
 70
     1
102
RTVSPost2010Prop31
280
     0
102
RTVSPost2010PropOp31
 70
     1
102
RTVSPost2010Prop32
280
     0
102
RTVSPost2010PropOp32
 70
     1
102
RTVSPost2010Prop33
280
     0
102
RTVSPost2010PropOp33
 70
     1
102
RTVSPost2010Prop34
280
     0
102
RTVSPost2010PropOp34
 70
     1
102
RTVSPost2010Prop35
280
     0
102
RTVSPost2010PropOp35
 70
     1
102
RTVSPost2010Prop36
280
     0
102
RTVSPost2010PropOp36
 70
     1
102
RTVSPost2010Prop37
 90
       50
102
RTVSPost2010PropOp37
 70
     1
102
RTVSPost2010Prop38
140
0.0
102
RTVSPost2010PropOp38
 70
     1
102
RTVSPost2010Prop39
140
1.0
102
RTVSPost2010PropOp39
 70
     1
102
RTVSPost2010Prop40
 90
        0
102
RTVSPost2010PropOp40
 70
     1
102
RTVSPost2010Prop41ColorIndex
 90
       18
102
RTVSPost2010Prop41ColorRGB
 90
        0
102
RTVSPost2010PropOp41
 70
     1
102
RTVSPost2010Prop42
 90
       50
102
RTVSPost2010PropOp42
 70
     1
102
RTVSPost2010Prop43
 90
        3
102
RTVSPost2010PropOp43
 70
     1
102
RTVSPost2010Prop44ColorIndex
 90
        5
102
RTVSPost2010Prop44ColorRGB
 90
      255
102
RTVSPost2010PropOp44
 70
     1
102
RTVSPost2010Prop45
280
     0
102
RTVSPost2010PropOp45
 70
     1
102
RTVSPost2010Prop46
 90
       50
102
RTVSPost2010PropOp46
 70
     1
102
RTVSPost2010Prop47
 90
       50
102
RTVSPost2010PropOp47
 70
     1
102
RTVSPost2010Prop48
 90
       50
102
RTVSPost2010PropOp48
 70
     1
102
RTVSPost2010Prop49
280
     0
102
RTVSPost2010PropOp49
 70
     1
102
RTVSPost2010Prop50
 90
       50
102
RTVSPost2010PropOp50
 70
     1
102
RTVSPost2010Prop51ColorIndex
 90
      256
102
RTVSPost2010Prop51ColorRGB
 90
-16777216
102
RTVSPost2010PropOp51
 70
     0
102
RTVSPost2010Prop52
140
1.0
102
RTVSPost2010PropOp52
 70
     0
102
RTVSPost2010Prop53
 90
        2
102
RTVSPost2010PropOp53
 70
     1
102
RTVSPost2010Prop54
  1
strokes_ogs.tif
102
RTVSPost2010PropOp54
 70
     1
102
RTVSPost2010Prop55
280
     0
102
RTVSPost2010PropOp55
 70
     1
102
RTVSPost2010Prop56
140
1.0
102
RTVSPost2010PropOp56
 70
     1
102
RTVSPost2010Prop57
140
1.0
102
RTVSPost2010PropOp57
 70
     1
  0
XRECORD
  5
342
102
{ACAD_REACTORS
330
341
102
}
330
341
100
AcDbXrecord
280
     1
102
RTVSPropertyOp0
 70
     1
102
RTVSPropertyOp1
 70
     1
102
RTVSPropertyOp2
 70
     1
102
RTVSPropertyOp3
 70
     1
102
RTVSPropertyOp4
 70
     1
102
RTVSPropertyOp5
 70
     1
102
RTVSPropertyOp6
 70
     1
102
RTVSPropertyOp7
 70
     1
102
RTVSPropertyOp8
 70
     1
102
RTVSPropertyOp9
 70
     1
102
RTVSPropertyOp10
 70
     1
102
RTVSPropertyOp11
 70
     1
102
RTVSPropertyOp12
 70
     1
102
RTVSPropertyOp13
 70
     1
102
RTVSPropertyOp14
 70
     1
102
RTVSPropertyOp15
 70
     1
102
RTVSPropertyOp16
 70
     1
102
RTVSPropertyOp17
 70
     1
102
RTVSPropertyOp18
 70
     1
102
RTVSPropertyOp19
 70
     1
102
RTVSPropertyOp20
 70
     1
102
RTVSPropertyOp21
 70
     1
102
RTVSPropertyOp22
 70
     1
102
RTVSPropertyOp23
 70
     1
102
RTVSPropertyOp24
 70
     1
102
RTVSPropertyOp25
 70
     1
102
RTVSPropertyOp26
 70
     1
102
RTVSPropertyOp27
 70
     1
102
RTVSPropertyOp28
 70
     1
102
RTVSPropertyOp29
 70
     1
102
RTVSPropertyOp30
 70
     1
102
RTVSPropertyOp31
 70
     1
102
RTVSPropertyOp32
 70
     1
102
RTVSPropertyOp33
 70
     1
102
RTVSPropertyOp34
 70
     1
102
RTVSPropertyOp35
 70
     1
102
RTVSPropertyOp36
 70
     1
102
RTVSPropertyOp37
 70
     1
102
RTVSPropertyOp38
 70
     1
102
RTVSPropertyOp39
 70
     1
102
RTVSPropertyOp40
 70
     1
102
RTVSPropertyOp41
 70
     1
102
RTVSPropertyOp42
 70
     1
102
RTVSPropertyOp43
 70
     1
102
RTVSPropertyOp44
 70
     1
102
RTVSPropertyOp45
 70
     1
102
RTVSPropertyOp46
 70
     1
102
RTVSPropertyOp47
 70
     1
102
RTVSPropertyOp48
 70
     1
102
RTVSPropertyOp49
 70
     1
102
RTVSPropertyOp50
 70
     1
102
RTVSPropertyOp51
 70
     0
102
RTVSPropertyOp52
 70
     0
102
RTVSPropertyOp53
 70
     1
102
RTVSPropertyOp54
 70
     1
102
RTVSPropertyOp55
 70
     1
102
RTVSPropertyOp56
 70
     1
102
RTVSPropertyOp57
 70
     1
102
RTVSPost2010Prop28
280
     0
102
RTVSPost2010PropOp28
 70
     1
102
RTVSPost2010Prop29
280
     1
102
RTVSPost2010PropOp29
 70
     1
102
RTVSPost2010Prop30
280
     1
102
RTVSPost2010PropOp30
 70
     1
102
RTVSPost2010Prop31
280
     0
102
RTVSPost2010PropOp31
 70
     1
102
RTVSPost2010Prop32
280
     0
102
RTVSPost2010PropOp32
 70
     1
102
RTVSPost2010Prop33
280
     0
102
RTVSPost2010PropOp33
 70
     1
102
RTVSPost2010Prop34
280
     0
102
RTVSPost2010PropOp34
 70
     1
102
RTVSPost2010Prop35
280
     0
102
RTVSPost2010PropOp35
 70
     1
102
RTVSPost2010Prop36
280
     0
102
RTVSPost2010PropOp36
 70
     1
102
RTVSPost2010Prop37
 90
       50
102
RTVSPost2010PropOp37
 70
     1
102
RTVSPost2010Prop38
140
0.0
102
RTVSPost2010PropOp38
 70
     1
102
RTVSPost2010Prop39
140
1.0
102
RTVSPost2010PropOp39
 70
     1
102
RTVSPost2010Prop40
 90
        0
102
RTVSPost2010PropOp40
 70
     1
102
RTVSPost2010Prop41ColorIndex
 90
       18
102
RTVSPost2010Prop41ColorRGB
 90
        0
102
RTVSPost2010PropOp41
 70
     1
102
RTVSPost2010Prop42
 90
       50
102
RTVSPost2010PropOp42
 70
     1
102
RTVSPost2010Prop43
 90
        3
102
RTVSPost2010PropOp43
 70
     1
102
RTVSPost2010Prop44ColorIndex
 90
        5
102
RTVSPost2010Prop44ColorRGB
 90
      255
102
RTVSPost2010PropOp44
 70
     1
102
RTVSPost2010Prop45
280
     0
102
RTVSPost2010PropOp45
 70
     1
102
RTVSPost2010Prop46
 90
       50
102
RTVSPost2010PropOp46
 70
     1
102
RTVSPost2010Prop47
 90
       50
102
RTVSPost2010PropOp47
 70
     1
102
RTVSPost2010Prop48
 90
       50
102
RTVSPost2010PropOp48
 70
     1
102
RTVSPost2010Prop49
280
     0
102
RTVSPost2010PropOp49
 70
     1
102
RTVSPost2010Prop50
 90
       50
102
RTVSPost2010PropOp50
 70
     1
102
RTVSPost2010Prop51ColorIndex
 90
      256
102
RTVSPost2010Prop51ColorRGB
 90
-16777216
102
RTVSPost2010PropOp51
 70
     0
102
RTVSPost2010Prop52
140
1.0
102
RTVSPost2010PropOp52
 70
     0
102
RTVSPost2010Prop53
 90
        2
102
RTVSPost2010PropOp53
 70
     1
102
RTVSPost2010Prop54
  1
strokes_ogs.tif
102
RTVSPost2010PropOp54
 70
     1
102
RTVSPost2010Prop55
280
     0
102
RTVSPost2010PropOp55
 70
     1
102
RTVSPost2010Prop56
140
1.0
102
RTVSPost2010PropOp56
 70
     1
102
RTVSPost2010Prop57
140
1.0
102
RTVSPost2010PropOp57
 70
     1
  0
XRECORD
  5
348
102
{ACAD_REACTORS
330
347
102
}
330
347
100
AcDbXrecord
280
     1
102
RTVSPropertyOp0
 70
     1
102
RTVSPropertyOp1
 70
     1
102
RTVSPropertyOp2
 70
     1
102
RTVSPropertyOp3
 70
     1
102
RTVSPropertyOp4
 70
     1
102
RTVSPropertyOp5
 70
     1
102
RTVSPropertyOp6
 70
     1
102
RTVSPropertyOp7
 70
     1
102
RTVSPropertyOp8
 70
     1
102
RTVSPropertyOp9
 70
     1
102
RTVSPropertyOp10
 70
     1
102
RTVSPropertyOp11
 70
     1
102
RTVSPropertyOp12
 70
     1
102
RTVSPropertyOp13
 70
     1
102
RTVSPropertyOp14
 70
     1
102
RTVSPropertyOp15
 70
     1
102
RTVSPropertyOp16
 70
     1
102
RTVSPropertyOp17
 70
     1
102
RTVSPropertyOp18
 70
     1
102
RTVSPropertyOp19
 70
     1
102
RTVSPropertyOp20
 70
     1
102
RTVSPropertyOp21
 70
     1
102
RTVSPropertyOp22
 70
     1
102
RTVSPropertyOp23
 70
     1
102
RTVSPropertyOp24
 70
     1
102
RTVSPropertyOp25
 70
     1
102
RTVSPropertyOp26
 70
     1
102
RTVSPropertyOp27
 70
     1
102
RTVSPropertyOp28
 70
     1
102
RTVSPropertyOp29
 70
     1
102
RTVSPropertyOp30
 70
     1
102
RTVSPropertyOp31
 70
     1
102
RTVSPropertyOp32
 70
     1
102
RTVSPropertyOp33
 70
     1
102
RTVSPropertyOp34
 70
     1
102
RTVSPropertyOp35
 70
     1
102
RTVSPropertyOp36
 70
     1
102
RTVSPropertyOp37
 70
     1
102
RTVSPropertyOp38
 70
     1
102
RTVSPropertyOp39
 70
     1
102
RTVSPropertyOp40
 70
     1
102
RTVSPropertyOp41
 70
     1
102
RTVSPropertyOp42
 70
     1
102
RTVSPropertyOp43
 70
     1
102
RTVSPropertyOp44
 70
     1
102
RTVSPropertyOp45
 70
     1
102
RTVSPropertyOp46
 70
     1
102
RTVSPropertyOp47
 70
     1
102
RTVSPropertyOp48
 70
     1
102
RTVSPropertyOp49
 70
     1
102
RTVSPropertyOp50
 70
     1
102
RTVSPropertyOp51
 70
     0
102
RTVSPropertyOp52
 70
     0
102
RTVSPropertyOp53
 70
     1
102
RTVSPropertyOp54
 70
     1
102
RTVSPropertyOp55
 70
     1
102
RTVSPropertyOp56
 70
     1
102
RTVSPropertyOp57
 70
     1
102
RTVSPost2010Prop28
280
     0
102
RTVSPost2010PropOp28
 70
     1
102
RTVSPost2010Prop29
280
     1
102
RTVSPost2010PropOp29
 70
     1
102
RTVSPost2010Prop30
280
     1
102
RTVSPost2010PropOp30
 70
     1
102
RTVSPost2010Prop31
280
     0
102
RTVSPost2010PropOp31
 70
     1
102
RTVSPost2010Prop32
280
     0
102
RTVSPost2010PropOp32
 70
     1
102
RTVSPost2010Prop33
280
     0
102
RTVSPost2010PropOp33
 70
     1
102
RTVSPost2010Prop34
280
     0
102
RTVSPost2010PropOp34
 70
     1
102
RTVSPost2010Prop35
280
     0
102
RTVSPost2010PropOp35
 70
     1
102
RTVSPost2010Prop36
280
     0
102
RTVSPost2010PropOp36
 70
     1
102
RTVSPost2010Prop37
 90
       50
102
RTVSPost2010PropOp37
 70
     1
102
RTVSPost2010Prop38
140
0.0
102
RTVSPost2010PropOp38
 70
     1
102
RTVSPost2010Prop39
140
1.0
102
RTVSPost2010PropOp39
 70
     1
102
RTVSPost2010Prop40
 90
        0
102
RTVSPost2010PropOp40
 70
     1
102
RTVSPost2010Prop41ColorIndex
 90
       18
102
RTVSPost2010Prop41ColorRGB
 90
        0
102
RTVSPost2010PropOp41
 70
     1
102
RTVSPost2010Prop42
 90
       50
102
RTVSPost2010PropOp42
 70
     1
102
RTVSPost2010Prop43
 90
        3
102
RTVSPost2010PropOp43
 70
     1
102
RTVSPost2010Prop44ColorIndex
 90
        5
102
RTVSPost2010Prop44ColorRGB
 90
      255
102
RTVSPost2010PropOp44
 70
     1
102
RTVSPost2010Prop45
280
     0
102
RTVSPost2010PropOp45
 70
     1
102
RTVSPost2010Prop46
 90
       50
102
RTVSPost2010PropOp46
 70
     1
102
RTVSPost2010Prop47
 90
       50
102
RTVSPost2010PropOp47
 70
     1
102
RTVSPost2010Prop48
 90
       50
102
RTVSPost2010PropOp48
 70
     1
102
RTVSPost2010Prop49
280
     0
102
RTVSPost2010PropOp49
 70
     1
102
RTVSPost2010Prop50
 90
       50
102
RTVSPost2010PropOp50
 70
     1
102
RTVSPost2010Prop51ColorIndex
 90
      256
102
RTVSPost2010Prop51ColorRGB
 90
-16777216
102
RTVSPost2010PropOp51
 70
     0
102
RTVSPost2010Prop52
140
1.0
102
RTVSPost2010PropOp52
 70
     0
102
RTVSPost2010Prop53
 90
        2
102
RTVSPost2010PropOp53
 70
     1
102
RTVSPost2010Prop54
  1
strokes_ogs.tif
102
RTVSPost2010PropOp54
 70
     1
102
RTVSPost2010Prop55
280
     0
102
RTVSPost2010PropOp55
 70
     1
102
RTVSPost2010Prop56
140
1.0
102
RTVSPost2010PropOp56
 70
     1
102
RTVSPost2010Prop57
140
1.0
102
RTVSPost2010PropOp57
 70
     1
  0
XRECORD
  5
35C
102
{ACAD_REACTORS
330
35B
102
}
330
35B
100
AcDbXrecord
280
     1
102
RTVSPropertyOp0
 70
     0
102
RTVSPropertyOp1
 70
     0
102
RTVSPropertyOp2
 70
     0
102
RTVSPropertyOp3
 70
     0
102
RTVSPropertyOp4
 70
     0
102
RTVSPropertyOp5
 70
     0
102
RTVSPropertyOp6
 70
     0
102
RTVSPropertyOp7
 70
     0
102
RTVSPropertyOp8
 70
     0
102
RTVSPropertyOp9
 70
     0
102
RTVSPropertyOp10
 70
     0
102
RTVSPropertyOp11
 70
     0
102
RTVSPropertyOp12
 70
     0
102
RTVSPropertyOp13
 70
     0
102
RTVSPropertyOp14
 70
     2
102
RTVSPropertyOp15
 70
     0
102
RTVSPropertyOp16
 70
     0
102
RTVSPropertyOp17
 70
     0
102
RTVSPropertyOp18
 70
     0
102
RTVSPropertyOp19
 70
     0
102
RTVSPropertyOp20
 70
     0
102
RTVSPropertyOp21
 70
     0
102
RTVSPropertyOp22
 70
     0
102
RTVSPropertyOp23
 70
     0
102
RTVSPropertyOp24
 70
     0
102
RTVSPropertyOp25
 70
     0
102
RTVSPropertyOp26
 70
     0
102
RTVSPropertyOp27
 70
     0
102
RTVSPropertyOp28
 70
     0
102
RTVSPropertyOp29
 70
     0
102
RTVSPropertyOp30
 70
     0
102
RTVSPropertyOp31
 70
     0
102
RTVSPropertyOp32
 70
     0
102
RTVSPropertyOp33
 70
     0
102
RTVSPropertyOp34
 70
     0
102
RTVSPropertyOp35
 70
     0
102
RTVSPropertyOp36
 70
     0
102
RTVSPropertyOp37
 70
     0
102
RTVSPropertyOp38
 70
     0
102
RTVSPropertyOp39
 70
     0
102
RTVSPropertyOp40
 70
     0
102
RTVSPropertyOp41
 70
     0
102
RTVSPropertyOp42
 70
     0
102
RTVSPropertyOp43
 70
     0
102
RTVSPropertyOp44
 70
     0
102
RTVSPropertyOp45
 70
     0
102
RTVSPropertyOp46
 70
     0
102
RTVSPropertyOp47
 70
     0
102
RTVSPropertyOp48
 70
     0
102
RTVSPropertyOp49
 70
     0
102
RTVSPropertyOp50
 70
     0
102
RTVSPropertyOp51
 70
     0
102
RTVSPropertyOp52
 70
     0
102
RTVSPropertyOp53
 70
     0
102
RTVSPropertyOp54
 70
     0
102
RTVSPropertyOp55
 70
     0
102
RTVSPropertyOp56
 70
     0
102
RTVSPropertyOp57
 70
     0
102
RTVSPost2010Prop28
280
     0
102
RTVSPost2010PropOp28
 70
     0
102
RTVSPost2010Prop29
280
     1
102
RTVSPost2010PropOp29
 70
     0
102
RTVSPost2010Prop30
280
     1
102
RTVSPost2010PropOp30
 70
     0
102
RTVSPost2010Prop31
280
     0
102
RTVSPost2010PropOp31
 70
     0
102
RTVSPost2010Prop32
280
     0
102
RTVSPost2010PropOp32
 70
     0
102
RTVSPost2010Prop33
280
     0
102
RTVSPost2010PropOp33
 70
     0
102
RTVSPost2010Prop34
280
     0
102
RTVSPost2010PropOp34
 70
     0
102
RTVSPost2010Prop35
280
     0
102
RTVSPost2010PropOp35
 70
     0
102
RTVSPost2010Prop36
280
     0
102
RTVSPost2010PropOp36
 70
     0
102
RTVSPost2010Prop37
 90
       50
102
RTVSPost2010PropOp37
 70
     0
102
RTVSPost2010Prop38
140
0.0
102
RTVSPost2010PropOp38
 70
     0
102
RTVSPost2010Prop39
140
1.0
102
RTVSPost2010PropOp39
 70
     0
102
RTVSPost2010Prop40
 90
        0
102
RTVSPost2010PropOp40
 70
     0
102
RTVSPost2010Prop41ColorIndex
 90
       18
102
RTVSPost2010Prop41ColorRGB
 90
        0
102
RTVSPost2010PropOp41
 70
     0
102
RTVSPost2010Prop42
 90
       50
102
RTVSPost2010PropOp42
 70
     0
102
RTVSPost2010Prop43
 90
        3
102
RTVSPost2010PropOp43
 70
     0
102
RTVSPost2010Prop44ColorIndex
 90
        5
102
RTVSPost2010Prop44ColorRGB
 90
      255
102
RTVSPost2010PropOp44
 70
     0
102
RTVSPost2010Prop45
280
     0
102
RTVSPost2010PropOp45
 70
     0
102
RTVSPost2010Prop46
 90
       50
102
RTVSPost2010PropOp46
 70
     0
102
RTVSPost2010Prop47
 90
       50
102
RTVSPost2010PropOp47
 70
     0
102
RTVSPost2010Prop48
 90
       50
102
RTVSPost2010PropOp48
 70
     0
102
RTVSPost2010Prop49
280
     0
102
RTVSPost2010PropOp49
 70
     0
102
RTVSPost2010Prop50
 90
       50
102
RTVSPost2010PropOp50
 70
     0
102
RTVSPost2010Prop51ColorIndex
 90
      256
102
RTVSPost2010Prop51ColorRGB
 90
-16777216
102
RTVSPost2010PropOp51
 70
     0
102
RTVSPost2010Prop52
140
1.0
102
RTVSPost2010PropOp52
 70
     0
102
RTVSPost2010Prop53
 90
        2
102
RTVSPost2010PropOp53
 70
     0
102
RTVSPost2010Prop54
  1
strokes_ogs.tif
102
RTVSPost2010PropOp54
 70
     0
102
RTVSPost2010Prop55
280
     0
102
RTVSPost2010PropOp55
 70
     0
102
RTVSPost2010Prop56
140
1.0
102
RTVSPost2010PropOp56
 70
     0
102
RTVSPost2010Prop57
140
1.0
102
RTVSPost2010PropOp57
 70
     0
  0
XRECORD
  5
356
102
{ACAD_REACTORS
330
355
102
}
330
355
100
AcDbXrecord
280
     1
102
RTVSPropertyOp0
 70
     1
102
RTVSPropertyOp1
 70
     1
102
RTVSPropertyOp2
 70
     1
102
RTVSPropertyOp3
 70
     1
102
RTVSPropertyOp4
 70
     1
102
RTVSPropertyOp5
 70
     1
102
RTVSPropertyOp6
 70
     1
102
RTVSPropertyOp7
 70
     1
102
RTVSPropertyOp8
 70
     1
102
RTVSPropertyOp9
 70
     1
102
RTVSPropertyOp10
 70
     1
102
RTVSPropertyOp11
 70
     1
102
RTVSPropertyOp12
 70
     1
102
RTVSPropertyOp13
 70
     1
102
RTVSPropertyOp14
 70
     1
102
RTVSPropertyOp15
 70
     1
102
RTVSPropertyOp16
 70
     1
102
RTVSPropertyOp17
 70
     1
102
RTVSPropertyOp18
 70
     1
102
RTVSPropertyOp19
 70
     1
102
RTVSPropertyOp20
 70
     1
102
RTVSPropertyOp21
 70
     1
102
RTVSPropertyOp22
 70
     1
102
RTVSPropertyOp23
 70
     1
102
RTVSPropertyOp24
 70
     1
102
RTVSPropertyOp25
 70
     1
102
RTVSPropertyOp26
 70
     1
102
RTVSPropertyOp27
 70
     1
102
RTVSPropertyOp28
 70
     1
102
RTVSPropertyOp29
 70
     1
102
RTVSPropertyOp30
 70
     1
102
RTVSPropertyOp31
 70
     1
102
RTVSPropertyOp32
 70
     1
102
RTVSPropertyOp33
 70
     1
102
RTVSPropertyOp34
 70
     1
102
RTVSPropertyOp35
 70
     1
102
RTVSPropertyOp36
 70
     1
102
RTVSPropertyOp37
 70
     1
102
RTVSPropertyOp38
 70
     1
102
RTVSPropertyOp39
 70
     1
102
RTVSPropertyOp40
 70
     1
102
RTVSPropertyOp41
 70
     1
102
RTVSPropertyOp42
 70
     1
102
RTVSPropertyOp43
 70
     1
102
RTVSPropertyOp44
 70
     1
102
RTVSPropertyOp45
 70
     1
102
RTVSPropertyOp46
 70
     1
102
RTVSPropertyOp47
 70
     1
102
RTVSPropertyOp48
 70
     1
102
RTVSPropertyOp49
 70
     1
102
RTVSPropertyOp50
 70
     1
102
RTVSPropertyOp51
 70
     0
102
RTVSPropertyOp52
 70
     0
102
RTVSPropertyOp53
 70
     1
102
RTVSPropertyOp54
 70
     1
102
RTVSPropertyOp55
 70
     1
102
RTVSPropertyOp56
 70
     1
102
RTVSPropertyOp57
 70
     1
102
RTVSPost2010Prop28
280
     0
102
RTVSPost2010PropOp28
 70
     1
102
RTVSPost2010Prop29
280
     1
102
RTVSPost2010PropOp29
 70
     1
102
RTVSPost2010Prop30
280
     1
102
RTVSPost2010PropOp30
 70
     1
102
RTVSPost2010Prop31
280
     0
102
RTVSPost2010PropOp31
 70
     1
102
RTVSPost2010Prop32
280
     0
102
RTVSPost2010PropOp32
 70
     1
102
RTVSPost2010Prop33
280
     0
102
RTVSPost2010PropOp33
 70
     1
102
RTVSPost2010Prop34
280
     0
102
RTVSPost2010PropOp34
 70
     1
102
RTVSPost2010Prop35
280
     0
102
RTVSPost2010PropOp35
 70
     1
102
RTVSPost2010Prop36
280
     0
102
RTVSPost2010PropOp36
 70
     1
102
RTVSPost2010Prop37
 90
       50
102
RTVSPost2010PropOp37
 70
     1
102
RTVSPost2010Prop38
140
0.0
102
RTVSPost2010PropOp38
 70
     1
102
RTVSPost2010Prop39
140
1.0
102
RTVSPost2010PropOp39
 70
     1
102
RTVSPost2010Prop40
 90
        0
102
RTVSPost2010PropOp40
 70
     1
102
RTVSPost2010Prop41ColorIndex
 90
       18
102
RTVSPost2010Prop41ColorRGB
 90
        0
102
RTVSPost2010PropOp41
 70
     1
102
RTVSPost2010Prop42
 90
       50
102
RTVSPost2010PropOp42
 70
     1
102
RTVSPost2010Prop43
 90
        3
102
RTVSPost2010PropOp43
 70
     1
102
RTVSPost2010Prop44ColorIndex
 90
        5
102
RTVSPost2010Prop44ColorRGB
 90
      255
102
RTVSPost2010PropOp44
 70
     1
102
RTVSPost2010Prop45
280
     0
102
RTVSPost2010PropOp45
 70
     1
102
RTVSPost2010Prop46
 90
       50
102
RTVSPost2010PropOp46
 70
     1
102
RTVSPost2010Prop47
 90
       50
102
RTVSPost2010PropOp47
 70
     1
102
RTVSPost2010Prop48
 90
       50
102
RTVSPost2010PropOp48
 70
     1
102
RTVSPost2010Prop49
280
     0
102
RTVSPost2010PropOp49
 70
     1
102
RTVSPost2010Prop50
 90
       50
102
RTVSPost2010PropOp50
 70
     1
102
RTVSPost2010Prop51ColorIndex
 90
      256
102
RTVSPost2010Prop51ColorRGB
 90
-16777216
102
RTVSPost2010PropOp51
 70
     0
102
RTVSPost2010Prop52
140
1.0
102
RTVSPost2010PropOp52
 70
     0
102
RTVSPost2010Prop53
 90
        2
102
RTVSPost2010PropOp53
 70
     1
102
RTVSPost2010Prop54
  1
strokes_ogs.tif
102
RTVSPost2010PropOp54
 70
     1
102
RTVSPost2010Prop55
280
     0
102
RTVSPost2010PropOp55
 70
     1
102
RTVSPost2010Prop56
140
1.0
102
RTVSPost2010PropOp56
 70
     1
102
RTVSPost2010Prop57
140
1.0
102
RTVSPost2010PropOp57
 70
     1
  0
XRECORD
  5
35E
102
{ACAD_REACTORS
330
35D
102
}
330
35D
100
AcDbXrecord
280
     1
102
RTVSPropertyOp0
 70
     0
102
RTVSPropertyOp1
 70
     0
102
RTVSPropertyOp2
 70
     0
102
RTVSPropertyOp3
 70
     0
102
RTVSPropertyOp4
 70
     0
102
RTVSPropertyOp5
 70
     0
102
RTVSPropertyOp6
 70
     0
102
RTVSPropertyOp7
 70
     0
102
RTVSPropertyOp8
 70
     0
102
RTVSPropertyOp9
 70
     0
102
RTVSPropertyOp10
 70
     0
102
RTVSPropertyOp11
 70
     0
102
RTVSPropertyOp12
 70
     0
102
RTVSPropertyOp13
 70
     0
102
RTVSPropertyOp14
 70
     2
102
RTVSPropertyOp15
 70
     0
102
RTVSPropertyOp16
 70
     0
102
RTVSPropertyOp17
 70
     0
102
RTVSPropertyOp18
 70
     0
102
RTVSPropertyOp19
 70
     0
102
RTVSPropertyOp20
 70
     0
102
RTVSPropertyOp21
 70
     0
102
RTVSPropertyOp22
 70
     0
102
RTVSPropertyOp23
 70
     0
102
RTVSPropertyOp24
 70
     0
102
RTVSPropertyOp25
 70
     0
102
RTVSPropertyOp26
 70
     0
102
RTVSPropertyOp27
 70
     0
102
RTVSPropertyOp28
 70
     0
102
RTVSPropertyOp29
 70
     0
102
RTVSPropertyOp30
 70
     0
102
RTVSPropertyOp31
 70
     0
102
RTVSPropertyOp32
 70
     0
102
RTVSPropertyOp33
 70
     0
102
RTVSPropertyOp34
 70
     0
102
RTVSPropertyOp35
 70
     0
102
RTVSPropertyOp36
 70
     0
102
RTVSPropertyOp37
 70
     0
102
RTVSPropertyOp38
 70
     0
102
RTVSPropertyOp39
 70
     0
102
RTVSPropertyOp40
 70
     0
102
RTVSPropertyOp41
 70
     0
102
RTVSPropertyOp42
 70
     0
102
RTVSPropertyOp43
 70
     0
102
RTVSPropertyOp44
 70
     0
102
RTVSPropertyOp45
 70
     0
102
RTVSPropertyOp46
 70
     0
102
RTVSPropertyOp47
 70
     0
102
RTVSPropertyOp48
 70
     0
102
RTVSPropertyOp49
 70
     0
102
RTVSPropertyOp50
 70
     0
102
RTVSPropertyOp51
 70
     0
102
RTVSPropertyOp52
 70
     0
102
RTVSPropertyOp53
 70
     0
102
RTVSPropertyOp54
 70
     0
102
RTVSPropertyOp55
 70
     0
102
RTVSPropertyOp56
 70
     0
102
RTVSPropertyOp57
 70
     0
102
RTVSPost2010Prop28
280
     0
102
RTVSPost2010PropOp28
 70
     0
102
RTVSPost2010Prop29
280
     1
102
RTVSPost2010PropOp29
 70
     0
102
RTVSPost2010Prop30
280
     1
102
RTVSPost2010PropOp30
 70
     0
102
RTVSPost2010Prop31
280
     0
102
RTVSPost2010PropOp31
 70
     0
102
RTVSPost2010Prop32
280
     0
102
RTVSPost2010PropOp32
 70
     0
102
RTVSPost2010Prop33
280
     0
102
RTVSPost2010PropOp33
 70
     0
102
RTVSPost2010Prop34
280
     0
102
RTVSPost2010PropOp34
 70
     0
102
RTVSPost2010Prop35
280
     0
102
RTVSPost2010PropOp35
 70
     0
102
RTVSPost2010Prop36
280
     0
102
RTVSPost2010PropOp36
 70
     0
102
RTVSPost2010Prop37
 90
       50
102
RTVSPost2010PropOp37
 70
     0
102
RTVSPost2010Prop38
140
0.0
102
RTVSPost2010PropOp38
 70
     0
102
RTVSPost2010Prop39
140
1.0
102
RTVSPost2010PropOp39
 70
     0
102
RTVSPost2010Prop40
 90
        0
102
RTVSPost2010PropOp40
 70
     0
102
RTVSPost2010Prop41ColorIndex
 90
       18
102
RTVSPost2010Prop41ColorRGB
 90
        0
102
RTVSPost2010PropOp41
 70
     0
102
RTVSPost2010Prop42
 90
       50
102
RTVSPost2010PropOp42
 70
     0
102
RTVSPost2010Prop43
 90
        3
102
RTVSPost2010PropOp43
 70
     0
102
RTVSPost2010Prop44ColorIndex
 90
        5
102
RTVSPost2010Prop44ColorRGB
 90
      255
102
RTVSPost2010PropOp44
 70
     0
102
RTVSPost2010Prop45
280
     0
102
RTVSPost2010PropOp45
 70
     0
102
RTVSPost2010Prop46
 90
       50
102
RTVSPost2010PropOp46
 70
     0
102
RTVSPost2010Prop47
 90
       50
102
RTVSPost2010PropOp47
 70
     0
102
RTVSPost2010Prop48
 90
       50
102
RTVSPost2010PropOp48
 70
     0
102
RTVSPost2010Prop49
280
     0
102
RTVSPost2010PropOp49
 70
     0
102
RTVSPost2010Prop50
 90
       50
102
RTVSPost2010PropOp50
 70
     0
102
RTVSPost2010Prop51ColorIndex
 90
      256
102
RTVSPost2010Prop51ColorRGB
 90
-16777216
102
RTVSPost2010PropOp51
 70
     0
102
RTVSPost2010Prop52
140
1.0
102
RTVSPost2010PropOp52
 70
     0
102
RTVSPost2010Prop53
 90
        2
102
RTVSPost2010PropOp53
 70
     0
102
RTVSPost2010Prop54
  1
strokes_ogs.tif
102
RTVSPost2010PropOp54
 70
     0
102
RTVSPost2010Prop55
280
     0
102
RTVSPost2010PropOp55
 70
     0
102
RTVSPost2010Prop56
140
1.0
102
RTVSPost2010PropOp56
 70
     0
102
RTVSPost2010Prop57
140
1.0
102
RTVSPost2010PropOp57
 70
     0
  0
XRECORD
  5
34C
102
{ACAD_REACTORS
330
34B
102
}
330
34B
100
AcDbXrecord
280
     1
102
RTVSPropertyOp0
 70
     1
102
RTVSPropertyOp1
 70
     1
102
RTVSPropertyOp2
 70
     1
102
RTVSPropertyOp3
 70
     1
102
RTVSPropertyOp4
 70
     1
102
RTVSPropertyOp5
 70
     1
102
RTVSPropertyOp6
 70
     1
102
RTVSPropertyOp7
 70
     1
102
RTVSPropertyOp8
 70
     1
102
RTVSPropertyOp9
 70
     1
102
RTVSPropertyOp10
 70
     1
102
RTVSPropertyOp11
 70
     1
102
RTVSPropertyOp12
 70
     1
102
RTVSPropertyOp13
 70
     1
102
RTVSPropertyOp14
 70
     1
102
RTVSPropertyOp15
 70
     1
102
RTVSPropertyOp16
 70
     1
102
RTVSPropertyOp17
 70
     1
102
RTVSPropertyOp18
 70
     1
102
RTVSPropertyOp19
 70
     1
102
RTVSPropertyOp20
 70
     1
102
RTVSPropertyOp21
 70
     1
102
RTVSPropertyOp22
 70
     1
102
RTVSPropertyOp23
 70
     1
102
RTVSPropertyOp24
 70
     1
102
RTVSPropertyOp25
 70
     1
102
RTVSPropertyOp26
 70
     1
102
RTVSPropertyOp27
 70
     1
102
RTVSPropertyOp28
 70
     1
102
RTVSPropertyOp29
 70
     1
102
RTVSPropertyOp30
 70
     1
102
RTVSPropertyOp31
 70
     1
102
RTVSPropertyOp32
 70
     1
102
RTVSPropertyOp33
 70
     1
102
RTVSPropertyOp34
 70
     1
102
RTVSPropertyOp35
 70
     1
102
RTVSPropertyOp36
 70
     1
102
RTVSPropertyOp37
 70
     1
102
RTVSPropertyOp38
 70
     1
102
RTVSPropertyOp39
 70
     1
102
RTVSPropertyOp40
 70
     1
102
RTVSPropertyOp41
 70
     1
102
RTVSPropertyOp42
 70
     1
102
RTVSPropertyOp43
 70
     1
102
RTVSPropertyOp44
 70
     1
102
RTVSPropertyOp45
 70
     1
102
RTVSPropertyOp46
 70
     1
102
RTVSPropertyOp47
 70
     1
102
RTVSPropertyOp48
 70
     1
102
RTVSPropertyOp49
 70
     1
102
RTVSPropertyOp50
 70
     1
102
RTVSPropertyOp51
 70
     0
102
RTVSPropertyOp52
 70
     0
102
RTVSPropertyOp53
 70
     1
102
RTVSPropertyOp54
 70
     1
102
RTVSPropertyOp55
 70
     1
102
RTVSPropertyOp56
 70
     1
102
RTVSPropertyOp57
 70
     1
102
RTVSPost2010Prop28
280
     0
102
RTVSPost2010PropOp28
 70
     1
102
RTVSPost2010Prop29
280
     1
102
RTVSPost2010PropOp29
 70
     1
102
RTVSPost2010Prop30
280
     1
102
RTVSPost2010PropOp30
 70
     1
102
RTVSPost2010Prop31
280
     0
102
RTVSPost2010PropOp31
 70
     1
102
RTVSPost2010Prop32
280
     0
102
RTVSPost2010PropOp32
 70
     1
102
RTVSPost2010Prop33
280
     0
102
RTVSPost2010PropOp33
 70
     1
102
RTVSPost2010Prop34
280
     0
102
RTVSPost2010PropOp34
 70
     1
102
RTVSPost2010Prop35
280
     0
102
RTVSPost2010PropOp35
 70
     1
102
RTVSPost2010Prop36
280
     0
102
RTVSPost2010PropOp36
 70
     1
102
RTVSPost2010Prop37
 90
       50
102
RTVSPost2010PropOp37
 70
     1
102
RTVSPost2010Prop38
140
0.0
102
RTVSPost2010PropOp38
 70
     1
102
RTVSPost2010Prop39
140
1.0
102
RTVSPost2010PropOp39
 70
     1
102
RTVSPost2010Prop40
 90
        0
102
RTVSPost2010PropOp40
 70
     1
102
RTVSPost2010Prop41ColorIndex
 90
       18
102
RTVSPost2010Prop41ColorRGB
 90
        0
102
RTVSPost2010PropOp41
 70
     1
102
RTVSPost2010Prop42
 90
       50
102
RTVSPost2010PropOp42
 70
     1
102
RTVSPost2010Prop43
 90
        3
102
RTVSPost2010PropOp43
 70
     1
102
RTVSPost2010Prop44ColorIndex
 90
        5
102
RTVSPost2010Prop44ColorRGB
 90
      255
102
RTVSPost2010PropOp44
 70
     1
102
RTVSPost2010Prop45
280
     0
102
RTVSPost2010PropOp45
 70
     1
102
RTVSPost2010Prop46
 90
       50
102
RTVSPost2010PropOp46
 70
     1
102
RTVSPost2010Prop47
 90
       50
102
RTVSPost2010PropOp47
 70
     1
102
RTVSPost2010Prop48
 90
       50
102
RTVSPost2010PropOp48
 70
     1
102
RTVSPost2010Prop49
280
     0
102
RTVSPost2010PropOp49
 70
     1
102
RTVSPost2010Prop50
 90
       50
102
RTVSPost2010PropOp50
 70
     1
102
RTVSPost2010Prop51ColorIndex
 90
      256
102
RTVSPost2010Prop51ColorRGB
 90
-16777216
102
RTVSPost2010PropOp51
 70
     0
102
RTVSPost2010Prop52
140
1.0
102
RTVSPost2010PropOp52
 70
     0
102
RTVSPost2010Prop53
 90
        2
102
RTVSPost2010PropOp53
 70
     1
102
RTVSPost2010Prop54
  1
strokes_ogs.tif
102
RTVSPost2010PropOp54
 70
     1
102
RTVSPost2010Prop55
280
     0
102
RTVSPost2010PropOp55
 70
     1
102
RTVSPost2010Prop56
140
1.0
102
RTVSPost2010PropOp56
 70
     1
102
RTVSPost2010Prop57
140
1.0
102
RTVSPost2010PropOp57
 70
     1
  0
XRECORD
  5
36A
102
{ACAD_REACTORS
330
369
102
}
330
369
100
AcDbXrecord
280
     1
102
RTVSPropertyOp0
 70
     1
102
RTVSPropertyOp1
 70
     1
102
RTVSPropertyOp2
 70
     1
102
RTVSPropertyOp3
 70
     1
102
RTVSPropertyOp4
 70
     1
102
RTVSPropertyOp5
 70
     1
102
RTVSPropertyOp6
 70
     1
102
RTVSPropertyOp7
 70
     1
102
RTVSPropertyOp8
 70
     1
102
RTVSPropertyOp9
 70
     1
102
RTVSPropertyOp10
 70
     1
102
RTVSPropertyOp11
 70
     1
102
RTVSPropertyOp12
 70
     1
102
RTVSPropertyOp13
 70
     1
102
RTVSPropertyOp14
 70
     1
102
RTVSPropertyOp15
 70
     1
102
RTVSPropertyOp16
 70
     1
102
RTVSPropertyOp17
 70
     1
102
RTVSPropertyOp18
 70
     1
102
RTVSPropertyOp19
 70
     1
102
RTVSPropertyOp20
 70
     1
102
RTVSPropertyOp21
 70
     1
102
RTVSPropertyOp22
 70
     1
102
RTVSPropertyOp23
 70
     1
102
RTVSPropertyOp24
 70
     1
102
RTVSPropertyOp25
 70
     1
102
RTVSPropertyOp26
 70
     1
102
RTVSPropertyOp27
 70
     1
102
RTVSPropertyOp28
 70
     1
102
RTVSPropertyOp29
 70
     1
102
RTVSPropertyOp30
 70
     1
102
RTVSPropertyOp31
 70
     1
102
RTVSPropertyOp32
 70
     1
102
RTVSPropertyOp33
 70
     1
102
RTVSPropertyOp34
 70
     1
102
RTVSPropertyOp35
 70
     1
102
RTVSPropertyOp36
 70
     1
102
RTVSPropertyOp37
 70
     1
102
RTVSPropertyOp38
 70
     1
102
RTVSPropertyOp39
 70
     1
102
RTVSPropertyOp40
 70
     1
102
RTVSPropertyOp41
 70
     1
102
RTVSPropertyOp42
 70
     1
102
RTVSPropertyOp43
 70
     1
102
RTVSPropertyOp44
 70
     1
102
RTVSPropertyOp45
 70
     1
102
RTVSPropertyOp46
 70
     1
102
RTVSPropertyOp47
 70
     1
102
RTVSPropertyOp48
 70
     1
102
RTVSPropertyOp49
 70
     1
102
RTVSPropertyOp50
 70
     1
102
RTVSPropertyOp51
 70
     0
102
RTVSPropertyOp52
 70
     0
102
RTVSPropertyOp53
 70
     1
102
RTVSPropertyOp54
 70
     1
102
RTVSPropertyOp55
 70
     1
102
RTVSPropertyOp56
 70
     1
102
RTVSPropertyOp57
 70
     1
102
RTVSPost2010Prop28
280
     0
102
RTVSPost2010PropOp28
 70
     1
102
RTVSPost2010Prop29
280
     1
102
RTVSPost2010PropOp29
 70
     1
102
RTVSPost2010Prop30
280
     1
102
RTVSPost2010PropOp30
 70
     1
102
RTVSPost2010Prop31
280
     0
102
RTVSPost2010PropOp31
 70
     1
102
RTVSPost2010Prop32
280
     0
102
RTVSPost2010PropOp32
 70
     1
102
RTVSPost2010Prop33
280
     0
102
RTVSPost2010PropOp33
 70
     1
102
RTVSPost2010Prop34
280
     0
102
RTVSPost2010PropOp34
 70
     1
102
RTVSPost2010Prop35
280
     0
102
RTVSPost2010PropOp35
 70
     1
102
RTVSPost2010Prop36
280
     0
102
RTVSPost2010PropOp36
 70
     1
102
RTVSPost2010Prop37
 90
       50
102
RTVSPost2010PropOp37
 70
     1
102
RTVSPost2010Prop38
140
0.0
102
RTVSPost2010PropOp38
 70
     1
102
RTVSPost2010Prop39
140
1.0
102
RTVSPost2010PropOp39
 70
     1
102
RTVSPost2010Prop40
 90
        0
102
RTVSPost2010PropOp40
 70
     1
102
RTVSPost2010Prop41ColorIndex
 90
       18
102
RTVSPost2010Prop41ColorRGB
 90
        0
102
RTVSPost2010PropOp41
 70
     1
102
RTVSPost2010Prop42
 90
       50
102
RTVSPost2010PropOp42
 70
     1
102
RTVSPost2010Prop43
 90
        3
102
RTVSPost2010PropOp43
 70
     1
102
RTVSPost2010Prop44ColorIndex
 90
        5
102
RTVSPost2010Prop44ColorRGB
 90
      255
102
RTVSPost2010PropOp44
 70
     1
102
RTVSPost2010Prop45
280
     0
102
RTVSPost2010PropOp45
 70
     1
102
RTVSPost2010Prop46
 90
       50
102
RTVSPost2010PropOp46
 70
     1
102
RTVSPost2010Prop47
 90
       50
102
RTVSPost2010PropOp47
 70
     1
102
RTVSPost2010Prop48
 90
       50
102
RTVSPost2010PropOp48
 70
     1
102
RTVSPost2010Prop49
280
     0
102
RTVSPost2010PropOp49
 70
     1
102
RTVSPost2010Prop50
 90
       50
102
RTVSPost2010PropOp50
 70
     1
102
RTVSPost2010Prop51ColorIndex
 90
      256
102
RTVSPost2010Prop51ColorRGB
 90
-16777216
102
RTVSPost2010PropOp51
 70
     0
102
RTVSPost2010Prop52
140
1.0
102
RTVSPost2010PropOp52
 70
     0
102
RTVSPost2010Prop53
 90
        2
102
RTVSPost2010PropOp53
 70
     1
102
RTVSPost2010Prop54
  1
strokes_ogs.tif
102
RTVSPost2010PropOp54
 70
     1
102
RTVSPost2010Prop55
280
     0
102
RTVSPost2010PropOp55
 70
     1
102
RTVSPost2010Prop56
140
1.0
102
RTVSPost2010PropOp56
 70
     1
102
RTVSPost2010Prop57
140
1.0
102
RTVSPost2010PropOp57
 70
     1
  0
XRECORD
  5
368
102
{ACAD_REACTORS
330
367
102
}
330
367
100
AcDbXrecord
280
     1
102
RTVSPropertyOp0
 70
     1
102
RTVSPropertyOp1
 70
     1
102
RTVSPropertyOp2
 70
     1
102
RTVSPropertyOp3
 70
     1
102
RTVSPropertyOp4
 70
     1
102
RTVSPropertyOp5
 70
     1
102
RTVSPropertyOp6
 70
     1
102
RTVSPropertyOp7
 70
     1
102
RTVSPropertyOp8
 70
     1
102
RTVSPropertyOp9
 70
     1
102
RTVSPropertyOp10
 70
     1
102
RTVSPropertyOp11
 70
     1
102
RTVSPropertyOp12
 70
     1
102
RTVSPropertyOp13
 70
     1
102
RTVSPropertyOp14
 70
     1
102
RTVSPropertyOp15
 70
     1
102
RTVSPropertyOp16
 70
     1
102
RTVSPropertyOp17
 70
     1
102
RTVSPropertyOp18
 70
     1
102
RTVSPropertyOp19
 70
     1
102
RTVSPropertyOp20
 70
     1
102
RTVSPropertyOp21
 70
     1
102
RTVSPropertyOp22
 70
     1
102
RTVSPropertyOp23
 70
     1
102
RTVSPropertyOp24
 70
     1
102
RTVSPropertyOp25
 70
     1
102
RTVSPropertyOp26
 70
     1
102
RTVSPropertyOp27
 70
     1
102
RTVSPropertyOp28
 70
     1
102
RTVSPropertyOp29
 70
     1
102
RTVSPropertyOp30
 70
     1
102
RTVSPropertyOp31
 70
     1
102
RTVSPropertyOp32
 70
     1
102
RTVSPropertyOp33
 70
     1
102
RTVSPropertyOp34
 70
     1
102
RTVSPropertyOp35
 70
     1
102
RTVSPropertyOp36
 70
     1
102
RTVSPropertyOp37
 70
     1
102
RTVSPropertyOp38
 70
     1
102
RTVSPropertyOp39
 70
     1
102
RTVSPropertyOp40
 70
     1
102
RTVSPropertyOp41
 70
     1
102
RTVSPropertyOp42
 70
     1
102
RTVSPropertyOp43
 70
     1
102
RTVSPropertyOp44
 70
     1
102
RTVSPropertyOp45
 70
     1
102
RTVSPropertyOp46
 70
     1
102
RTVSPropertyOp47
 70
     1
102
RTVSPropertyOp48
 70
     1
102
RTVSPropertyOp49
 70
     1
102
RTVSPropertyOp50
 70
     1
102
RTVSPropertyOp51
 70
     0
102
RTVSPropertyOp52
 70
     0
102
RTVSPropertyOp53
 70
     1
102
RTVSPropertyOp54
 70
     1
102
RTVSPropertyOp55
 70
     1
102
RTVSPropertyOp56
 70
     1
102
RTVSPropertyOp57
 70
     1
102
RTVSPost2010Prop28
280
     0
102
RTVSPost2010PropOp28
 70
     1
102
RTVSPost2010Prop29
280
     1
102
RTVSPost2010PropOp29
 70
     1
102
RTVSPost2010Prop30
280
     1
102
RTVSPost2010PropOp30
 70
     1
102
RTVSPost2010Prop31
280
     0
102
RTVSPost2010PropOp31
 70
     1
102
RTVSPost2010Prop32
280
     0
102
RTVSPost2010PropOp32
 70
     1
102
RTVSPost2010Prop33
280
     0
102
RTVSPost2010PropOp33
 70
     1
102
RTVSPost2010Prop34
280
     0
102
RTVSPost2010PropOp34
 70
     1
102
RTVSPost2010Prop35
280
     0
102
RTVSPost2010PropOp35
 70
     1
102
RTVSPost2010Prop36
280
     0
102
RTVSPost2010PropOp36
 70
     1
102
RTVSPost2010Prop37
 90
       50
102
RTVSPost2010PropOp37
 70
     1
102
RTVSPost2010Prop38
140
0.0
102
RTVSPost2010PropOp38
 70
     1
102
RTVSPost2010Prop39
140
1.0
102
RTVSPost2010PropOp39
 70
     1
102
RTVSPost2010Prop40
 90
        0
102
RTVSPost2010PropOp40
 70
     1
102
RTVSPost2010Prop41ColorIndex
 90
       18
102
RTVSPost2010Prop41ColorRGB
 90
        0
102
RTVSPost2010PropOp41
 70
     1
102
RTVSPost2010Prop42
 90
       50
102
RTVSPost2010PropOp42
 70
     1
102
RTVSPost2010Prop43
 90
        3
102
RTVSPost2010PropOp43
 70
     1
102
RTVSPost2010Prop44ColorIndex
 90
        5
102
RTVSPost2010Prop44ColorRGB
 90
      255
102
RTVSPost2010PropOp44
 70
     1
102
RTVSPost2010Prop45
280
     0
102
RTVSPost2010PropOp45
 70
     1
102
RTVSPost2010Prop46
 90
       50
102
RTVSPost2010PropOp46
 70
     1
102
RTVSPost2010Prop47
 90
       50
102
RTVSPost2010PropOp47
 70
     1
102
RTVSPost2010Prop48
 90
       50
102
RTVSPost2010PropOp48
 70
     1
102
RTVSPost2010Prop49
280
     0
102
RTVSPost2010PropOp49
 70
     1
102
RTVSPost2010Prop50
 90
       50
102
RTVSPost2010PropOp50
 70
     1
102
RTVSPost2010Prop51ColorIndex
 90
      256
102
RTVSPost2010Prop51ColorRGB
 90
-16777216
102
RTVSPost2010PropOp51
 70
     0
102
RTVSPost2010Prop52
140
1.0
102
RTVSPost2010PropOp52
 70
     0
102
RTVSPost2010Prop53
 90
        2
102
RTVSPost2010PropOp53
 70
     1
102
RTVSPost2010Prop54
  1
strokes_ogs.tif
102
RTVSPost2010PropOp54
 70
     1
102
RTVSPost2010Prop55
280
     0
102
RTVSPost2010PropOp55
 70
     1
102
RTVSPost2010Prop56
140
1.0
102
RTVSPost2010PropOp56
 70
     1
102
RTVSPost2010Prop57
140
1.0
102
RTVSPost2010PropOp57
 70
     1
  0
XRECORD
  5
362
102
{ACAD_REACTORS
330
361
102
}
330
361
100
AcDbXrecord
280
     1
102
RTVSPropertyOp0
 70
     1
102
RTVSPropertyOp1
 70
     1
102
RTVSPropertyOp2
 70
     1
102
RTVSPropertyOp3
 70
     1
102
RTVSPropertyOp4
 70
     1
102
RTVSPropertyOp5
 70
     1
102
RTVSPropertyOp6
 70
     1
102
RTVSPropertyOp7
 70
     1
102
RTVSPropertyOp8
 70
     1
102
RTVSPropertyOp9
 70
     1
102
RTVSPropertyOp10
 70
     1
102
RTVSPropertyOp11
 70
     1
102
RTVSPropertyOp12
 70
     1
102
RTVSPropertyOp13
 70
     1
102
RTVSPropertyOp14
 70
     1
102
RTVSPropertyOp15
 70
     1
102
RTVSPropertyOp16
 70
     1
102
RTVSPropertyOp17
 70
     1
102
RTVSPropertyOp18
 70
     1
102
RTVSPropertyOp19
 70
     1
102
RTVSPropertyOp20
 70
     1
102
RTVSPropertyOp21
 70
     1
102
RTVSPropertyOp22
 70
     1
102
RTVSPropertyOp23
 70
     1
102
RTVSPropertyOp24
 70
     1
102
RTVSPropertyOp25
 70
     1
102
RTVSPropertyOp26
 70
     1
102
RTVSPropertyOp27
 70
     1
102
RTVSPropertyOp28
 70
     1
102
RTVSPropertyOp29
 70
     1
102
RTVSPropertyOp30
 70
     1
102
RTVSPropertyOp31
 70
     1
102
RTVSPropertyOp32
 70
     1
102
RTVSPropertyOp33
 70
     1
102
RTVSPropertyOp34
 70
     1
102
RTVSPropertyOp35
 70
     1
102
RTVSPropertyOp36
 70
     1
102
RTVSPropertyOp37
 70
     1
102
RTVSPropertyOp38
 70
     1
102
RTVSPropertyOp39
 70
     1
102
RTVSPropertyOp40
 70
     1
102
RTVSPropertyOp41
 70
     1
102
RTVSPropertyOp42
 70
     1
102
RTVSPropertyOp43
 70
     1
102
RTVSPropertyOp44
 70
     1
102
RTVSPropertyOp45
 70
     1
102
RTVSPropertyOp46
 70
     1
102
RTVSPropertyOp47
 70
     1
102
RTVSPropertyOp48
 70
     1
102
RTVSPropertyOp49
 70
     1
102
RTVSPropertyOp50
 70
     1
102
RTVSPropertyOp51
 70
     0
102
RTVSPropertyOp52
 70
     0
102
RTVSPropertyOp53
 70
     1
102
RTVSPropertyOp54
 70
     1
102
RTVSPropertyOp55
 70
     1
102
RTVSPropertyOp56
 70
     1
102
RTVSPropertyOp57
 70
     1
102
RTVSPost2010Prop28
280
     0
102
RTVSPost2010PropOp28
 70
     1
102
RTVSPost2010Prop29
280
     1
102
RTVSPost2010PropOp29
 70
     1
102
RTVSPost2010Prop30
280
     1
102
RTVSPost2010PropOp30
 70
     1
102
RTVSPost2010Prop31
280
     0
102
RTVSPost2010PropOp31
 70
     1
102
RTVSPost2010Prop32
280
     0
102
RTVSPost2010PropOp32
 70
     1
102
RTVSPost2010Prop33
280
     0
102
RTVSPost2010PropOp33
 70
     1
102
RTVSPost2010Prop34
280
     0
102
RTVSPost2010PropOp34
 70
     1
102
RTVSPost2010Prop35
280
     0
102
RTVSPost2010PropOp35
 70
     1
102
RTVSPost2010Prop36
280
     0
102
RTVSPost2010PropOp36
 70
     1
102
RTVSPost2010Prop37
 90
       50
102
RTVSPost2010PropOp37
 70
     1
102
RTVSPost2010Prop38
140
0.0
102
RTVSPost2010PropOp38
 70
     1
102
RTVSPost2010Prop39
140
1.0
102
RTVSPost2010PropOp39
 70
     1
102
RTVSPost2010Prop40
 90
        0
102
RTVSPost2010PropOp40
 70
     1
102
RTVSPost2010Prop41ColorIndex
 90
       18
102
RTVSPost2010Prop41ColorRGB
 90
        0
102
RTVSPost2010PropOp41
 70
     1
102
RTVSPost2010Prop42
 90
       50
102
RTVSPost2010PropOp42
 70
     1
102
RTVSPost2010Prop43
 90
        3
102
RTVSPost2010PropOp43
 70
     1
102
RTVSPost2010Prop44ColorIndex
 90
        5
102
RTVSPost2010Prop44ColorRGB
 90
      255
102
RTVSPost2010PropOp44
 70
     1
102
RTVSPost2010Prop45
280
     0
102
RTVSPost2010PropOp45
 70
     1
102
RTVSPost2010Prop46
 90
       50
102
RTVSPost2010PropOp46
 70
     1
102
RTVSPost2010Prop47
 90
       50
102
RTVSPost2010PropOp47
 70
     1
102
RTVSPost2010Prop48
 90
       50
102
RTVSPost2010PropOp48
 70
     1
102
RTVSPost2010Prop49
280
     0
102
RTVSPost2010PropOp49
 70
     1
102
RTVSPost2010Prop50
 90
       50
102
RTVSPost2010PropOp50
 70
     1
102
RTVSPost2010Prop51ColorIndex
 90
      256
102
RTVSPost2010Prop51ColorRGB
 90
-16777216
102
RTVSPost2010PropOp51
 70
     0
102
RTVSPost2010Prop52
140
1.0
102
RTVSPost2010PropOp52
 70
     0
102
RTVSPost2010Prop53
 90
        2
102
RTVSPost2010PropOp53
 70
     1
102
RTVSPost2010Prop54
  1
strokes_ogs.tif
102
RTVSPost2010PropOp54
 70
     1
102
RTVSPost2010Prop55
280
     0
102
RTVSPost2010PropOp55
 70
     1
102
RTVSPost2010Prop56
140
1.0
102
RTVSPost2010PropOp56
 70
     1
102
RTVSPost2010Prop57
140
1.0
102
RTVSPost2010PropOp57
 70
     1
  0
XRECORD
  5
364
102
{ACAD_REACTORS
330
363
102
}
330
363
100
AcDbXrecord
280
     1
102
RTVSPropertyOp0
 70
     1
102
RTVSPropertyOp1
 70
     1
102
RTVSPropertyOp2
 70
     1
102
RTVSPropertyOp3
 70
     1
102
RTVSPropertyOp4
 70
     1
102
RTVSPropertyOp5
 70
     1
102
RTVSPropertyOp6
 70
     1
102
RTVSPropertyOp7
 70
     1
102
RTVSPropertyOp8
 70
     1
102
RTVSPropertyOp9
 70
     1
102
RTVSPropertyOp10
 70
     1
102
RTVSPropertyOp11
 70
     1
102
RTVSPropertyOp12
 70
     1
102
RTVSPropertyOp13
 70
     1
102
RTVSPropertyOp14
 70
     1
102
RTVSPropertyOp15
 70
     1
102
RTVSPropertyOp16
 70
     1
102
RTVSPropertyOp17
 70
     1
102
RTVSPropertyOp18
 70
     1
102
RTVSPropertyOp19
 70
     1
102
RTVSPropertyOp20
 70
     1
102
RTVSPropertyOp21
 70
     1
102
RTVSPropertyOp22
 70
     1
102
RTVSPropertyOp23
 70
     1
102
RTVSPropertyOp24
 70
     1
102
RTVSPropertyOp25
 70
     1
102
RTVSPropertyOp26
 70
     1
102
RTVSPropertyOp27
 70
     1
102
RTVSPropertyOp28
 70
     1
102
RTVSPropertyOp29
 70
     1
102
RTVSPropertyOp30
 70
     1
102
RTVSPropertyOp31
 70
     1
102
RTVSPropertyOp32
 70
     1
102
RTVSPropertyOp33
 70
     1
102
RTVSPropertyOp34
 70
     1
102
RTVSPropertyOp35
 70
     1
102
RTVSPropertyOp36
 70
     1
102
RTVSPropertyOp37
 70
     1
102
RTVSPropertyOp38
 70
     1
102
RTVSPropertyOp39
 70
     1
102
RTVSPropertyOp40
 70
     1
102
RTVSPropertyOp41
 70
     1
102
RTVSPropertyOp42
 70
     1
102
RTVSPropertyOp43
 70
     1
102
RTVSPropertyOp44
 70
     1
102
RTVSPropertyOp45
 70
     1
102
RTVSPropertyOp46
 70
     1
102
RTVSPropertyOp47
 70
     1
102
RTVSPropertyOp48
 70
     1
102
RTVSPropertyOp49
 70
     1
102
RTVSPropertyOp50
 70
     1
102
RTVSPropertyOp51
 70
     0
102
RTVSPropertyOp52
 70
     0
102
RTVSPropertyOp53
 70
     1
102
RTVSPropertyOp54
 70
     1
102
RTVSPropertyOp55
 70
     1
102
RTVSPropertyOp56
 70
     1
102
RTVSPropertyOp57
 70
     1
102
RTVSPost2010Prop28
280
     0
102
RTVSPost2010PropOp28
 70
     1
102
RTVSPost2010Prop29
280
     1
102
RTVSPost2010PropOp29
 70
     1
102
RTVSPost2010Prop30
280
     1
102
RTVSPost2010PropOp30
 70
     1
102
RTVSPost2010Prop31
280
     0
102
RTVSPost2010PropOp31
 70
     1
102
RTVSPost2010Prop32
280
     0
102
RTVSPost2010PropOp32
 70
     1
102
RTVSPost2010Prop33
280
     0
102
RTVSPost2010PropOp33
 70
     1
102
RTVSPost2010Prop34
280
     0
102
RTVSPost2010PropOp34
 70
     1
102
RTVSPost2010Prop35
280
     0
102
RTVSPost2010PropOp35
 70
     1
102
RTVSPost2010Prop36
280
     0
102
RTVSPost2010PropOp36
 70
     1
102
RTVSPost2010Prop37
 90
       50
102
RTVSPost2010PropOp37
 70
     1
102
RTVSPost2010Prop38
140
0.0
102
RTVSPost2010PropOp38
 70
     1
102
RTVSPost2010Prop39
140
1.0
102
RTVSPost2010PropOp39
 70
     1
102
RTVSPost2010Prop40
 90
        0
102
RTVSPost2010PropOp40
 70
     1
102
RTVSPost2010Prop41ColorIndex
 90
       18
102
RTVSPost2010Prop41ColorRGB
 90
        0
102
RTVSPost2010PropOp41
 70
     1
102
RTVSPost2010Prop42
 90
       50
102
RTVSPost2010PropOp42
 70
     1
102
RTVSPost2010Prop43
 90
        3
102
RTVSPost2010PropOp43
 70
     1
102
RTVSPost2010Prop44ColorIndex
 90
        5
102
RTVSPost2010Prop44ColorRGB
 90
      255
102
RTVSPost2010PropOp44
 70
     1
102
RTVSPost2010Prop45
280
     0
102
RTVSPost2010PropOp45
 70
     1
102
RTVSPost2010Prop46
 90
       50
102
RTVSPost2010PropOp46
 70
     1
102
RTVSPost2010Prop47
 90
       50
102
RTVSPost2010PropOp47
 70
     1
102
RTVSPost2010Prop48
 90
       50
102
RTVSPost2010PropOp48
 70
     1
102
RTVSPost2010Prop49
280
     0
102
RTVSPost2010PropOp49
 70
     1
102
RTVSPost2010Prop50
 90
       50
102
RTVSPost2010PropOp50
 70
     1
102
RTVSPost2010Prop51ColorIndex
 90
      256
102
RTVSPost2010Prop51ColorRGB
 90
-16777216
102
RTVSPost2010PropOp51
 70
     0
102
RTVSPost2010Prop52
140
1.0
102
RTVSPost2010PropOp52
 70
     0
102
RTVSPost2010Prop53
 90
        2
102
RTVSPost2010PropOp53
 70
     1
102
RTVSPost2010Prop54
  1
strokes_ogs.tif
102
RTVSPost2010PropOp54
 70
     1
102
RTVSPost2010Prop55
280
     0
102
RTVSPost2010PropOp55
 70
     1
102
RTVSPost2010Prop56
140
1.0
102
RTVSPost2010PropOp56
 70
     1
102
RTVSPost2010Prop57
140
1.0
102
RTVSPost2010PropOp57
 70
     1
  0
XRECORD
  5
354
102
{ACAD_REACTORS
330
353
102
}
330
353
100
AcDbXrecord
280
     1
102
RTVSPropertyOp0
 70
     1
102
RTVSPropertyOp1
 70
     1
102
RTVSPropertyOp2
 70
     1
102
RTVSPropertyOp3
 70
     1
102
RTVSPropertyOp4
 70
     1
102
RTVSPropertyOp5
 70
     1
102
RTVSPropertyOp6
 70
     1
102
RTVSPropertyOp7
 70
     1
102
RTVSPropertyOp8
 70
     1
102
RTVSPropertyOp9
 70
     1
102
RTVSPropertyOp10
 70
     1
102
RTVSPropertyOp11
 70
     1
102
RTVSPropertyOp12
 70
     1
102
RTVSPropertyOp13
 70
     1
102
RTVSPropertyOp14
 70
     1
102
RTVSPropertyOp15
 70
     1
102
RTVSPropertyOp16
 70
     1
102
RTVSPropertyOp17
 70
     1
102
RTVSPropertyOp18
 70
     1
102
RTVSPropertyOp19
 70
     1
102
RTVSPropertyOp20
 70
     1
102
RTVSPropertyOp21
 70
     1
102
RTVSPropertyOp22
 70
     1
102
RTVSPropertyOp23
 70
     1
102
RTVSPropertyOp24
 70
     1
102
RTVSPropertyOp25
 70
     1
102
RTVSPropertyOp26
 70
     1
102
RTVSPropertyOp27
 70
     1
102
RTVSPropertyOp28
 70
     1
102
RTVSPropertyOp29
 70
     1
102
RTVSPropertyOp30
 70
     1
102
RTVSPropertyOp31
 70
     1
102
RTVSPropertyOp32
 70
     1
102
RTVSPropertyOp33
 70
     1
102
RTVSPropertyOp34
 70
     1
102
RTVSPropertyOp35
 70
     1
102
RTVSPropertyOp36
 70
     1
102
RTVSPropertyOp37
 70
     1
102
RTVSPropertyOp38
 70
     1
102
RTVSPropertyOp39
 70
     1
102
RTVSPropertyOp40
 70
     1
102
RTVSPropertyOp41
 70
     1
102
RTVSPropertyOp42
 70
     1
102
RTVSPropertyOp43
 70
     1
102
RTVSPropertyOp44
 70
     1
102
RTVSPropertyOp45
 70
     1
102
RTVSPropertyOp46
 70
     1
102
RTVSPropertyOp47
 70
     1
102
RTVSPropertyOp48
 70
     1
102
RTVSPropertyOp49
 70
     1
102
RTVSPropertyOp50
 70
     1
102
RTVSPropertyOp51
 70
     0
102
RTVSPropertyOp52
 70
     0
102
RTVSPropertyOp53
 70
     1
102
RTVSPropertyOp54
 70
     1
102
RTVSPropertyOp55
 70
     1
102
RTVSPropertyOp56
 70
     1
102
RTVSPropertyOp57
 70
     1
102
RTVSPost2010Prop28
280
     0
102
RTVSPost2010PropOp28
 70
     1
102
RTVSPost2010Prop29
280
     1
102
RTVSPost2010PropOp29
 70
     1
102
RTVSPost2010Prop30
280
     1
102
RTVSPost2010PropOp30
 70
     1
102
RTVSPost2010Prop31
280
     0
102
RTVSPost2010PropOp31
 70
     1
102
RTVSPost2010Prop32
280
     0
102
RTVSPost2010PropOp32
 70
     1
102
RTVSPost2010Prop33
280
     0
102
RTVSPost2010PropOp33
 70
     1
102
RTVSPost2010Prop34
280
     0
102
RTVSPost2010PropOp34
 70
     1
102
RTVSPost2010Prop35
280
     0
102
RTVSPost2010PropOp35
 70
     1
102
RTVSPost2010Prop36
280
     0
102
RTVSPost2010PropOp36
 70
     1
102
RTVSPost2010Prop37
 90
       50
102
RTVSPost2010PropOp37
 70
     1
102
RTVSPost2010Prop38
140
0.0
102
RTVSPost2010PropOp38
 70
     1
102
RTVSPost2010Prop39
140
1.0
102
RTVSPost2010PropOp39
 70
     1
102
RTVSPost2010Prop40
 90
        0
102
RTVSPost2010PropOp40
 70
     1
102
RTVSPost2010Prop41ColorIndex
 90
       18
102
RTVSPost2010Prop41ColorRGB
 90
        0
102
RTVSPost2010PropOp41
 70
     1
102
RTVSPost2010Prop42
 90
       50
102
RTVSPost2010PropOp42
 70
     1
102
RTVSPost2010Prop43
 90
        3
102
RTVSPost2010PropOp43
 70
     1
102
RTVSPost2010Prop44ColorIndex
 90
        5
102
RTVSPost2010Prop44ColorRGB
 90
      255
102
RTVSPost2010PropOp44
 70
     1
102
RTVSPost2010Prop45
280
     0
102
RTVSPost2010PropOp45
 70
     1
102
RTVSPost2010Prop46
 90
       50
102
RTVSPost2010PropOp46
 70
     1
102
RTVSPost2010Prop47
 90
       50
102
RTVSPost2010PropOp47
 70
     1
102
RTVSPost2010Prop48
 90
       50
102
RTVSPost2010PropOp48
 70
     1
102
RTVSPost2010Prop49
280
     0
102
RTVSPost2010PropOp49
 70
     1
102
RTVSPost2010Prop50
 90
       50
102
RTVSPost2010PropOp50
 70
     1
102
RTVSPost2010Prop51ColorIndex
 90
      256
102
RTVSPost2010Prop51ColorRGB
 90
-16777216
102
RTVSPost2010PropOp51
 70
     0
102
RTVSPost2010Prop52
140
1.0
102
RTVSPost2010PropOp52
 70
     0
102
RTVSPost2010Prop53
 90
        2
102
RTVSPost2010PropOp53
 70
     1
102
RTVSPost2010Prop54
  1
strokes_ogs.tif
102
RTVSPost2010PropOp54
 70
     1
102
RTVSPost2010Prop55
280
     0
102
RTVSPost2010PropOp55
 70
     1
102
RTVSPost2010Prop56
140
1.0
102
RTVSPost2010PropOp56
 70
     1
102
RTVSPost2010Prop57
140
1.0
102
RTVSPost2010PropOp57
 70
     1
  0
XRECORD
  5
346
102
{ACAD_REACTORS
330
345
102
}
330
345
100
AcDbXrecord
280
     1
102
RTVSPropertyOp0
 70
     1
102
RTVSPropertyOp1
 70
     1
102
RTVSPropertyOp2
 70
     1
102
RTVSPropertyOp3
 70
     1
102
RTVSPropertyOp4
 70
     1
102
RTVSPropertyOp5
 70
     1
102
RTVSPropertyOp6
 70
     1
102
RTVSPropertyOp7
 70
     1
102
RTVSPropertyOp8
 70
     1
102
RTVSPropertyOp9
 70
     1
102
RTVSPropertyOp10
 70
     1
102
RTVSPropertyOp11
 70
     1
102
RTVSPropertyOp12
 70
     1
102
RTVSPropertyOp13
 70
     1
102
RTVSPropertyOp14
 70
     1
102
RTVSPropertyOp15
 70
     1
102
RTVSPropertyOp16
 70
     1
102
RTVSPropertyOp17
 70
     1
102
RTVSPropertyOp18
 70
     1
102
RTVSPropertyOp19
 70
     1
102
RTVSPropertyOp20
 70
     1
102
RTVSPropertyOp21
 70
     1
102
RTVSPropertyOp22
 70
     1
102
RTVSPropertyOp23
 70
     1
102
RTVSPropertyOp24
 70
     1
102
RTVSPropertyOp25
 70
     1
102
RTVSPropertyOp26
 70
     1
102
RTVSPropertyOp27
 70
     1
102
RTVSPropertyOp28
 70
     1
102
RTVSPropertyOp29
 70
     1
102
RTVSPropertyOp30
 70
     1
102
RTVSPropertyOp31
 70
     1
102
RTVSPropertyOp32
 70
     1
102
RTVSPropertyOp33
 70
     1
102
RTVSPropertyOp34
 70
     1
102
RTVSPropertyOp35
 70
     1
102
RTVSPropertyOp36
 70
     1
102
RTVSPropertyOp37
 70
     1
102
RTVSPropertyOp38
 70
     1
102
RTVSPropertyOp39
 70
     1
102
RTVSPropertyOp40
 70
     1
102
RTVSPropertyOp41
 70
     1
102
RTVSPropertyOp42
 70
     1
102
RTVSPropertyOp43
 70
     1
102
RTVSPropertyOp44
 70
     1
102
RTVSPropertyOp45
 70
     1
102
RTVSPropertyOp46
 70
     1
102
RTVSPropertyOp47
 70
     1
102
RTVSPropertyOp48
 70
     1
102
RTVSPropertyOp49
 70
     1
102
RTVSPropertyOp50
 70
     1
102
RTVSPropertyOp51
 70
     0
102
RTVSPropertyOp52
 70
     0
102
RTVSPropertyOp53
 70
     1
102
RTVSPropertyOp54
 70
     1
102
RTVSPropertyOp55
 70
     1
102
RTVSPropertyOp56
 70
     1
102
RTVSPropertyOp57
 70
     1
102
RTVSPost2010Prop28
280
     0
102
RTVSPost2010PropOp28
 70
     1
102
RTVSPost2010Prop29
280
     1
102
RTVSPost2010PropOp29
 70
     1
102
RTVSPost2010Prop30
280
     1
102
RTVSPost2010PropOp30
 70
     1
102
RTVSPost2010Prop31
280
     0
102
RTVSPost2010PropOp31
 70
     1
102
RTVSPost2010Prop32
280
     0
102
RTVSPost2010PropOp32
 70
     1
102
RTVSPost2010Prop33
280
     0
102
RTVSPost2010PropOp33
 70
     1
102
RTVSPost2010Prop34
280
     0
102
RTVSPost2010PropOp34
 70
     1
102
RTVSPost2010Prop35
280
     0
102
RTVSPost2010PropOp35
 70
     1
102
RTVSPost2010Prop36
280
     0
102
RTVSPost2010PropOp36
 70
     1
102
RTVSPost2010Prop37
 90
       50
102
RTVSPost2010PropOp37
 70
     1
102
RTVSPost2010Prop38
140
0.0
102
RTVSPost2010PropOp38
 70
     1
102
RTVSPost2010Prop39
140
1.0
102
RTVSPost2010PropOp39
 70
     1
102
RTVSPost2010Prop40
 90
        0
102
RTVSPost2010PropOp40
 70
     1
102
RTVSPost2010Prop41ColorIndex
 90
       18
102
RTVSPost2010Prop41ColorRGB
 90
        0
102
RTVSPost2010PropOp41
 70
     1
102
RTVSPost2010Prop42
 90
       50
102
RTVSPost2010PropOp42
 70
     1
102
RTVSPost2010Prop43
 90
        3
102
RTVSPost2010PropOp43
 70
     1
102
RTVSPost2010Prop44ColorIndex
 90
        5
102
RTVSPost2010Prop44ColorRGB
 90
      255
102
RTVSPost2010PropOp44
 70
     1
102
RTVSPost2010Prop45
280
     0
102
RTVSPost2010PropOp45
 70
     1
102
RTVSPost2010Prop46
 90
       50
102
RTVSPost2010PropOp46
 70
     1
102
RTVSPost2010Prop47
 90
       50
102
RTVSPost2010PropOp47
 70
     1
102
RTVSPost2010Prop48
 90
       50
102
RTVSPost2010PropOp48
 70
     1
102
RTVSPost2010Prop49
280
     0
102
RTVSPost2010PropOp49
 70
     1
102
RTVSPost2010Prop50
 90
       50
102
RTVSPost2010PropOp50
 70
     1
102
RTVSPost2010Prop51ColorIndex
 90
      256
102
RTVSPost2010Prop51ColorRGB
 90
-16777216
102
RTVSPost2010PropOp51
 70
     0
102
RTVSPost2010Prop52
140
1.0
102
RTVSPost2010PropOp52
 70
     0
102
RTVSPost2010Prop53
 90
        2
102
RTVSPost2010PropOp53
 70
     1
102
RTVSPost2010Prop54
  1
strokes_ogs.tif
102
RTVSPost2010PropOp54
 70
     1
102
RTVSPost2010Prop55
280
     0
102
RTVSPost2010PropOp55
 70
     1
102
RTVSPost2010Prop56
140
1.0
102
RTVSPost2010PropOp56
 70
     1
102
RTVSPost2010Prop57
140
1.0
102
RTVSPost2010PropOp57
 70
     1
  0
XRECORD
  5
366
102
{ACAD_REACTORS
330
365
102
}
330
365
100
AcDbXrecord
280
     1
102
RTVSPropertyOp0
 70
     1
102
RTVSPropertyOp1
 70
     1
102
RTVSPropertyOp2
 70
     1
102
RTVSPropertyOp3
 70
     1
102
RTVSPropertyOp4
 70
     1
102
RTVSPropertyOp5
 70
     1
102
RTVSPropertyOp6
 70
     1
102
RTVSPropertyOp7
 70
     1
102
RTVSPropertyOp8
 70
     1
102
RTVSPropertyOp9
 70
     1
102
RTVSPropertyOp10
 70
     1
102
RTVSPropertyOp11
 70
     1
102
RTVSPropertyOp12
 70
     1
102
RTVSPropertyOp13
 70
     1
102
RTVSPropertyOp14
 70
     1
102
RTVSPropertyOp15
 70
     1
102
RTVSPropertyOp16
 70
     1
102
RTVSPropertyOp17
 70
     1
102
RTVSPropertyOp18
 70
     1
102
RTVSPropertyOp19
 70
     1
102
RTVSPropertyOp20
 70
     1
102
RTVSPropertyOp21
 70
     1
102
RTVSPropertyOp22
 70
     1
102
RTVSPropertyOp23
 70
     1
102
RTVSPropertyOp24
 70
     1
102
RTVSPropertyOp25
 70
     1
102
RTVSPropertyOp26
 70
     1
102
RTVSPropertyOp27
 70
     1
102
RTVSPropertyOp28
 70
     1
102
RTVSPropertyOp29
 70
     1
102
RTVSPropertyOp30
 70
     1
102
RTVSPropertyOp31
 70
     1
102
RTVSPropertyOp32
 70
     1
102
RTVSPropertyOp33
 70
     1
102
RTVSPropertyOp34
 70
     1
102
RTVSPropertyOp35
 70
     1
102
RTVSPropertyOp36
 70
     1
102
RTVSPropertyOp37
 70
     1
102
RTVSPropertyOp38
 70
     1
102
RTVSPropertyOp39
 70
     1
102
RTVSPropertyOp40
 70
     1
102
RTVSPropertyOp41
 70
     1
102
RTVSPropertyOp42
 70
     1
102
RTVSPropertyOp43
 70
     1
102
RTVSPropertyOp44
 70
     1
102
RTVSPropertyOp45
 70
     1
102
RTVSPropertyOp46
 70
     1
102
RTVSPropertyOp47
 70
     1
102
RTVSPropertyOp48
 70
     1
102
RTVSPropertyOp49
 70
     1
102
RTVSPropertyOp50
 70
     1
102
RTVSPropertyOp51
 70
     0
102
RTVSPropertyOp52
 70
     0
102
RTVSPropertyOp53
 70
     1
102
RTVSPropertyOp54
 70
     1
102
RTVSPropertyOp55
 70
     1
102
RTVSPropertyOp56
 70
     1
102
RTVSPropertyOp57
 70
     1
102
RTVSPost2010Prop28
280
     0
102
RTVSPost2010PropOp28
 70
     1
102
RTVSPost2010Prop29
280
     1
102
RTVSPost2010PropOp29
 70
     1
102
RTVSPost2010Prop30
280
     1
102
RTVSPost2010PropOp30
 70
     1
102
RTVSPost2010Prop31
280
     0
102
RTVSPost2010PropOp31
 70
     1
102
RTVSPost2010Prop32
280
     0
102
RTVSPost2010PropOp32
 70
     1
102
RTVSPost2010Prop33
280
     0
102
RTVSPost2010PropOp33
 70
     1
102
RTVSPost2010Prop34
280
     0
102
RTVSPost2010PropOp34
 70
     1
102
RTVSPost2010Prop35
280
     0
102
RTVSPost2010PropOp35
 70
     1
102
RTVSPost2010Prop36
280
     0
102
RTVSPost2010PropOp36
 70
     1
102
RTVSPost2010Prop37
 90
       50
102
RTVSPost2010PropOp37
 70
     1
102
RTVSPost2010Prop38
140
0.0
102
RTVSPost2010PropOp38
 70
     1
102
RTVSPost2010Prop39
140
1.0
102
RTVSPost2010PropOp39
 70
     1
102
RTVSPost2010Prop40
 90
        0
102
RTVSPost2010PropOp40
 70
     1
102
RTVSPost2010Prop41ColorIndex
 90
       18
102
RTVSPost2010Prop41ColorRGB
 90
        0
102
RTVSPost2010PropOp41
 70
     1
102
RTVSPost2010Prop42
 90
       50
102
RTVSPost2010PropOp42
 70
     1
102
RTVSPost2010Prop43
 90
        3
102
RTVSPost2010PropOp43
 70
     1
102
RTVSPost2010Prop44ColorIndex
 90
        5
102
RTVSPost2010Prop44ColorRGB
 90
      255
102
RTVSPost2010PropOp44
 70
     1
102
RTVSPost2010Prop45
280
     0
102
RTVSPost2010PropOp45
 70
     1
102
RTVSPost2010Prop46
 90
       50
102
RTVSPost2010PropOp46
 70
     1
102
RTVSPost2010Prop47
 90
       50
102
RTVSPost2010PropOp47
 70
     1
102
RTVSPost2010Prop48
 90
       50
102
RTVSPost2010PropOp48
 70
     1
102
RTVSPost2010Prop49
280
     0
102
RTVSPost2010PropOp49
 70
     1
102
RTVSPost2010Prop50
 90
       50
102
RTVSPost2010PropOp50
 70
     1
102
RTVSPost2010Prop51ColorIndex
 90
      256
102
RTVSPost2010Prop51ColorRGB
 90
-16777216
102
RTVSPost2010PropOp51
 70
     0
102
RTVSPost2010Prop52
140
1.0
102
RTVSPost2010PropOp52
 70
     0
102
RTVSPost2010Prop53
 90
        2
102
RTVSPost2010PropOp53
 70
     1
102
RTVSPost2010Prop54
  1
strokes_ogs.tif
102
RTVSPost2010PropOp54
 70
     1
102
RTVSPost2010Prop55
280
     0
102
RTVSPost2010PropOp55
 70
     1
102
RTVSPost2010Prop56
140
1.0
102
RTVSPost2010PropOp56
 70
     1
102
RTVSPost2010Prop57
140
1.0
102
RTVSPost2010PropOp57
 70
     1
  0
ENDSEC
  0
EOF
