  0
SECTION
  2
HEADER
  9
$ACADVER
  1
AC1021
  9
$ACADMAINTVER
 70
    25
  9
$DWGCODEPAGE
  3
ANSI_1252
  9
$INSBASE
 10
0.0
 20
0.0
 30
0.0
  9
$EXTMIN
 10
0.0
 20
0.0
 30
0.0
  9
$EXTMAX
 10
210.0
 20
297.0
 30
0.0
  9
$LIMMIN
 10
0.0
 20
0.0
  9
$LIMMAX
 10
210.0
 20
297.0
  9
$ORTHOMODE
 70
     0
  9
$REGENMODE
 70
     1
  9
$FILLMODE
 70
     1
  9
$QTEXTMODE
 70
     0
  9
$MIRRTEXT
 70
     1
  9
$LTSCALE
 40
1.0
  9
$ATTMODE
 70
     1
  9
$TEXTSIZE
 40
2.2
  9
$TRACEWID
 40
1.0
  9
$TEXTSTYLE
  7
Standard
  9
$CLAYER
  8
0
  9
$CELTYPE
  6
ByLayer
  9
$CECOLOR
 62
   256
  9
$CELTSCALE
 40
1.0
  9
$DISPSILH
 70
     0
  9
$DIMSCALE
 40
1.0
  9
$DIMASZ
 40
2.5
  9
$DIMEXO
 40
0.625
  9
$DIMDLI
 40
3.75
  9
$DIMRND
 40
0.0
  9
$DIMDLE
 40
0.0
  9
$DIMEXE
 40
1.25
  9
$DIMTP
 40
0.0
  9
$DIMTM
 40
0.0
  9
$DIMTXT
 40
2.5
  9
$DIMCEN
 40
2.5
  9
$DIMTSZ
 40
0.0
  9
$DIMTOL
 70
     0
  9
$DIMLIM
 70
     0
  9
$DIMTIH
 70
     0
  9
$DIMTOH
 70
     0
  9
$DIMSE1
 70
     0
  9
$DIMSE2
 70
     0
  9
$DIMTAD
 70
     1
  9
$DIMZIN
 70
     8
  9
$DIMBLK
  1

  9
$DIMASO
 70
     1
  9
$DIMSHO
 70
     1
  9
$DIMPOST
  1

  9
$DIMAPOST
  1

  9
$DIMALT
 70
     0
  9
$DIMALTD
 70
     3
  9
$DIMALTF
 40
0.0393700787
  9
$DIMLFAC
 40
1.0
  9
$DIMTOFL
 70
     1
  9
$DIMTVP
 40
0.0
  9
$DIMTIX
 70
     0
  9
$DIMSOXD
 70
     0
  9
$DIMSAH
 70
     0
  9
$DIMBLK1
  1

  9
$DIMBLK2
  1

  9
$DIMSTYLE
  2
ISO-25
  9
$DIMCLRD
 70
     0
  9
$DIMCLRE
 70
     0
  9
$DIMCLRT
 70
     0
  9
$DIMTFAC
 40
1.0
  9
$DIMGAP
 40
0.625
  9
$DIMJUST
 70
     0
  9
$DIMSD1
 70
     0
  9
$DIMSD2
 70
     0
  9
$DIMTOLJ
 70
     0
  9
$DIMTZIN
 70
     8
  9
$DIMALTZ
 70
     0
  9
$DIMALTTZ
 70
     0
  9
$DIMUPT
 70
     0
  9
$DIMDEC
 70
     2
  9
$DIMTDEC
 70
     2
  9
$DIMALTU
 70
     2
  9
$DIMALTTD
 70
     3
  9
$DIMTXSTY
  7
Standard
  9
$DIMAUNIT
 70
     0
  9
$DIMADEC
 70
     0
  9
$DIMALTRND
 40
0.0
  9
$DIMAZIN
 70
     0
  9
$DIMDSEP
 70
    44
  9
$DIMATFIT
 70
     3
  9
$DIMFRAC
 70
     0
  9
$DIMLDRBLK
  1

  9
$DIMLUNIT
 70
     2
  9
$DIMLWD
 70
    -2
  9
$DIMLWE
 70
    -2
  9
$DIMTMOVE
 70
     0
  9
$DIMFXL
 40
1.0
  9
$DIMFXLON
 70
     0
  9
$DIMJOGANG
 40
0.7853981634
  9
$DIMTFILL
 70
     0
  9
$DIMTFILLCLR
 70
     0
  9
$DIMARCSYM
 70
     0
  9
$DIMLTYPE
  6

  9
$DIMLTEX1
  6

  9
$DIMLTEX2
  6

  9
$LUNITS
 70
     2
  9
$LUPREC
 70
     4
  9
$SKETCHINC
 40
1.0
  9
$FILLETRAD
 40
10.0
  9
$AUNITS
 70
     0
  9
$AUPREC
 70
     0
  9
$MENU
  1
.
  9
$ELEVATION
 40
0.0
  9
$PELEVATION
 40
0.0
  9
$THICKNESS
 40
0.0
  9
$LIMCHECK
 70
     0
  9
$CHAMFERA
 40
0.0
  9
$CHAMFERB
 40
0.0
  9
$CHAMFERC
 40
0.0
  9
$CHAMFERD
 40
0.0
  9
$SKPOLY
 70
     0
  9
$TDCREATE
 40
2460276.466595116
  9
$TDUCREATE
 40
2460276.424928449
  9
$TDUPDATE
 40
2460276.466619352
  9
$TDUUPDATE
 40
2460276.424952685
  9
$TDINDWG
 40
0.0000000116
  9
$TDUSRTIMER
 40
0.0000000116
  9
$USRTIMER
 70
     1
  9
$ANGBASE
 50
0.0
  9
$ANGDIR
 70
     0
  9
$PDMODE
 70
     0
  9
$PDSIZE
 40
0.0
  9
$PLINEWID
 40
0.0
  9
$SPLFRAME
 70
     0
  9
$SPLINETYPE
 70
     6
  9
$SPLINESEGS
 70
     8
  9
$HANDSEED
  5
2C6
  9
$SURFTAB1
 70
     6
  9
$SURFTAB2
 70
     6
  9
$SURFTYPE
 70
     6
  9
$SURFU
 70
     6
  9
$SURFV
 70
     6
  9
$UCSBASE
  2

  9
$UCSNAME
  2

  9
$UCSORG
 10
0.0
 20
0.0
 30
0.0
  9
$UCSXDIR
 10
1.0
 20
0.0
 30
0.0
  9
$UCSYDIR
 10
0.0
 20
1.0
 30
0.0
  9
$UCSORTHOREF
  2

  9
$UCSORTHOVIEW
 70
     0
  9
$UCSORGTOP
 10
0.0
 20
0.0
 30
0.0
  9
$UCSORGBOTTOM
 10
0.0
 20
0.0
 30
0.0
  9
$UCSORGLEFT
 10
0.0
 20
0.0
 30
0.0
  9
$UCSORGRIGHT
 10
0.0
 20
0.0
 30
0.0
  9
$UCSORGFRONT
 10
0.0
 20
0.0
 30
0.0
  9
$UCSORGBACK
 10
0.0
 20
0.0
 30
0.0
  9
$PUCSBASE
  2

  9
$PUCSNAME
  2

  9
$PUCSORG
 10
0.0
 20
0.0
 30
0.0
  9
$PUCSXDIR
 10
1.0
 20
0.0
 30
0.0
  9
$PUCSYDIR
 10
0.0
 20
1.0
 30
0.0
  9
$PUCSORTHOREF
  2

  9
$PUCSORTHOVIEW
 70
     0
  9
$PUCSORGTOP
 10
0.0
 20
0.0
 30
0.0
  9
$PUCSORGBOTTOM
 10
0.0
 20
0.0
 30
0.0
  9
$PUCSORGLEFT
 10
0.0
 20
0.0
 30
0.0
  9
$PUCSORGRIGHT
 10
0.0
 20
0.0
 30
0.0
  9
$PUCSORGFRONT
 10
0.0
 20
0.0
 30
0.0
  9
$PUCSORGBACK
 10
0.0
 20
0.0
 30
0.0
  9
$USERI1
 70
     0
  9
$USERI2
 70
     0
  9
$USERI3
 70
     0
  9
$USERI4
 70
     0
  9
$USERI5
 70
     0
  9
$USERR1
 40
0.0
  9
$USERR2
 40
0.0
  9
$USERR3
 40
0.0
  9
$USERR4
 40
0.0
  9
$USERR5
 40
0.0
  9
$WORLDVIEW
 70
     1
  9
$SHADEDGE
 70
     3
  9
$SHADEDIF
 70
    70
  9
$TILEMODE
 70
     1
  9
$MAXACTVP
 70
    64
  9
$PINSBASE
 10
0.0
 20
0.0
 30
0.0
  9
$PLIMCHECK
 70
     0
  9
$PEXTMIN
 10
0.0
 20
0.0
 30
0.0
  9
$PEXTMAX
 10
210.0
 20
297.0
 30
0.0
  9
$PLIMMIN
 10
0.0
 20
0.0
  9
$PLIMMAX
 10
210.0
 20
297.0
  9
$UNITMODE
 70
     0
  9
$VISRETAIN
 70
     1
  9
$PLINEGEN
 70
     0
  9
$PSLTSCALE
 70
     1
  9
$TREEDEPTH
 70
  3020
  9
$CMLSTYLE
  2
Standard
  9
$CMLJUST
 70
     0
  9
$CMLSCALE
 40
20.0
  9
$PROXYGRAPHICS
 70
     1
  9
$MEASUREMENT
 70
     1
  9
$CELWEIGHT
370
    -1
  9
$ENDCAPS
280
     0
  9
$JOINSTYLE
280
     0
  9
$LWDISPLAY
290
     0
  9
$INSUNITS
 70
     4
  9
$HYPERLINKBASE
  1

  9
$STYLESHEET
  1

  9
$XEDIT
290
     1
  9
$CEPSNTYPE
380
     0
  9
$PSTYLEMODE
290
     1
  9
$FINGERPRINTGUID
  2
{3a776990-17cd-4a31-88f0-51fdbe6df7d9}
  9
$VERSIONGUID
  2
{FAEB1C32-E019-11D5-929B-00C0DF256EC4}
  9
$EXTNAMES
290
     1
  9
$PSVPSCALE
 40
0.0
  9
$OLESTARTUP
290
     0
  9
$SORTENTS
280
   127
  9
$INDEXCTL
280
     0
  9
$HIDETEXT
280
     1
  9
$XCLIPFRAME
290
     0
  9
$HALOGAP
280
     0
  9
$OBSCOLOR
 70
   257
  9
$OBSLTYPE
280
     0
  9
$INTERSECTIONDISPLAY
280
     0
  9
$INTERSECTIONCOLOR
 70
   257
  9
$DIMASSOC
280
     2
  9
$PROJECTNAME
  1

  9
$CAMERADISPLAY
290
     0
  9
$LENSLENGTH
 40
50.0
  9
$CAMERAHEIGHT
 40
0.0
  9
$STEPSPERSEC
 40
2.0
  9
$STEPSIZE
 40
6.0
  9
$3DDWFPREC
 40
2.0
  9
$PSOLWIDTH
 40
5.0
  9
$PSOLHEIGHT
 40
80.0
  9
$LOFTANG1
 40
1.5707963268
  9
$LOFTANG2
 40
1.5707963268
  9
$LOFTMAG1
 40
0.0
  9
$LOFTMAG2
 40
0.0
  9
$LOFTPARAM
 70
     7
  9
$LOFTNORMALS
280
     1
  9
$LATITUDE
 40
37.795
  9
$LONGITUDE
 40
-122.394
  9
$NORTHDIRECTION
 40
0.0
  9
$TIMEZONE
 70
 -8000
  9
$LIGHTGLYPHDISPLAY
280
     1
  9
$TILEMODELIGHTSYNCH
280
     1
  9
$CMATERIAL
347
44
  9
$SOLIDHIST
280
     0
  9
$SHOWHIST
280
     1
  9
$DWFFRAME
280
     2
  9
$DGNFRAME
280
     2
  9
$REALWORLDSCALE
290
     1
  9
$INTERFERECOLOR
 62
   256
  9
$CSHADOW
280
     0
  9
$SHADOWPLANELOCATION
 40
0.0
  0
ENDSEC
  0
SECTION
  2
CLASSES
  0
CLASS
  1
ACDBDICTIONARYWDFLT
  2
AcDbDictionaryWithDefault
  3
ObjectDBX Classes
 90
        0
 91
        3
280
     0
281
     0
  0
CLASS
  1
VISUALSTYLE
  2
AcDbVisualStyle
  3
ObjectDBX Classes
 90
     4095
 91
        3
280
     0
281
     0
  0
CLASS
  1
MATERIAL
  2
AcDbMaterial
  3
ObjectDBX Classes
 90
     1153
 91
        3
280
     0
281
     0
  0
CLASS
  1
SCALE
  2
AcDbScale
  3
ObjectDBX Classes
 90
     1153
 91
        3
280
     0
281
     0
  0
CLASS
  1
TABLESTYLE
  2
AcDbTableStyle
  3
ObjectDBX Classes
 90
     4095
 91
        3
280
     0
281
     0
  0
CLASS
  1
MLEADERSTYLE
  2
AcDbMLeaderStyle
  3
ACDB_MLEADERSTYLE_CLASS
 90
     4095
 91
        3
280
     0
281
     0
  0
CLASS
  1
SUN
  2
AcDbSun
  3
SCENEOE
 90
     1153
 91
        3
280
     0
281
     0
  0
CLASS
  1
MULTILEADER
  2
AcDbMLeader
  3
ACDB_MLEADER_CLASS
 90
     1025
 91
        3
280
     0
281
     1
  0
CLASS
  1
RASTERVARIABLES
  2
AcDbRasterVariables
  3
ISM
 90
        0
 91
        3
280
     0
281
     0
  0
CLASS
  1
IMAGEDEF
  2
AcDbRasterImageDef
  3
ISM
 90
        0
 91
        3
280
     0
281
     0
  0
CLASS
  1
IMAGE
  2
AcDbRasterImage
  3
ISM
 90
      127
 91
        4
280
     0
281
     1
  0
CLASS
  1
IMAGEDEF_REACTOR
  2
AcDbRasterImageDefReactor
  3
ISM
 90
        1
 91
        3
280
     0
281
     0
  0
CLASS
  1
DICTIONARYVAR
  2
AcDbDictionaryVar
  3
ObjectDBX Classes
 90
        0
 91
        3
280
     0
281
     0
  0
CLASS
  1
CELLSTYLEMAP
  2
AcDbCellStyleMap
  3
ObjectDBX Classes
 90
     1152
 91
        3
280
     0
281
     0
  0
ENDSEC
  0
SECTION
  2
TABLES
  0
TABLE
  2
VPORT
  5
8
330
0
100
AcDbSymbolTable
 70
     1
  0
VPORT
  5
29
330
8
100
AcDbSymbolTableRecord
100
AcDbViewportTableRecord
  2
*Active
 70
     0
 10
0.0
 20
0.0
 11
1.0
 21
1.0
 12
344.1869158879
 22
148.5
 13
0.0
 23
0.0
 14
10.0
 24
10.0
 15
10.0
 25
10.0
 16
0.0
 26
0.0
 36
1.0
 17
0.0
 27
0.0
 37
0.0
 40
297.0
 41
1.9729729729
 42
50.0
 43
0.0
 44
0.0
 50
0.0
 51
0.0
 71
     0
 72
   100
 73
     1
 74
     3
 75
     0
 76
     0
 77
     0
 78
     0
281
     0
 65
     1
110
0.0
120
0.0
130
0.0
111
1.0
121
0.0
131
0.0
112
0.0
122
1.0
132
0.0
 79
     0
146
0.0
348
2F
 60
     3
 61
     5
292
     1
282
     1
141
0.0
142
0.0
 63
   250
361
6D
  0
ENDTAB
  0
TABLE
  2
LTYPE
  5
5
330
0
100
AcDbSymbolTable
 70
     1
  0
LTYPE
  5
14
330
5
100
AcDbSymbolTableRecord
100
AcDbLinetypeTableRecord
  2
ByBlock
 70
     0
  3

 72
    65
 73
     0
 40
0.0
  0
LTYPE
  5
15
330
5
100
AcDbSymbolTableRecord
100
AcDbLinetypeTableRecord
  2
ByLayer
 70
     0
  3

 72
    65
 73
     0
 40
0.0
  0
LTYPE
  5
16
330
5
100
AcDbSymbolTableRecord
100
AcDbLinetypeTableRecord
  2
Continuous
 70
     0
  3
Solid line
 72
    65
 73
     0
 40
0.0
  0
ENDTAB
  0
TABLE
  2
LAYER
  5
2
330
0
100
AcDbSymbolTable
 70
    14
  0
LAYER
  5
10
330
2
100
AcDbSymbolTableRecord
100
AcDbLayerTableRecord
  2
0
 70
     0
 62
     7
  6
Continuous
370
    -3
390
F
347
46
  0
LAYER
  5
6E
330
2
100
AcDbSymbolTableRecord
100
AcDbLayerTableRecord
  2
Standard
 70
     0
 62
     7
  6
Continuous
370
    -3
390
F
347
46
  0
LAYER
  5
71
330
2
100
AcDbSymbolTableRecord
100
AcDbLayerTableRecord
  2
DV1_Füllung
 70
     1
 62
    -7
  6
Continuous
370
    -3
390
F
347
46
  0
LAYER
  5
7F
330
2
100
AcDbSymbolTableRecord
100
AcDbLayerTableRecord
  2
11379_AUSSENPROF
 70
     0
 62
     7
  6
Continuous
370
    -3
390
F
347
46
  0
LAYER
  5
99
330
2
100
AcDbSymbolTableRecord
100
AcDbLayerTableRecord
  2
19337_BEFESTIGUN
 70
     0
 62
     7
  6
Continuous
370
    -3
390
F
347
46
  0
LAYER
  5
A8
330
2
100
AcDbSymbolTableRecord
100
AcDbLayerTableRecord
  2
50555__ABC_SPAX_S
 70
     0
 62
     7
  6
Continuous
370
    -3
390
F
347
46
  0
LAYER
  5
BA
330
2
100
AcDbSymbolTableRecord
100
AcDbLayerTableRecord
  2
11334_INNENPROFI
 70
     0
 62
     7
  6
Continuous
370
    -3
390
F
347
46
  0
LAYER
  5
EF
330
2
100
AcDbSymbolTableRecord
100
AcDbLayerTableRecord
  2
11319_AUSSENPROF
 70
     0
 62
     7
  6
Continuous
370
    -3
390
F
347
46
  0
LAYER
  5
106
330
2
100
AcDbSymbolTableRecord
100
AcDbLayerTableRecord
  2
27508__DICHTPROFI
 70
     0
 62
     7
  6
Continuous
370
    -3
390
F
347
46
  0
LAYER
  5
133
330
2
100
AcDbSymbolTableRecord
100
AcDbLayerTableRecord
  2
29599__GLASWAND_8
 70
     0
 62
     7
  6
Continuous
370
    -3
390
F
347
46
  0
LAYER
  5
13B
330
2
100
AcDbSymbolTableRecord
100
AcDbLayerTableRecord
  2
10472_AUSLÖSERKN
 70
     0
 62
     7
  6
Continuous
370
    -3
390
F
347
46
  0
LAYER
  5
175
330
2
100
AcDbSymbolTableRecord
100
AcDbLayerTableRecord
  2
DV2_Füllung
 70
     1
 62
    -7
  6
Continuous
370
    -3
390
F
347
46
  0
LAYER
  5
25E
330
2
100
AcDbSymbolTableRecord
100
AcDbLayerTableRecord
  2
Default
 70
     0
 62
     7
  6
Continuous
370
    -3
390
F
347
46
  0
LAYER
  5
27C
330
2
100
AcDbSymbolTableRecord
100
AcDbLayerTableRecord
  2
Skizziergeometrie(DIN)
 70
     0
 62
     7
  6
Continuous
370
    -3
390
F
347
46
  0
ENDTAB
  0
TABLE
  2
STYLE
  5
3
330
0
100
AcDbSymbolTable
 70
     2
  0
STYLE
  5
11
330
3
100
AcDbSymbolTableRecord
100
AcDbTextStyleTableRecord
  2
Standard
 70
     0
 40
0.0
 41
1.0
 50
0.0
 71
     0
 42
2.2
  3
txt
  4

  0
STYLE
  5
170
330
3
100
AcDbSymbolTableRecord
100
AcDbTextStyleTableRecord
  2
SEACAD_Arial
 70
     0
 40
0.0
 41
1.0
 50
0.0
 71
     0
 42
2.5
  3

  4

1001
ACAD
1000
Arial
1071
        0
  0
ENDTAB
  0
TABLE
  2
VIEW
  5
6
330
0
100
AcDbSymbolTable
 70
     0
  0
ENDTAB
  0
TABLE
  2
UCS
  5
7
330
0
100
AcDbSymbolTable
 70
     0
  0
ENDTAB
  0
TABLE
  2
APPID
  5
9
330
0
100
AcDbSymbolTable
 70
     2
  0
APPID
  5
12
330
9
100
AcDbSymbolTableRecord
100
AcDbRegAppTableRecord
  2
ACAD
 70
     0
  0
APPID
  5
287
330
9
100
AcDbSymbolTableRecord
100
AcDbRegAppTableRecord
  2
ACAD_MLEADERVER
 70
     0
  0
ENDTAB
  0
TABLE
  2
DIMSTYLE
  5
A
330
0
100
AcDbSymbolTable
 70
     3
100
AcDbDimStyleTable
  0
DIMSTYLE
105
27
330
A
100
AcDbSymbolTableRecord
100
AcDbDimStyleTableRecord
  2
ISO-25
 70
     0
 41
2.5
 42
0.625
 43
3.75
 44
1.25
 73
     0
 74
     0
 77
     1
 78
     8
140
2.5
141
2.5
143
0.0393700787
147
0.625
171
     3
172
     1
178
     0
271
     2
272
     2
274
     3
278
    44
283
     0
284
     8
340
11
  0
DIMSTYLE
105
160
330
A
100
AcDbSymbolTableRecord
100
AcDbDimStyleTableRecord
  2
Standard
 70
     0
178
     0
340
11
  0
DIMSTYLE
105
171
102
{ACAD_REACTORS
330
172
330
25C
330
25D
102
}
330
A
100
AcDbSymbolTableRecord
100
AcDbDimStyleTableRecord
  2
E-Katalog
 70
     0
 41
3.75
 42
0.75
 44
1.25
 73
     0
 74
     0
 77
     1
 78
     8
140
2.5
141
1.25
143
0.0393700787
146
0.7
147
0.625
172
     1
173
     1
178
     0
271
     2
272
     3
278
    44
283
     0
284
     8
340
170
343
16A
344
16A
  0
ENDTAB
  0
TABLE
  2
BLOCK_RECORD
  5
1
330
0
100
AcDbSymbolTable
 70
    15
  0
BLOCK_RECORD
  5
1F
330
1
100
AcDbSymbolTableRecord
100
AcDbBlockTableRecord
  2
*Model_Space
340
22
 70
     0
280
     1
281
     0
  0
BLOCK_RECORD
  5
1B
330
1
100
AcDbSymbolTableRecord
100
AcDbBlockTableRecord
  2
*Paper_Space
340
1E
 70
     0
280
     1
281
     0
  0
BLOCK_RECORD
  5
6F
330
1
100
AcDbSymbolTableRecord
100
AcDbBlockTableRecord
  2
SE
340
0
102
{BLKREFS
331
70
102
}
 70
     0
280
     1
281
     0
  0
BLOCK_RECORD
  5
14F
330
1
100
AcDbSymbolTableRecord
100
AcDbBlockTableRecord
  2
SE1
340
0
102
{BLKREFS
331
150
102
}
 70
     0
280
     1
281
     0
  0
BLOCK_RECORD
  5
151
330
1
100
AcDbSymbolTableRecord
100
AcDbBlockTableRecord
  2
SE2
340
0
102
{BLKREFS
331
152
102
}
 70
     0
280
     1
281
     0
  0
BLOCK_RECORD
  5
153
330
1
100
AcDbSymbolTableRecord
100
AcDbBlockTableRecord
  2
SE3
340
0
102
{BLKREFS
331
154
102
}
 70
     0
280
     1
281
     0
  0
BLOCK_RECORD
  5
155
330
1
100
AcDbSymbolTableRecord
100
AcDbBlockTableRecord
  2
SE4
340
0
102
{BLKREFS
331
156
102
}
 70
     0
280
     1
281
     0
  0
BLOCK_RECORD
  5
161
330
1
100
AcDbSymbolTableRecord
100
AcDbBlockTableRecord
  2
_Oblique
340
0
 70
     0
280
     1
281
     0
  0
BLOCK_RECORD
  5
165
330
1
100
AcDbSymbolTableRecord
100
AcDbBlockTableRecord
  2
_Dot
340
0
 70
     0
280
     1
281
     0
  0
BLOCK_RECORD
  5
16A
330
1
100
AcDbSymbolTableRecord
100
AcDbBlockTableRecord
  2
_SE_OPEN
340
0
 70
     0
280
     1
281
     0
  0
BLOCK_RECORD
  5
173
330
1
100
AcDbSymbolTableRecord
100
AcDbBlockTableRecord
  2
SE5
340
0
102
{BLKREFS
331
174
102
}
 70
     0
280
     1
281
     0
  0
BLOCK_RECORD
  5
24B
330
1
100
AcDbSymbolTableRecord
100
AcDbBlockTableRecord
  2
SE6
340
0
102
{BLKREFS
331
24C
102
}
 70
     0
280
     1
281
     0
  0
BLOCK_RECORD
  5
24D
330
1
100
AcDbSymbolTableRecord
100
AcDbBlockTableRecord
  2
SE7
340
0
102
{BLKREFS
331
24E
102
}
 70
     0
280
     1
281
     0
  0
BLOCK_RECORD
  5
24F
330
1
100
AcDbSymbolTableRecord
100
AcDbBlockTableRecord
  2
SE8
340
0
102
{BLKREFS
331
250
102
}
 70
     0
280
     1
281
     0
  0
BLOCK_RECORD
  5
251
330
1
100
AcDbSymbolTableRecord
100
AcDbBlockTableRecord
  2
SE9
340
0
102
{BLKREFS
331
252
102
}
 70
     0
280
     1
281
     0
  0
BLOCK_RECORD
  5
266
330
1
100
AcDbSymbolTableRecord
100
AcDbBlockTableRecord
  2
SEANNOT_GROUP
340
0
102
{BLKREFS
331
267
102
}
 70
     0
280
     1
281
     0
  0
BLOCK_RECORD
  5
26A
330
1
100
AcDbSymbolTableRecord
100
AcDbBlockTableRecord
  2
_NONE
340
0
 70
     0
280
     1
281
     0
  0
ENDTAB
  0
ENDSEC
  0
SECTION
  2
BLOCKS
  0
BLOCK
  5
20
330
1F
100
AcDbEntity
  8
0
100
AcDbBlockBegin
  2
*Model_Space
 70
     0
 10
0.0
 20
0.0
 30
0.0
  3
*Model_Space
  1

  0
ENDBLK
  5
21
330
1F
100
AcDbEntity
  8
0
100
AcDbBlockEnd
  0
BLOCK
  5
1C
330
1B
100
AcDbEntity
 67
     1
  8
0
100
AcDbBlockBegin
  2
*Paper_Space
 70
     0
 10
0.0
 20
0.0
 30
0.0
  3
*Paper_Space
  1

  0
ENDBLK
  5
1D
330
1B
100
AcDbEntity
 67
     1
  8
0
100
AcDbBlockEnd
  0
BLOCK
  5
14D
330
6F
100
AcDbEntity
  8
0
100
AcDbBlockBegin
  2
SE
 70
     0
 10
0.0
 20
0.0
 30
0.0
  3
SE
  1

  0
HATCH
  5
72
330
6F
100
AcDbEntity
  8
DV1_Füllung
  6
Continuous
 62
     7
100
AcDbHatch
 10
0.0
 20
0.0
 30
0.0
210
0.0
220
0.0
230
1.0
  2
SOLID
 70
     1
 71
     0
 91
        1
 92
        1
 93
       12
 72
     1
 10
85.21366182313663
 20
194.9251741717579
 11
77.21366182313665
 21
194.9251741717579
 72
     1
 10
77.21366182313666
 20
194.9251741717579
 11
77.21366182313663
 21
175.3389431080194
 72
     1
 10
77.21366182313663
 20
175.3389431080194
 11
77.21366182313663
 21
133.283872518379
 72
     1
 10
77.21366182313663
 20
133.283872518379
 11
77.71366182313663
 21
132.783872518379
 72
     1
 10
77.71366182313663
 20
132.783872518379
 11
81.05096015775737
 21
132.783872518379
 72
     1
 10
81.05096015775737
 20
132.783872518379
 11
81.67636348851588
 21
132.7838725183788
 72
     1
 10
81.67636348851588
 20
132.7838725183788
 11
84.71366182313666
 21
132.783872518379
 72
     1
 10
84.71366182313665
 20
132.783872518379
 11
85.21366182313665
 21
133.283872518379
 72
     1
 10
85.21366182313665
 20
133.283872518379
 11
85.21366182313665
 21
154.370344617421
 72
     1
 10
85.21366182313665
 20
154.370344617421
 11
85.12032448952439
 21
161.1797611104332
 72
     2
 10
85.42029631081813
 20
161.183872853339
 40
0.2999999999999997
 50
179.2146903622201
 51
226.4662588056223
 73
     0
 72
     1
 10
85.21366182313731
 20
161.4013635163591
 11
85.21366182313665
 21
194.9251741717579
 97
        0
 75
     0
 76
     1
 98
        0
  0
HATCH
  5
73
330
6F
100
AcDbEntity
  8
DV1_Füllung
  6
Continuous
 62
     7
100
AcDbHatch
 10
0.0
 20
0.0
 30
0.0
210
0.0
220
0.0
230
1.0
  2
SOLID
 70
     1
 71
     0
 91
        1
 92
        1
 93
       34
 72
     1
 10
76.5158352672513
 20
131.483872853335
 11
86.22058112362669
 21
131.483872853335
 72
     2
 10
86.22058112362669
 20
131.983872853335
 40
0.5000000000000004
 50
270.0
 51
360.7853096377777
 73
     1
 72
     1
 10
86.72053415911623
 20
131.9907257581782
 11
86.33234653798512
 21
160.3109175551134
 72
     1
 10
86.33234653798512
 20
160.3109175551134
 11
86.16528168591331
 21
160.6861841061788
 72
     2
 10
84.33816439246884
 20
159.8727700689282
 40
2.000000000000003
 50
23.99814202597065
 51
50.46509456780582
 73
     1
 72
     2
 10
85.42029631081813
 20
161.183872853339
 40
0.2999999999999997
 50
50.46509456780519
 51
180.7853096377799
 73
     1
 72
     1
 10
85.1203244895244
 20
161.1797611104331
 11
85.51366182313663
 21
132.4838725183787
 72
     1
 10
85.51366182313663
 20
132.4838725183787
 11
82.06366182313663
 21
132.4838725183788
 72
     2
 10
82.06366182313663
 20
132.6838725183787
 40
0.1999999999999988
 50
90.0
 51
165.5224878140836
 73
     0
 72
     2
 10
81.67636348851588
 20
132.5838725183788
 40
0.1999999999999995
 50
14.47751218593322
 51
90.0
 73
     1
 72
     1
 10
81.67636348851588
 20
132.7838725183788
 11
81.05096015775737
 21
132.7838725183788
 72
     2
 10
81.05096015775737
 20
132.5838725183788
 40
0.1999999999999988
 50
90.0
 51
165.5224878140668
 73
     1
 72
     2
 10
80.66366182313662
 20
132.6838725183788
 40
0.1999999999999996
 50
14.47751218592434
 51
90.0
 73
     0
 72
     1
 10
80.66366182313662
 20
132.4838725183788
 11
77.21366182313663
 21
132.4838725183788
 72
     1
 10
77.21366182313663
 20
132.4838725183788
 11
77.2136618231367
 21
175.3389431080193
 72
     2
 10
76.7136618231367
 20
175.3389431080194
 40
0.5
 50
0.0
 51
104.8168401704031
 73
     1
 72
     1
 10
76.585796867053
 20
175.8223172415906
 11
66.33718588270854
 21
173.1112946559374
 72
     2
 10
67.61583544354524
 20
168.2775533202256
 40
4.999999999999687
 50
104.8168401704006
 51
180.0000000000029
 73
     1
 72
     1
 10
62.61583544354556
 20
168.2775533202254
 11
62.61583544354524
 21
131.683872853335
 72
     2
 10
62.81583544354524
 20
131.683872853335
 40
0.2000000000000005
 50
180.0
 51
270.0
 73
     1
 72
     1
 10
62.81583544354524
 20
131.483872853335
 11
63.31333598249363
 21
131.483872853335
 72
     2
 10
63.31333598249363
 20
131.983872853335
 40
0.5000000000000004
 50
270.0
 51
360.0
 73
     1
 72
     1
 10
63.81333598249363
 20
131.983872853335
 11
63.81333598249363
 21
164.4322764182623
 72
     1
 10
63.81333598249363
 20
164.4322764182623
 11
63.31583544354555
 21
164.4322764182623
 72
     2
 10
63.31583544354554
 20
164.9322764182623
 40
0.5000000000000004
 50
89.99999999999919
 51
180.0
 73
     0
 72
     1
 10
62.81583544354553
 20
164.9322764182623
 11
62.81583544354545
 21
168.1235794030994
 72
     2
 10
67.81583544354544
 20
168.1235794030995
 40
5.000000000000003
 50
179.9999999999984
 51
255.1831598295979
 73
     0
 72
     1
 10
66.53718588270853
 20
172.9573207388116
 11
76.38579686705303
 21
175.5625329823688
 72
     2
 10
76.51366182313672
 20
175.0791588487976
 40
0.5
 50
255.1831598295993
 51
360.0
 73
     0
 72
     1
 10
77.01366182313673
 20
175.0791588487976
 11
77.01366182313701
 21
164.9322764182627
 72
     2
 10
76.513661823137
 20
164.9322764182627
 40
0.5000000000000001
 50
0.0
 51
89.99999999999837
 73
     0
 72
     1
 10
76.51366182313701
 20
164.4322764182627
 11
76.0158352672513
 21
164.4322764182626
 72
     1
 10
76.0158352672513
 20
164.4322764182626
 11
76.0158352672513
 21
131.983872853335
 72
     2
 10
76.5158352672513
 20
131.983872853335
 40
0.5
 50
180.0
 51
270.0
 73
     1
 97
        0
 75
     0
 76
     1
 98
        0
  0
HATCH
  5
74
330
6F
100
AcDbEntity
  8
DV1_Füllung
  6
Continuous
 62
     7
100
AcDbHatch
 10
0.0
 20
0.0
 30
0.0
210
0.0
220
0.0
230
1.0
  2
SOLID
 70
     1
 71
     0
 91
        1
 92
        1
 93
       24
 72
     1
 10
74.91458562487246
 20
151.4838728533349
 11
74.91458562487246
 21
131.7838728533349
 72
     2
 10
75.21458562487247
 20
131.7838728533349
 40
0.3000000000000017
 50
180.0
 51
270.0
 73
     1
 72
     1
 10
75.21458562487247
 20
131.4838728533349
 11
75.91458562487247
 21
131.4838728533349
 72
     1
 10
75.91458562487249
 20
131.4838728533349
 11
75.91458562487247
 21
164.4322764182627
 72
     1
 10
75.91458562487247
 20
164.4322764182627
 11
74.76264831274014
 21
164.4322764182626
 72
     1
 10
74.76264831274013
 20
164.4322764182626
 11
74.76264831274013
 21
163.183872853335
 72
     1
 10
74.76264831274013
 20
163.183872853335
 11
65.06458562487245
 21
163.183872853335
 72
     1
 10
65.06458562487245
 20
163.183872853335
 11
65.06458562487245
 21
164.4322764182624
 72
     1
 10
65.06458562487245
 20
164.4322764182623
 11
63.91458562487245
 21
164.4322764182623
 72
     1
 10
63.91458562487246
 20
164.4322764182623
 11
63.91458562487246
 21
131.4838728533349
 72
     1
 10
63.91458562487246
 20
131.4838728533349
 11
64.61458562487246
 21
131.483872853335
 72
     2
 10
64.61458562487246
 20
131.7838728533349
 40
0.2999999999999999
 50
270.0
 51
360.0
 73
     1
 72
     1
 10
64.91458562487246
 20
131.7838728533349
 11
64.91458562487246
 21
151.4838728533349
 72
     1
 10
64.91458562487246
 20
151.483872853335
 11
65.72894497881737
 21
151.4838728533349
 72
     1
 10
65.72894497881735
 20
151.4838728533349
 11
66.81458562487246
 21
152.110667772578
 72
     2
 10
66.71458562487247
 20
152.2838728533349
 40
0.1999999999999988
 50
299.9999999999972
 51
450.0
 73
     1
 72
     1
 10
66.71458562487247
 20
152.483872853335
 11
65.06458562487248
 21
152.4838728533349
 72
     1
 10
65.06458562487246
 20
152.4838728533349
 11
65.06458562487246
 21
162.183872853335
 72
     1
 10
65.06458562487246
 20
162.183872853335
 11
74.76264831274013
 21
162.183872853335
 72
     1
 10
74.76264831274013
 20
162.183872853335
 11
74.76264831274013
 21
152.4838728533349
 72
     1
 10
74.76264831274013
 20
152.4838728533349
 11
73.11458562487246
 21
152.4838728533349
 72
     2
 10
73.11458562487248
 20
152.2838728533349
 40
0.1999999999999958
 50
90.0
 51
239.9999999999957
 73
     1
 72
     1
 10
73.01458562487247
 20
152.1106677725781
 11
74.10022627092758
 21
151.483872853335
 72
     1
 10
74.10022627092758
 20
151.483872853335
 11
74.91458562487249
 21
151.4838728533349
 97
        0
 75
     0
 76
     1
 98
        0
  0
HATCH
  5
75
330
6F
100
AcDbEntity
  8
DV1_Füllung
  6
Continuous
 62
     7
100
AcDbHatch
 10
0.0
 20
0.0
 30
0.0
210
0.0
220
0.0
230
1.0
  2
SOLID
 70
     1
 71
     0
 91
        1
 92
        1
 93
       68
 72
     1
 10
73.11469847010734
 20
136.4813251557303
 11
73.11469847023095
 21
145.0755834359094
 72
     2
 10
72.51600698104652
 20
146.9838728533663
 40
1.999999999999985
 50
287.4183112750555
 51
299.9570741787731
 73
     1
 72
     1
 10
73.51470905339907
 20
145.2510733350495
 11
73.51470905341084
 21
146.0689622448439
 72
     2
 10
73.31853074842509
 20
146.0300511583399
 40
0.200000000000001
 50
11.21875437403456
 51
15.69743081443757
 73
     1
 72
     1
 10
73.51107152430205
 20
146.0841626139172
 11
73.40701649189693
 21
146.1882176463253
 72
     2
 10
73.26559513565759
 20
146.0467962900901
 40
0.2
 50
44.99999999917669
 51
64.46771102456434
 73
     1
 72
     2
 10
73.31853074842509
 20
146.0300511583399
 40
0.200000000000001
 50
80.42481948802138
 51
123.9432284010053
 73
     1
 72
     1
 10
73.20685651320014
 20
146.1959694068448
 11
73.01098249957646
 21
146.0641329098411
 72
     2
 10
72.89930826435149
 20
146.230051158346
 40
0.2000000000000019
 50
56.05677159898791
 51
106.6813410037818
 73
     0
 72
     2
 10
72.51600698104652
 20
146.9838728533663
 40
0.9999978695709346
 50
70.98035884593264
 51
289.7719648475921
 73
     0
 72
     2
 10
72.89930826437306
 20
147.730051158346
 40
0.1999999999999948
 50
103.0100824781067
 51
416.0567715973336
 73
     1
 72
     1
 10
73.0109824996028
 20
147.8959694068476
 11
73.20685651322269
 21
147.7641329098383
 72
     2
 10
73.31853074845242
 20
147.9300511583399
 40
0.2000000000000001
 50
236.0567715973416
 51
248.8442590282872
 73
     1
 72
     2
 10
73.23676553668864
 20
147.9433008034717
 40
0.1999999999999977
 50
272.7467680238758
 51
314.9999999991709
 73
     1
 72
     1
 10
73.3781868929239
 20
147.8018794472324
 11
73.51853074845258
 21
147.942223302757
 72
     1
 10
73.51853074845259
 20
147.942223302757
 11
74.08383435641416
 21
148.5075269104968
 72
     1
 10
74.08383435641416
 20
148.5075269104968
 11
74.31458562483297
 21
148.7382781791145
 72
     1
 10
74.31458562483299
 20
148.7382781791145
 11
74.31458562486328
 21
150.8443875223613
 72
     1
 10
74.31458562486327
 20
150.8443875223613
 11
73.25337470263008
 21
151.4570779339999
 72
     2
 10
73.15337470262759
 20
151.2838728532445
 40
0.2000000000000002
 50
59.99999999917109
 51
89.99999999917357
 73
     1
 72
     1
 10
73.15337470263047
 20
151.4838728532445
 11
72.51458562487248
 21
151.4838728532536
 72
     2
 10
72.5145856248696
 20
151.2838728532537
 40
0.1999999999999988
 50
89.99999999917763
 51
179.9999999991776
 73
     1
 72
     1
 10
72.3145856248696
 20
151.2838728532565
 11
72.31458562486097
 21
150.6838728533692
 72
     2
 10
72.51458562486096
 20
150.6838728533663
 40
0.1999999999999988
 50
179.9999999991776
 51
269.9999999991776
 73
     1
 72
     1
 10
72.51458562485809
 20
150.4838728533663
 11
73.11458562486695
 21
150.4838728533576
 72
     2
 10
73.11458562486406
 20
150.2838728533665
 40
0.1999999999911448
 50
270.0000000008264
 51
360.0
 73
     0
 72
     1
 10
73.31458562485521
 20
150.2838728533665
 11
73.3145856248394
 21
149.1838728533548
 72
     2
 10
73.11458562483938
 20
149.1838728533577
 40
0.1999999999999988
 50
0.0000000008223642
 51
90.00000000082237
 73
     0
 72
     1
 10
73.11458562483651
 20
148.9838728533576
 11
71.17842788125503
 21
148.9838728533855
 72
     1
 10
71.17842788125503
 20
148.9838728533855
 11
70.31240247744903
 21
147.483872853398
 72
     1
 10
70.31240247744903
 20
147.483872853398
 11
69.51676877218085
 21
147.4838728534094
 72
     1
 10
69.51676877218085
 20
147.4838728534094
 11
68.65074336841799
 21
148.9838728534219
 72
     1
 10
68.65074336841799
 20
148.9838728534218
 11
66.71458562483652
 21
148.9838728534497
 72
     2
 10
66.71458562483939
 20
149.1838728534497
 40
0.1999999999999988
 50
90.00000000082643
 51
180.0000000008224
 73
     0
 72
     1
 10
66.51458562483938
 20
149.1838728534526
 11
66.5145856248552
 21
150.283872853468
 72
     2
 10
66.71458562484635
 20
150.2838728534651
 40
0.1999999999911448
 50
180.0000000008305
 51
270.0000000008264
 73
     0
 72
     1
 10
66.71458562484924
 20
150.4838728534562
 11
67.31458562484795
 21
150.4838728534476
 72
     2
 10
67.31458562485082
 20
150.6838728534411
 40
0.199999999993497
 50
269.9999999991776
 51
359.9999999991695
 73
     1
 72
     1
 10
67.51458562484432
 20
150.6838728534382
 11
67.51458562485294
 21
151.2838728533256
 72
     2
 10
67.31458562484644
 20
151.2838728533285
 40
0.200000000006504
 50
0.0
 51
89.99999999813544
 73
     1
 72
     1
 10
67.31458562485295
 20
151.483872853335
 11
66.67579654710983
 21
151.4838728533349
 72
     2
 10
66.67579654710981
 20
151.2838728533349
 40
0.1999999999999988
 50
90.0
 51
119.9999999991287
 73
     1
 72
     1
 10
66.57579654711245
 20
151.4570779340933
 11
65.51458562486327
 21
150.8443875224873
 72
     1
 10
65.51458562486327
 20
150.8443875224873
 11
65.51458562483299
 21
148.7382781792411
 72
     1
 10
65.51458562483299
 20
148.7382781792411
 11
65.74533689345064
 21
148.5075269106167
 72
     1
 10
65.74533689345064
 20
148.5075269106167
 11
66.31064050139595
 21
147.9422233026552
 72
     1
 10
66.31064050139595
 20
147.9422233026552
 11
66.45098435671511
 21
147.801879447332
 72
     2
 10
66.59240571295447
 20
147.9433008035673
 40
0.1999999999999978
 50
224.9999999991824
 51
267.2532320290401
 73
     1
 72
     2
 10
66.51064050139578
 20
147.9300511584378
 40
0.2000000000000005
 50
68.84425903494026
 51
416.0567715989947
 73
     0
 72
     1
 10
66.62231473662074
 20
147.764132909933
 11
66.81818875024443
 21
147.8959694069366
 72
     2
 10
66.9298629854694
 20
147.7300511584318
 40
0.1999999999999985
 50
236.0567715989913
 51
283.0100824327982
 73
     0
 72
     2
 10
67.31316426856897
 20
146.9838728534411
 40
0.9999978695709382
 50
250.2280351565321
 51
469.0196411518452
 73
     0
 72
     2
 10
66.92986298544781
 20
146.2300511584318
 40
0.1999999999999923
 50
286.6813409614591
 51
596.056771597345
 73
     1
 72
     1
 10
66.8181887502181
 20
146.0641329099302
 11
66.62231473659818
 21
146.1959694069395
 72
     2
 10
66.51064050136846
 20
146.0300511584378
 40
0.200000000000004
 50
56.05677159734616
 51
104.9963040663572
 73
     1
 72
     2
 10
66.55927151071211
 20
146.0502559102434
 40
0.1999999999999982
 50
120.1265642406902
 51
134.9999999991738
 73
     1
 72
     1
 10
66.41785015447685
 20
146.1916772664828
 11
66.32164176601916
 21
146.0954688780278
 72
     2
 10
66.51064050136846
 20
146.0300511584378
 40
0.200000000000004
 50
160.9078398182901
 51
168.7812459269122
 73
     1
 72
     1
 10
66.31446219617834
 20
146.0689622439114
 11
66.31446219616657
 21
145.2510733351531
 72
     2
 10
67.31316426856897
 20
146.9838728534411
 40
1.999999999999984
 50
240.0429258195788
 51
252.5816887232968
 73
     1
 72
     1
 10
66.71447277932965
 20
145.0755834360014
 11
66.71447277920606
 21
136.4813251558233
 72
     2
 10
67.21432840559801
 20
136.4933398453461
 40
0.5000000000000272
 50
181.3769145329238
 51
358.6230854654245
 73
     1
 72
     1
 10
67.71418403198963
 20
136.4813251558089
 11
67.7141840321125
 21
145.0244894940019
 72
     2
 10
67.31316426856897
 20
146.9838728534411
 40
1.999999999999984
 50
281.5667771069477
 51
345.5224878132459
 73
     1
 72
     1
 10
69.24965594166548
 20
146.4838728534133
 11
70.57951530793564
 21
146.4838728533941
 72
     2
 10
72.51600698104652
 20
146.9838728533663
 40
1.999999999999984
 50
194.4775121851052
 51
258.4332228914055
 73
     1
 72
     1
 10
72.11498721744667
 20
145.0244894939386
 11
72.1149872173238
 21
136.4813251557457
 72
     2
 10
72.61484284371575
 20
136.4933398452684
 40
0.5000000000000262
 50
181.3769145329173
 51
358.6230854653202
 73
     1
 97
        0
 75
     0
 76
     1
 98
        0
  0
HATCH
  5
76
330
6F
100
AcDbEntity
  8
DV1_Füllung
  6
Continuous
 62
     7
100
AcDbHatch
 10
0.0
 20
0.0
 30
0.0
210
0.0
220
0.0
230
1.0
  2
SOLID
 70
     1
 71
     0
 91
        1
 92
        1
 93
        4
 72
     2
 10
69.91458562487249
 20
156.9838728533351
 40
2.999999999999999
 50
203.5635514140637
 51
222.7516878677851
 73
     1
 72
     1
 10
67.71167808758972
 20
154.9474057207295
 11
68.50901930864786
 21
155.4683292773549
 72
     2
 10
69.91458562487249
 20
156.9838728533351
 40
2.067000000000002
 50
132.8438818307342
 51
160.8408788874168
 73
     0
 72
     1
 10
67.96207517004387
 20
156.3054983816861
 11
67.16473394898571
 21
155.7845748250607
 97
        0
 75
     0
 76
     1
 98
        0
  0
HATCH
  5
77
330
6F
100
AcDbEntity
  8
DV1_Füllung
  6
Continuous
 62
     7
100
AcDbHatch
 10
0.0
 20
0.0
 30
0.0
210
0.0
220
0.0
230
1.0
  2
SOLID
 70
     1
 71
     0
 91
        1
 92
        1
 93
       16
 72
     1
 10
68.38535989907366
 20
156.5820411975947
 11
67.96207517004389
 21
156.3054983816861
 72
     2
 10
69.91458562487249
 20
156.9838728533351
 40
2.067000000000002
 50
199.1591211125831
 51
227.1561181692658
 73
     1
 72
     1
 10
68.50901930864788
 20
155.4683292773549
 11
68.93230403767767
 21
155.7448720932635
 72
     2
 10
69.47924817628164
 20
154.9077029889323
 40
0.9999999999999972
 50
236.842380359076
 51
326.8423803590767
 73
     0
 72
     1
 10
70.31641728061287
 20
155.4546471275362
 11
70.59296009652145
 21
155.0313623985065
 72
     2
 10
69.91458562487249
 20
156.9838728533351
 40
2.067000000000001
 50
289.1591211125827
 51
317.156118169265
 73
     1
 72
     1
 10
71.43012920085265
 20
155.5783065371105
 11
71.15358638494408
 21
156.0015912661403
 72
     2
 10
71.9907554892753
 20
156.5485354047442
 40
0.9999999999999993
 50
146.8423803590767
 51
236.8423803590767
 73
     0
 72
     1
 10
71.44381135067133
 20
157.3857045090755
 11
71.8670960797011
 21
157.662247324984
 72
     2
 10
69.91458562487249
 20
156.9838728533351
 40
2.066999999999999
 50
19.15912111258165
 51
47.156118169265
 73
     1
 72
     1
 10
71.32015194109711
 20
158.4994164293153
 11
70.8968672120673
 21
158.2228736134067
 72
     2
 10
70.34992307346334
 20
159.0600427177379
 40
1.000000000000003
 50
56.84238035907671
 51
146.8423803590749
 73
     0
 72
     1
 10
69.51275396913213
 20
158.5130985791339
 11
69.23621115322355
 21
158.9363833081637
 72
     2
 10
69.91458562487249
 20
156.9838728533351
 40
2.066999999999999
 50
109.1591211125829
 51
137.1561181692659
 73
     1
 72
     1
 10
68.39904204889231
 20
158.3894391695597
 11
68.67558486480091
 21
157.9661544405299
 72
     2
 10
67.83841576046967
 20
157.4192103019259
 40
0.9999999999999983
 50
326.8423803590767
 51
416.8423803590759
 73
     0
 97
        0
 75
     0
 76
     1
 98
        0
  0
HATCH
  5
78
330
6F
100
AcDbEntity
  8
DV1_Füllung
  6
Continuous
 62
     7
100
AcDbHatch
 10
0.0
 20
0.0
 30
0.0
210
0.0
220
0.0
230
1.0
  2
SOLID
 70
     1
 71
     0
 91
        1
 92
        1
 93
        4
 72
     2
 10
69.91458562487249
 20
156.9838728533351
 40
3.000000000000001
 50
113.5635514140635
 51
132.7516878677844
 73
     1
 72
     1
 10
67.87811849226694
 20
159.1867803906179
 11
68.39904204889233
 21
158.3894391695597
 72
     2
 10
69.91458562487249
 20
156.9838728533351
 40
2.066999999999999
 50
222.8438818307341
 51
250.8408788874171
 73
     0
 72
     1
 10
69.23621115322354
 20
158.9363833081637
 11
68.71528759659815
 21
159.7337245292219
 97
        0
 75
     0
 76
     1
 98
        0
  0
HATCH
  5
79
330
6F
100
AcDbEntity
  8
DV1_Füllung
  6
Continuous
 62
     7
100
AcDbHatch
 10
0.0
 20
0.0
 30
0.0
210
0.0
220
0.0
230
1.0
  2
SOLID
 70
     1
 71
     0
 91
        1
 92
        1
 93
        4
 72
     2
 10
69.91458562487249
 20
156.9838728533351
 40
2.066999999999999
 50
312.843881830735
 51
340.8408788874183
 73
     0
 72
     1
 10
71.8670960797011
 20
157.662247324984
 11
72.66443730075926
 21
158.1831708816094
 72
     2
 10
69.91458562487249
 20
156.9838728533351
 40
3.000000000000001
 50
23.56355141406312
 51
42.75168786778399
 73
     1
 72
     1
 10
72.11749316215528
 20
159.0203399859406
 11
71.32015194109712
 21
158.4994164293152
 97
        0
 75
     0
 76
     1
 98
        0
  0
HATCH
  5
7A
330
6F
100
AcDbEntity
  8
DV1_Füllung
  6
Continuous
 62
     7
100
AcDbHatch
 10
0.0
 20
0.0
 30
0.0
210
0.0
220
0.0
230
1.0
  2
SOLID
 70
     1
 71
     0
 91
        2
 92
        1
 93
        1
 72
     3
 10
69.91458562487249
 20
156.9838728533351
 11
4.6
 21
0.0
 40
1.0
 50
0.0
 51
360.0
 73
     1
 97
        0
 92
        1
 93
       16
 72
     1
 10
67.7116780875897
 20
154.9474057207295
 11
68.93230403767765
 21
155.7448720932635
 72
     2
 10
69.47924817628164
 20
154.9077029889323
 40
0.9999999999999972
 50
236.842380359076
 51
326.8423803590767
 73
     0
 72
     1
 10
70.31641728061287
 20
155.4546471275362
 11
71.1138836531468
 21
154.2340211774483
 72
     2
 10
69.91458562487249
 20
156.9838728533351
 40
2.999999999999998
 50
293.5635514140635
 51
312.7516878677844
 73
     1
 72
     1
 10
71.95105275747804
 20
154.7809653160523
 11
71.15358638494408
 21
156.0015912661403
 72
     2
 10
71.9907554892753
 20
156.5485354047442
 40
0.9999999999999993
 50
146.8423803590767
 51
236.8423803590767
 73
     0
 72
     1
 10
71.44381135067133
 20
157.3857045090755
 11
72.66443730075927
 21
158.1831708816094
 72
     2
 10
69.91458562487249
 20
156.9838728533351
 40
3.000000000000001
 50
23.56355141406312
 51
42.75168786778399
 73
     1
 72
     1
 10
72.11749316215528
 20
159.0203399859406
 11
70.89686721206733
 21
158.2228736134067
 72
     2
 10
70.34992307346334
 20
159.0600427177379
 40
1.000000000000003
 50
56.84238035907671
 51
146.8423803590749
 73
     0
 72
     1
 10
69.51275396913213
 20
158.5130985791339
 11
68.71528759659819
 21
159.7337245292218
 72
     2
 10
69.91458562487249
 20
156.9838728533351
 40
3.000000000000001
 50
113.5635514140635
 51
132.7516878677844
 73
     1
 72
     1
 10
67.87811849226694
 20
159.1867803906179
 11
68.67558486480091
 21
157.9661544405299
 72
     2
 10
67.83841576046967
 20
157.4192103019259
 40
0.9999999999999983
 50
326.8423803590767
 51
416.8423803590759
 73
     0
 72
     1
 10
68.38535989907366
 20
156.5820411975947
 11
67.16473394898574
 21
155.7845748250608
 72
     2
 10
69.91458562487249
 20
156.9838728533351
 40
2.999999999999999
 50
203.5635514140637
 51
222.7516878677851
 73
     1
 97
        0
 75
     0
 76
     1
 98
        0
  0
HATCH
  5
7B
330
6F
100
AcDbEntity
  8
DV1_Füllung
  6
Continuous
 62
     7
100
AcDbHatch
 10
0.0
 20
0.0
 30
0.0
210
0.0
220
0.0
230
1.0
  2
SOLID
 70
     1
 71
     0
 91
        1
 92
        1
 93
        4
 72
     2
 10
69.91458562487249
 20
156.9838728533351
 40
2.067000000000001
 50
42.84388183073501
 51
70.84087888741733
 73
     0
 72
     1
 10
70.59296009652144
 20
155.0313623985065
 11
71.11388365314684
 21
154.2340211774483
 72
     2
 10
69.91458562487249
 20
156.9838728533351
 40
2.999999999999998
 50
293.5635514140635
 51
312.7516878677844
 73
     1
 72
     1
 10
71.95105275747804
 20
154.7809653160523
 11
71.43012920085266
 21
155.5783065371105
 97
        0
 75
     0
 76
     1
 98
        0
  0
HATCH
  5
7C
330
6F
100
AcDbEntity
  8
DV1_Füllung
  6
Continuous
 62
     7
100
AcDbHatch
 10
0.0
 20
0.0
 30
0.0
210
0.0
220
0.0
230
1.0
  2
SOLID
 70
     1
 71
     0
 91
        1
 92
        1
 93
        1
 72
     3
 10
69.91366182313689
 20
168.7303693380432
 11
3.065933786798643
 21
0.0
 40
1.0
 50
0.0
 51
360.0
 73
     1
 97
        0
 75
     0
 76
     1
 98
        0
  0
HATCH
  5
7D
330
6F
100
AcDbEntity
  8
DV1_Füllung
  6
Continuous
 62
     7
100
AcDbHatch
 10
0.0
 20
0.0
 30
0.0
210
0.0
220
0.0
230
1.0
  2
SOLID
 70
     1
 71
     0
 91
        1
 92
        1
 93
       14
 72
     1
 10
77.013661823137
 20
164.9322764182627
 11
77.01366182313673
 21
175.0791588487976
 72
     2
 10
76.51366182313672
 20
175.0791588487976
 40
0.5
 50
0.0
 51
104.8168401704007
 73
     1
 72
     1
 10
76.38579686705303
 20
175.5625329823689
 11
66.53718588270853
 21
172.9573207388116
 72
     2
 10
67.81583544354544
 20
168.1235794030995
 40
5.000000000000003
 50
104.8168401704021
 51
180.0000000000016
 73
     1
 72
     1
 10
62.81583544354544
 20
168.1235794030994
 11
62.81583544354554
 21
164.9322764182623
 72
     2
 10
63.31583544354554
 20
164.9322764182623
 40
0.5000000000000004
 50
180.0
 51
270.0000000000008
 73
     1
 72
     1
 10
63.31583544354555
 20
164.4322764182623
 11
65.413661823137
 21
164.4322764182623
 72
     1
 10
65.41366182313702
 20
164.4322764182623
 11
65.41366182313702
 21
164.2322764182623
 72
     1
 10
65.41366182313702
 20
164.2322764182624
 11
65.41366182313705
 21
163.2322764182624
 72
     1
 10
65.41366182313705
 20
163.2322764182624
 11
74.41366182313706
 21
163.2322764182626
 72
     1
 10
74.41366182313705
 20
163.2322764182626
 11
74.41366182313702
 21
164.2322764182626
 72
     1
 10
74.41366182313702
 20
164.2322764182626
 11
74.41366182313702
 21
164.4322764182626
 72
     1
 10
74.41366182313702
 20
164.4322764182626
 11
76.51366182313701
 21
164.4322764182627
 72
     2
 10
76.513661823137
 20
164.9322764182627
 40
0.5000000000000001
 50
270.0000000000016
 51
360.0
 73
     1
 97
        0
 75
     0
 76
     1
 98
        0
  0
HATCH
  5
7E
330
6F
100
AcDbEntity
  8
DV1_Füllung
  6
Continuous
 62
     7
100
AcDbHatch
 10
0.0
 20
0.0
 30
0.0
210
0.0
220
0.0
230
1.0
  2
SOLID
 70
     1
 71
     0
 91
        1
 92
        1
 93
       44
 72
     1
 10
65.310853609203
 20
148.2566778695063
 11
65.31085360916164
 21
145.3806477300419
 72
     2
 10
65.31085360915745
 20
145.1806477300419
 40
0.2000000000000005
 50
270.000000001201
 51
450.000000001201
 73
     0
 72
     1
 10
65.31085360915326
 20
144.9806477300419
 11
65.31085360897217
 21
132.387115309465
 72
     2
 10
66.31085360897215
 20
132.3871153094507
 40
1.000000000000001
 50
179.999999999176
 51
250.8761023701485
 73
     1
 72
     2
 10
69.91458562485005
 20
142.780051158273
 40
12.0
 50
250.8761023701475
 51
289.1238976282048
 73
     1
 72
     2
 10
73.51831764042906
 20
132.3871153093471
 40
0.9999999999999983
 50
289.1238976282044
 51
359.999999999176
 73
     1
 72
     1
 10
74.51831764042906
 20
132.3871153093327
 11
74.51831764061015
 21
144.9806477299095
 72
     2
 10
74.51831764061275
 20
145.1806477299095
 40
0.2000000000000023
 50
90.000000000745
 51
270.0000000001425
 73
     0
 72
     1
 10
74.51831764061325
 20
145.3806477299095
 11
74.5183176406546
 21
148.2566778693739
 72
     1
 10
74.5183176406546
 20
148.2566778693739
 11
74.08383435641416
 21
148.5075269104968
 72
     1
 10
74.08383435641416
 20
148.5075269104968
 11
73.5185307484526
 21
147.9422233025515
 72
     1
 10
73.5185307484526
 20
147.9422233025515
 11
73.5185307484524
 21
147.9300511583371
 72
     2
 10
73.31853074845242
 20
147.9300511583399
 40
0.2000000000000001
 50
0.0000000008223642
 51
123.9432284026584
 73
     0
 72
     1
 10
73.20685651322269
 20
147.7641329098383
 11
73.0109824996028
 21
147.8959694068476
 72
     2
 10
72.89930826437306
 20
147.730051158346
 40
0.1999999999999948
 50
56.05677159733367
 51
122.499999999182
 73
     1
 72
     1
 10
72.79184834270612
 20
147.89872944751
 11
71.61458415985722
 21
147.148729447527
 72
     2
 10
71.72204408152416
 20
146.9800511583629
 40
0.1999999999999997
 50
122.4999999991776
 51
237.4999999991712
 73
     1
 72
     1
 10
71.61458415985236
 20
146.8113728692018
 11
72.7918483426797
 21
146.0613728691849
 72
     2
 10
72.89930826435149
 20
146.230051158346
 40
0.2000000000000019
 50
237.499999999179
 51
303.9432284010121
 73
     1
 72
     1
 10
73.01098249957647
 20
146.0641329098411
 11
73.20685651320014
 21
146.1959694068448
 72
     2
 10
73.31853074842509
 20
146.0300511583399
 40
0.200000000000001
 50
236.0567715989947
 51
360.0
 73
     0
 72
     1
 10
73.51853074842509
 20
146.0300511583399
 11
73.5185307483755
 21
142.5808387749922
 72
     2
 10
73.52151077406421
 20
142.1808498758376
 40
0.4000000000000005
 50
269.5731388142163
 51
442.8586896539304
 73
     0
 72
     2
 10
73.62129156936176
 20
141.3870969646005
 40
0.3999999999999988
 50
97.18855601517683
 51
179.9999999991736
 73
     1
 72
     1
 10
73.22129156936175
 20
141.3870969646063
 11
73.22129156923033
 21
132.2476059653498
 72
     2
 10
72.72129156923033
 20
132.247605965357
 40
0.5
 50
0.0000000008239927
 51
75.07846711469709
 73
     0
 72
     2
 10
69.91458562485005
 20
142.780051158273
 40
11.4
 50
75.07846711469735
 51
104.921532886956
 73
     0
 72
     2
 10
67.10787968016585
 20
132.2476059654379
 40
0.4999999999999985
 50
104.9215328869564
 51
180.0000000008273
 73
     0
 72
     1
 10
66.60787968016585
 20
132.2476059654452
 11
66.60787968029727
 21
141.3870969647014
 72
     2
 10
66.20787968029727
 20
141.3870969647071
 40
0.3999999999999993
 50
0.0
 51
82.81144398303358
 73
     1
 72
     2
 10
66.30766047562005
 20
142.180849875941
 40
0.3999999999999742
 50
97.1413103479243
 51
270.4268611872291
 73
     0
 72
     1
 10
66.31064050131886
 20
142.5808387750955
 11
66.31064050136845
 21
146.0300511584407
 72
     2
 10
66.51064050136846
 20
146.0300511584378
 40
0.200000000000004
 50
180.0000000008305
 51
303.9432284026539
 73
     0
 72
     1
 10
66.62231473659818
 20
146.1959694069395
 11
66.8181887502181
 21
146.0641329099302
 72
     2
 10
66.92986298544781
 20
146.2300511584318
 40
0.1999999999999923
 50
236.056771597345
 51
302.4999999991776
 73
     1
 72
     1
 10
67.03732290711476
 20
146.0613728692677
 11
68.21458708996366
 21
146.8113728692507
 72
     2
 10
68.10712716829671
 20
146.9800511584149
 40
0.2000000000000026
 50
302.4999999991742
 51
417.4999999991757
 73
     1
 72
     1
 10
68.21458708996852
 20
147.1487294475759
 11
67.03732290714119
 21
147.8987294475928
 72
     2
 10
66.9298629854694
 20
147.7300511584318
 40
0.1999999999999985
 50
57.49999999918249
 51
123.9432284010087
 73
     1
 72
     1
 10
66.81818875024443
 20
147.8959694069367
 11
66.62231473662075
 21
147.764132909933
 72
     2
 10
66.51064050139578
 20
147.9300511584378
 40
0.2000000000000005
 50
56.05677159899469
 51
180.0000000008224
 73
     0
 72
     1
 10
66.31064050139578
 20
147.9300511584407
 11
66.31064050139597
 21
147.9422233026552
 72
     1
 10
66.31064050139595
 20
147.9422233026552
 11
65.74533689345063
 21
148.5075269106167
 72
     1
 10
65.74533689345063
 20
148.5075269106167
 11
65.310853609203
 21
148.2566778695063
 97
        0
 75
     0
 76
     1
 98
        0
  0
LINE
  5
80
330
6F
100
AcDbEntity
  8
11379_AUSSENPROF
  6
Continuous
 62
     7
100
AcDbLine
 10
85.5136618231
 20
132.4838725184
 30
0.0
 11
82.0636618231
 21
132.4838725184
 31
0.0
  0
LINE
  5
81
330
6F
100
AcDbEntity
  8
11379_AUSSENPROF
  6
Continuous
 62
     7
100
AcDbLine
 10
77.2136618231
 20
132.4838725184
 30
0.0
 11
77.2136618231
 21
175.338943108
 31
0.0
  0
ARC
  5
82
330
6F
100
AcDbEntity
  8
11379_AUSSENPROF
  6
Continuous
 62
     7
100
AcDbCircle
 10
67.6158354435
 20
168.2775533202
 30
0.0
 40
4.999999999999687
100
AcDbArc
 50
104.8168401704
 51
180.0
  0
LINE
  5
83
330
6F
100
AcDbEntity
  8
11379_AUSSENPROF
  6
Continuous
 62
     7
100
AcDbLine
 10
62.6158354435
 20
168.2775533202
 30
0.0
 11
62.6158354435
 21
131.6838728533
 31
0.0
  0
LINE
  5
84
330
6F
100
AcDbEntity
  8
11379_AUSSENPROF
  6
Continuous
 62
     7
100
AcDbLine
 10
76.5857968671
 20
175.8223172416
 30
0.0
 11
66.3371858827
 21
173.1112946559
 31
0.0
  0
ARC
  5
85
330
6F
100
AcDbEntity
  8
11379_AUSSENPROF
  6
Continuous
 62
     7
100
AcDbCircle
 10
76.7136618231
 20
175.338943108
 30
0.0
 40
0.5
100
AcDbArc
 50
0.0
 51
104.8168401704
  0
LINE
  5
86
330
6F
100
AcDbEntity
  8
11379_AUSSENPROF
  6
Continuous
 62
     7
100
AcDbLine
 10
76.0158352673
 20
164.4322764183
 30
0.0
 11
76.0158352673
 21
131.9838728533
 31
0.0
  0
LINE
  5
87
330
6F
100
AcDbEntity
  8
11379_AUSSENPROF
  6
Continuous
 62
     7
100
AcDbLine
 10
85.1203244895
 20
161.1797611104
 30
0.0
 11
85.5136618231
 21
132.4838725184
 31
0.0
  0
LINE
  5
88
330
6F
100
AcDbEntity
  8
11379_AUSSENPROF
  6
Continuous
 62
     7
100
AcDbLine
 10
86.332346538
 20
160.3109175551
 30
0.0
 11
86.1652816859
 21
160.6861841062
 31
0.0
  0
ARC
  5
89
330
6F
100
AcDbEntity
  8
11379_AUSSENPROF
  6
Continuous
 62
     7
100
AcDbCircle
 10
84.3381643925
 20
159.8727700689
 30
0.0
 40
2.000000000000003
100
AcDbArc
 50
23.998142026
 51
50.4650945678
  0
ARC
  5
8A
330
6F
100
AcDbEntity
  8
11379_AUSSENPROF
  6
Continuous
 62
     7
100
AcDbCircle
 10
85.4202963108
 20
161.1838728533
 30
0.0
 40
0.2999999999999997
100
AcDbArc
 50
50.4650945678
 51
180.7853096378
  0
LINE
  5
8B
330
6F
100
AcDbEntity
  8
11379_AUSSENPROF
  6
Continuous
 62
     7
100
AcDbLine
 10
86.7205341591
 20
131.9907257582
 30
0.0
 11
86.332346538
 21
160.3109175551
 31
0.0
  0
ARC
  5
8C
330
6F
100
AcDbEntity
  8
11379_AUSSENPROF
  6
Continuous
 62
     7
100
AcDbCircle
 10
86.2205811236
 20
131.9838728533
 30
0.0
 40
0.5000000000000004
100
AcDbArc
 50
270.0
 51
0.7853096378
  0
LINE
  5
8D
330
6F
100
AcDbEntity
  8
11379_AUSSENPROF
  6
Continuous
 62
     7
100
AcDbLine
 10
76.5158352673
 20
131.4838728533
 30
0.0
 11
86.2205811236
 21
131.4838728533
 31
0.0
  0
ARC
  5
8E
330
6F
100
AcDbEntity
  8
11379_AUSSENPROF
  6
Continuous
 62
     7
100
AcDbCircle
 10
76.5158352673
 20
131.9838728533
 30
0.0
 40
0.5
100
AcDbArc
 50
180.0
 51
270.0
  0
ARC
  5
8F
330
6F
100
AcDbEntity
  8
11379_AUSSENPROF
  6
Continuous
 62
     7
100
AcDbCircle
 10
82.0636618231
 20
132.6838725184
 30
0.0
 40
0.1999999999999988
100
AcDbArc
 50
194.4775121859
 51
270.0
  0
LINE
  5
90
330
6F
100
AcDbEntity
  8
11379_AUSSENPROF
  6
Continuous
 62
     7
100
AcDbLine
 10
80.6636618231
 20
132.4838725184
 30
0.0
 11
77.2136618231
 21
132.4838725184
 31
0.0
  0
ARC
  5
91
330
6F
100
AcDbEntity
  8
11379_AUSSENPROF
  6
Continuous
 62
     7
100
AcDbCircle
 10
80.6636618231
 20
132.6838725184
 30
0.0
 40
0.1999999999999996
100
AcDbArc
 50
270.0
 51
345.5224878141
  0
ARC
  5
92
330
6F
100
AcDbEntity
  8
11379_AUSSENPROF
  6
Continuous
 62
     7
100
AcDbCircle
 10
81.0509601578
 20
132.5838725184
 30
0.0
 40
0.1999999999999988
100
AcDbArc
 50
90.0
 51
165.5224878141
  0
LINE
  5
93
330
6F
100
AcDbEntity
  8
11379_AUSSENPROF
  6
Continuous
 62
     7
100
AcDbLine
 10
81.6763634885
 20
132.7838725184
 30
0.0
 11
81.0509601578
 21
132.7838725184
 31
0.0
  0
ARC
  5
94
330
6F
100
AcDbEntity
  8
11379_AUSSENPROF
  6
Continuous
 62
     7
100
AcDbCircle
 10
81.6763634885
 20
132.5838725184
 30
0.0
 40
0.1999999999999995
100
AcDbArc
 50
14.4775121859
 51
90.0
  0
LINE
  5
95
330
6F
100
AcDbEntity
  8
11379_AUSSENPROF
  6
Continuous
 62
     7
100
AcDbLine
 10
63.8133359825
 20
131.9838728533
 30
0.0
 11
63.8133359825
 21
164.4322764183
 31
0.0
  0
ARC
  5
96
330
6F
100
AcDbEntity
  8
11379_AUSSENPROF
  6
Continuous
 62
     7
100
AcDbCircle
 10
63.3133359825
 20
131.9838728533
 30
0.0
 40
0.5000000000000004
100
AcDbArc
 50
270.0
 51
0.0
  0
LINE
  5
97
330
6F
100
AcDbEntity
  8
11379_AUSSENPROF
  6
Continuous
 62
     7
100
AcDbLine
 10
62.8158354435
 20
131.4838728533
 30
0.0
 11
63.3133359825
 21
131.4838728533
 31
0.0
  0
ARC
  5
98
330
6F
100
AcDbEntity
  8
11379_AUSSENPROF
  6
Continuous
 62
     7
100
AcDbCircle
 10
62.8158354435
 20
131.6838728533
 30
0.0
 40
0.2000000000000005
100
AcDbArc
 50
180.0
 51
270.0
  0
LINE
  5
9A
330
6F
100
AcDbEntity
  8
19337_BEFESTIGUN
  6
Continuous
 62
     7
100
AcDbLine
 10
62.8158354435
 20
168.1235794031
 30
0.0
 11
62.8158354435
 21
164.9322764183
 31
0.0
  0
ARC
  5
9B
330
6F
100
AcDbEntity
  8
19337_BEFESTIGUN
  6
Continuous
 62
     7
100
AcDbCircle
 10
76.5136618231
 20
175.0791588488
 30
0.0
 40
0.5
100
AcDbArc
 50
0.0
 51
104.8168401704
  0
LINE
  5
9C
330
6F
100
AcDbEntity
  8
19337_BEFESTIGUN
  6
Continuous
 62
     7
100
AcDbLine
 10
76.3857968671
 20
175.5625329824
 30
0.0
 11
66.5371858827
 21
172.9573207388
 31
0.0
  0
ARC
  5
9D
330
6F
100
AcDbEntity
  8
19337_BEFESTIGUN
  6
Continuous
 62
     7
100
AcDbCircle
 10
67.8158354435
 20
168.1235794031
 30
0.0
 40
5.000000000000003
100
AcDbArc
 50
104.8168401704
 51
180.0
  0
LINE
  5
9E
330
6F
100
AcDbEntity
  8
19337_BEFESTIGUN
  6
Continuous
 62
     7
100
AcDbLine
 10
74.4136618231
 20
164.4322764183
 30
0.0
 11
76.5136618231
 21
164.4322764183
 31
0.0
  0
LINE
  5
9F
330
6F
100
AcDbEntity
  8
19337_BEFESTIGUN
  6
Continuous
 62
     7
100
AcDbLine
 10
65.4136618231
 20
164.4322764183
 30
0.0
 11
63.3158354435
 21
164.4322764183
 31
0.0
  0
LINE
  5
A0
330
6F
100
AcDbEntity
  8
19337_BEFESTIGUN
  6
Continuous
 62
     7
100
AcDbLine
 10
74.4136618231
 20
164.4322764183
 30
0.0
 11
74.4136618231
 21
164.2322764183
 31
0.0
  0
LINE
  5
A1
330
6F
100
AcDbEntity
  8
19337_BEFESTIGUN
  6
Continuous
 62
     7
100
AcDbLine
 10
65.4136618231
 20
163.2322764183
 30
0.0
 11
74.4136618231
 21
163.2322764183
 31
0.0
  0
LINE
  5
A2
330
6F
100
AcDbEntity
  8
19337_BEFESTIGUN
  6
Continuous
 62
     7
100
AcDbLine
 10
74.4136618231
 20
163.2322764183
 30
0.0
 11
74.4136618231
 21
164.2322764183
 31
0.0
  0
LINE
  5
A3
330
6F
100
AcDbEntity
  8
19337_BEFESTIGUN
  6
Continuous
 62
     7
100
AcDbLine
 10
65.4136618231
 20
164.2322764183
 30
0.0
 11
65.4136618231
 21
164.4322764183
 31
0.0
  0
LINE
  5
A4
330
6F
100
AcDbEntity
  8
19337_BEFESTIGUN
  6
Continuous
 62
     7
100
AcDbLine
 10
65.4136618231
 20
164.2322764183
 30
0.0
 11
65.4136618231
 21
163.2322764183
 31
0.0
  0
ARC
  5
A5
330
6F
100
AcDbEntity
  8
19337_BEFESTIGUN
  6
Continuous
 62
     7
100
AcDbCircle
 10
63.3158354435
 20
164.9322764183
 30
0.0
 40
0.5000000000000004
100
AcDbArc
 50
180.0
 51
270.0
  0
LINE
  5
A6
330
6F
100
AcDbEntity
  8
19337_BEFESTIGUN
  6
Continuous
 62
     7
100
AcDbLine
 10
77.0136618231
 20
164.9322764183
 30
0.0
 11
77.0136618231
 21
175.0791588488
 31
0.0
  0
ARC
  5
A7
330
6F
100
AcDbEntity
  8
19337_BEFESTIGUN
  6
Continuous
 62
     7
100
AcDbCircle
 10
76.5136618231
 20
164.9322764183
 30
0.0
 40
0.5000000000000001
100
AcDbArc
 50
270.0
 51
0.0
  0
CIRCLE
  5
A9
330
6F
100
AcDbEntity
  8
50555__ABC_SPAX_S
  6
Continuous
 62
     7
100
AcDbCircle
 10
69.9136618231
 20
168.730369338
 30
0.0
 40
3.5
  0
ARC
  5
AA
330
6F
100
AcDbEntity
  8
50555__ABC_SPAX_S
  6
Continuous
 62
     7
100
AcDbCircle
 10
67.9068741781
 20
167.359076315
 30
0.0
 40
0.9300000000000013
100
AcDbArc
 50
352.3095646513
 51
76.3691344917
  0
ARC
  5
AB
330
6F
100
AcDbEntity
  8
50555__ABC_SPAX_S
  6
Continuous
 62
     7
100
AcDbCircle
 10
68.1496098274
 20
168.360065528
 30
0.0
 40
0.1000000000000055
100
AcDbArc
 50
127.2819504579
 51
256.3691344917
  0
ARC
  5
AC
330
6F
100
AcDbEntity
  8
50555__ABC_SPAX_S
  6
Continuous
 62
     7
100
AcDbCircle
 10
68.9276098975
 20
167.2212409383
 30
0.0
 40
0.0999999999999979
100
AcDbArc
 50
172.3095646513
 51
301.3967590871
  0
ARC
  5
AD
330
6F
100
AcDbEntity
  8
50555__ABC_SPAX_S
  6
Continuous
 62
     7
100
AcDbCircle
 10
67.5256999171
 20
169.1795998005
 30
0.0
 40
0.9300000000000027
100
AcDbArc
 50
307.2819504579
 51
31.3990065803
  0
ARC
  5
AE
330
6F
100
AcDbEntity
  8
50555__ABC_SPAX_S
  6
Continuous
 62
     7
100
AcDbCircle
 10
69.4642000883
 20
166.3420532637
 30
0.0
 40
0.9300000000000049
100
AcDbArc
 50
37.3003615934
 51
121.3967590871
  0
ARC
  5
AF
330
6F
100
AcDbEntity
  8
50555__ABC_SPAX_S
  6
Continuous
 62
     7
100
AcDbCircle
 10
68.4048665427
 20
169.716224478
 30
0.0
 40
0.100000000000001
100
AcDbArc
 50
82.3118141074
 51
211.3990065803
  0
ARC
  5
B0
330
6F
100
AcDbEntity
  8
50555__ABC_SPAX_S
  6
Continuous
 62
     7
100
AcDbCircle
 10
70.2835338344
 20
166.9662264868
 30
0.0
 40
0.0999999999999984
100
AcDbArc
 50
217.3003615934
 51
346.3875601994
  0
ARC
  5
B1
330
6F
100
AcDbEntity
  8
50555__ABC_SPAX_S
  6
Continuous
 62
     7
100
AcDbCircle
 10
68.5426618448
 20
170.7369656081
 30
0.0
 40
0.9300000000000059
100
AcDbArc
 50
262.3118141074
 51
346.3843991545
  0
ARC
  5
B2
330
6F
100
AcDbEntity
  8
50555__ABC_SPAX_S
  6
Continuous
 62
     7
100
AcDbCircle
 10
71.2846010568
 20
166.7238127574
 30
0.0
 40
0.9299999999999976
100
AcDbArc
 50
82.2965459063
 51
166.3875601994
  0
ARC
  5
B3
330
6F
100
AcDbEntity
  8
50555__ABC_SPAX_S
  6
Continuous
 62
     7
100
AcDbCircle
 10
69.5437156916
 20
170.4944966496
 30
0.0
 40
0.1000000000000021
100
AcDbArc
 50
37.2972005485
 51
166.3843991545
  0
ARC
  5
B4
330
6F
100
AcDbEntity
  8
50555__ABC_SPAX_S
  6
Continuous
 62
     7
100
AcDbCircle
 10
71.4226683615
 20
167.7445171315
 30
0.0
 40
0.1000000000000003
100
AcDbArc
 50
262.2965459063
 51
31.3837444207
  0
ARC
  5
B5
330
6F
100
AcDbEntity
  8
50555__ABC_SPAX_S
  6
Continuous
 62
     7
100
AcDbCircle
 10
70.3630838725
 20
171.1186246686
 30
0.0
 40
0.9300000000000049
100
AcDbArc
 50
217.2972005484
 51
301.3859797086
  0
ARC
  5
B6
330
6F
100
AcDbEntity
  8
50555__ABC_SPAX_S
  6
Continuous
 62
     7
100
AcDbCircle
 10
72.3019778993
 20
168.280907602
 30
0.0
 40
0.9300000000000014
100
AcDbArc
 50
127.3003615626
 51
211.3837444207
  0
ARC
  5
B7
330
6F
100
AcDbEntity
  8
50555__ABC_SPAX_S
  6
Continuous
 62
     7
100
AcDbCircle
 10
70.8995086472
 20
170.2393360578
 30
0.0
 40
0.0999999999999962
100
AcDbArc
 50
352.298781011
 51
121.3859797086
  0
ARC
  5
B8
330
6F
100
AcDbEntity
  8
50555__ABC_SPAX_S
  6
Continuous
 62
     7
100
AcDbCircle
 10
71.6778046766
 20
169.1002413485
 30
0.0
 40
0.1000000000000002
100
AcDbArc
 50
307.3003615626
 51
76.3875601686
  0
ARC
  5
B9
330
6F
100
AcDbEntity
  8
50555__ABC_SPAX_S
  6
Continuous
 62
     7
100
AcDbCircle
 10
71.9202184066
 20
170.1013085708
 30
0.0
 40
0.9300000000000082
100
AcDbArc
 50
172.298781011
 51
256.3875601686
  0
LINE
  5
BB
330
6F
100
AcDbEntity
  8
11334_INNENPROFI
  6
Continuous
 62
     7
100
AcDbLine
 10
65.5145856249
 20
150.8443875225
 30
0.0
 11
65.5145856248
 21
148.7382781792
 31
0.0
  0
LINE
  5
BC
330
6F
100
AcDbEntity
  8
11334_INNENPROFI
  6
Continuous
 62
     7
100
AcDbLine
 10
65.5145856248
 20
148.7382781792
 30
0.0
 11
65.7453368935
 21
148.5075269106
 31
0.0
  0
LINE
  5
BD
330
6F
100
AcDbEntity
  8
11334_INNENPROFI
  6
Continuous
 62
     7
100
AcDbLine
 10
66.3106405014
 20
147.9422233027
 30
0.0
 11
66.4509843567
 21
147.8018794473
 31
0.0
  0
ARC
  5
BE
330
6F
100
AcDbEntity
  8
11334_INNENPROFI
  6
Continuous
 62
     7
100
AcDbCircle
 10
66.592405713
 20
147.9433008036
 30
0.0
 40
0.1999999999999978
100
AcDbArc
 50
224.9999999992
 51
267.253232029
  0
ARC
  5
BF
330
6F
100
AcDbEntity
  8
11334_INNENPROFI
  6
Continuous
 62
     7
100
AcDbCircle
 10
67.3131642686
 20
146.9838728534
 30
0.0
 40
0.9999978695709382
100
AcDbArc
 50
250.9803588482
 51
109.7719648435
  0
ARC
  5
C0
330
6F
100
AcDbEntity
  8
11334_INNENPROFI
  6
Continuous
 62
     7
100
AcDbCircle
 10
66.5592715107
 20
146.0502559102
 30
0.0
 40
0.1999999999999982
100
AcDbArc
 50
120.1265642407
 51
134.9999999992
  0
LINE
  5
C1
330
6F
100
AcDbEntity
  8
11334_INNENPROFI
  6
Continuous
 62
     7
100
AcDbLine
 10
66.4178501545
 20
146.1916772665
 30
0.0
 11
66.321641766
 21
146.095468878
 31
0.0
  0
LINE
  5
C2
330
6F
100
AcDbEntity
  8
11334_INNENPROFI
  6
Continuous
 62
     7
100
AcDbLine
 10
66.3144621962
 20
146.0689622439
 30
0.0
 11
66.3144621962
 21
145.2510733352
 31
0.0
  0
ARC
  5
C3
330
6F
100
AcDbEntity
  8
11334_INNENPROFI
  6
Continuous
 62
     7
100
AcDbCircle
 10
67.3131642686
 20
146.9838728534
 30
0.0
 40
1.999999999999984
100
AcDbArc
 50
240.0429258196
 51
252.5816887233
  0
LINE
  5
C4
330
6F
100
AcDbEntity
  8
11334_INNENPROFI
  6
Continuous
 62
     7
100
AcDbLine
 10
66.7144727793
 20
145.075583436
 30
0.0
 11
66.7144727792
 21
136.4813251558
 31
0.0
  0
ARC
  5
C5
330
6F
100
AcDbEntity
  8
11334_INNENPROFI
  6
Continuous
 62
     7
100
AcDbCircle
 10
67.2143284056
 20
136.4933398453
 30
0.0
 40
0.5000000000000272
100
AcDbArc
 50
181.3769145329
 51
358.6230854654
  0
LINE
  5
C6
330
6F
100
AcDbEntity
  8
11334_INNENPROFI
  6
Continuous
 62
     7
100
AcDbLine
 10
67.714184032
 20
136.4813251558
 30
0.0
 11
67.7141840321
 21
145.024489494
 31
0.0
  0
ARC
  5
C7
330
6F
100
AcDbEntity
  8
11334_INNENPROFI
  6
Continuous
 62
     7
100
AcDbCircle
 10
67.3131642686
 20
146.9838728534
 30
0.0
 40
1.999999999999984
100
AcDbArc
 50
281.5667771069
 51
345.5224878132
  0
LINE
  5
C8
330
6F
100
AcDbEntity
  8
11334_INNENPROFI
  6
Continuous
 62
     7
100
AcDbLine
 10
69.2496559417
 20
146.4838728534
 30
0.0
 11
70.5795153079
 21
146.4838728534
 31
0.0
  0
ARC
  5
C9
330
6F
100
AcDbEntity
  8
11334_INNENPROFI
  6
Continuous
 62
     7
100
AcDbCircle
 10
72.516006981
 20
146.9838728534
 30
0.0
 40
1.999999999999984
100
AcDbArc
 50
194.4775121851
 51
258.4332228914
  0
LINE
  5
CA
330
6F
100
AcDbEntity
  8
11334_INNENPROFI
  6
Continuous
 62
     7
100
AcDbLine
 10
72.1149872174
 20
145.0244894939
 30
0.0
 11
72.1149872173
 21
136.4813251557
 31
0.0
  0
ARC
  5
CB
330
6F
100
AcDbEntity
  8
11334_INNENPROFI
  6
Continuous
 62
     7
100
AcDbCircle
 10
72.6148428437
 20
136.4933398453
 30
0.0
 40
0.5000000000000262
100
AcDbArc
 50
181.3769145329
 51
358.6230854653
  0
LINE
  5
CC
330
6F
100
AcDbEntity
  8
11334_INNENPROFI
  6
Continuous
 62
     7
100
AcDbLine
 10
73.1146984701
 20
136.4813251557
 30
0.0
 11
73.1146984702
 21
145.0755834359
 31
0.0
  0
ARC
  5
CD
330
6F
100
AcDbEntity
  8
11334_INNENPROFI
  6
Continuous
 62
     7
100
AcDbCircle
 10
72.516006981
 20
146.9838728534
 30
0.0
 40
1.999999999999985
100
AcDbArc
 50
287.4183112751
 51
299.9570741788
  0
LINE
  5
CE
330
6F
100
AcDbEntity
  8
11334_INNENPROFI
  6
Continuous
 62
     7
100
AcDbLine
 10
73.5147090534
 20
145.251073335
 30
0.0
 11
73.5147090534
 21
146.0689622448
 31
0.0
  0
LINE
  5
CF
330
6F
100
AcDbEntity
  8
11334_INNENPROFI
  6
Continuous
 62
     7
100
AcDbLine
 10
73.5110715243
 20
146.0841626139
 30
0.0
 11
73.4070164919
 21
146.1882176463
 31
0.0
  0
ARC
  5
D0
330
6F
100
AcDbEntity
  8
11334_INNENPROFI
  6
Continuous
 62
     7
100
AcDbCircle
 10
73.2655951357
 20
146.0467962901
 30
0.0
 40
0.2
100
AcDbArc
 50
44.9999999992
 51
64.4677110246
  0
ARC
  5
D1
330
6F
100
AcDbEntity
  8
11334_INNENPROFI
  6
Continuous
 62
     7
100
AcDbCircle
 10
72.516006981
 20
146.9838728534
 30
0.0
 40
0.9999978695709346
100
AcDbArc
 50
70.2280351524
 51
289.0196411541
  0
ARC
  5
D2
330
6F
100
AcDbEntity
  8
11334_INNENPROFI
  6
Continuous
 62
     7
100
AcDbCircle
 10
73.2367655367
 20
147.9433008035
 30
0.0
 40
0.1999999999999977
100
AcDbArc
 50
272.7467680239
 51
314.9999999992
  0
LINE
  5
D3
330
6F
100
AcDbEntity
  8
11334_INNENPROFI
  6
Continuous
 62
     7
100
AcDbLine
 10
73.3781868929
 20
147.8018794472
 30
0.0
 11
73.5185307485
 21
147.9422233028
 31
0.0
  0
LINE
  5
D4
330
6F
100
AcDbEntity
  8
11334_INNENPROFI
  6
Continuous
 62
     7
100
AcDbLine
 10
74.0838343563
 20
148.5075269106
 30
0.0
 11
74.3145856248
 21
148.7382781791
 31
0.0
  0
LINE
  5
D5
330
6F
100
AcDbEntity
  8
11334_INNENPROFI
  6
Continuous
 62
     7
100
AcDbLine
 10
74.3145856248
 20
148.7382781791
 30
0.0
 11
74.3145856249
 21
150.8443875224
 31
0.0
  0
LINE
  5
D6
330
6F
100
AcDbEntity
  8
11334_INNENPROFI
  6
Continuous
 62
     7
100
AcDbLine
 10
74.3145856249
 20
150.8443875224
 30
0.0
 11
73.2533747026
 21
151.457077934
 31
0.0
  0
ARC
  5
D7
330
6F
100
AcDbEntity
  8
11334_INNENPROFI
  6
Continuous
 62
     7
100
AcDbCircle
 10
73.1533747026
 20
151.2838728532
 30
0.0
 40
0.2000000000000002
100
AcDbArc
 50
59.9999999992
 51
89.9999999992
  0
LINE
  5
D8
330
6F
100
AcDbEntity
  8
11334_INNENPROFI
  6
Continuous
 62
     7
100
AcDbLine
 10
73.1533747026
 20
151.4838728532
 30
0.0
 11
72.5145856249
 21
151.4838728533
 31
0.0
  0
ARC
  5
D9
330
6F
100
AcDbEntity
  8
11334_INNENPROFI
  6
Continuous
 62
     7
100
AcDbCircle
 10
72.5145856249
 20
151.2838728533
 30
0.0
 40
0.1999999999999988
100
AcDbArc
 50
89.9999999992
 51
179.9999999992
  0
LINE
  5
DA
330
6F
100
AcDbEntity
  8
11334_INNENPROFI
  6
Continuous
 62
     7
100
AcDbLine
 10
72.3145856249
 20
151.2838728533
 30
0.0
 11
72.3145856249
 21
150.6838728534
 31
0.0
  0
ARC
  5
DB
330
6F
100
AcDbEntity
  8
11334_INNENPROFI
  6
Continuous
 62
     7
100
AcDbCircle
 10
72.5145856249
 20
150.6838728534
 30
0.0
 40
0.1999999999999988
100
AcDbArc
 50
179.9999999992
 51
269.9999999992
  0
LINE
  5
DC
330
6F
100
AcDbEntity
  8
11334_INNENPROFI
  6
Continuous
 62
     7
100
AcDbLine
 10
72.5145856249
 20
150.4838728534
 30
0.0
 11
73.1145856249
 21
150.4838728534
 31
0.0
  0
ARC
  5
DD
330
6F
100
AcDbEntity
  8
11334_INNENPROFI
  6
Continuous
 62
     7
100
AcDbCircle
 10
73.1145856249
 20
150.2838728534
 30
0.0
 40
0.1999999999911448
100
AcDbArc
 50
0.0
 51
89.9999999992
  0
LINE
  5
DE
330
6F
100
AcDbEntity
  8
11334_INNENPROFI
  6
Continuous
 62
     7
100
AcDbLine
 10
73.3145856249
 20
150.2838728534
 30
0.0
 11
73.3145856248
 21
149.1838728534
 31
0.0
  0
ARC
  5
DF
330
6F
100
AcDbEntity
  8
11334_INNENPROFI
  6
Continuous
 62
     7
100
AcDbCircle
 10
73.1145856248
 20
149.1838728534
 30
0.0
 40
0.1999999999999988
100
AcDbArc
 50
269.9999999992
 51
359.9999999992
  0
LINE
  5
E0
330
6F
100
AcDbEntity
  8
11334_INNENPROFI
  6
Continuous
 62
     7
100
AcDbLine
 10
73.1145856248
 20
148.9838728534
 30
0.0
 11
71.1784278813
 21
148.9838728534
 31
0.0
  0
LINE
  5
E1
330
6F
100
AcDbEntity
  8
11334_INNENPROFI
  6
Continuous
 62
     7
100
AcDbLine
 10
71.1784278813
 20
148.9838728534
 30
0.0
 11
70.3124024774
 21
147.4838728534
 31
0.0
  0
LINE
  5
E2
330
6F
100
AcDbEntity
  8
11334_INNENPROFI
  6
Continuous
 62
     7
100
AcDbLine
 10
70.3124024774
 20
147.4838728534
 30
0.0
 11
69.5167687722
 21
147.4838728534
 31
0.0
  0
LINE
  5
E3
330
6F
100
AcDbEntity
  8
11334_INNENPROFI
  6
Continuous
 62
     7
100
AcDbLine
 10
69.5167687722
 20
147.4838728534
 30
0.0
 11
68.6507433684
 21
148.9838728534
 31
0.0
  0
LINE
  5
E4
330
6F
100
AcDbEntity
  8
11334_INNENPROFI
  6
Continuous
 62
     7
100
AcDbLine
 10
68.6507433684
 20
148.9838728534
 30
0.0
 11
66.7145856248
 21
148.9838728534
 31
0.0
  0
ARC
  5
E5
330
6F
100
AcDbEntity
  8
11334_INNENPROFI
  6
Continuous
 62
     7
100
AcDbCircle
 10
66.7145856248
 20
149.1838728534
 30
0.0
 40
0.1999999999999988
100
AcDbArc
 50
179.9999999992
 51
269.9999999992
  0
LINE
  5
E6
330
6F
100
AcDbEntity
  8
11334_INNENPROFI
  6
Continuous
 62
     7
100
AcDbLine
 10
66.5145856248
 20
149.1838728535
 30
0.0
 11
66.5145856249
 21
150.2838728535
 31
0.0
  0
ARC
  5
E7
330
6F
100
AcDbEntity
  8
11334_INNENPROFI
  6
Continuous
 62
     7
100
AcDbCircle
 10
66.7145856248
 20
150.2838728535
 30
0.0
 40
0.1999999999911448
100
AcDbArc
 50
89.9999999992
 51
179.9999999992
  0
LINE
  5
E8
330
6F
100
AcDbEntity
  8
11334_INNENPROFI
  6
Continuous
 62
     7
100
AcDbLine
 10
66.7145856248
 20
150.4838728535
 30
0.0
 11
67.3145856248
 21
150.4838728534
 31
0.0
  0
ARC
  5
E9
330
6F
100
AcDbEntity
  8
11334_INNENPROFI
  6
Continuous
 62
     7
100
AcDbCircle
 10
67.3145856249
 20
150.6838728534
 30
0.0
 40
0.199999999993497
100
AcDbArc
 50
269.9999999992
 51
359.9999999992
  0
LINE
  5
EA
330
6F
100
AcDbEntity
  8
11334_INNENPROFI
  6
Continuous
 62
     7
100
AcDbLine
 10
67.5145856248
 20
150.6838728534
 30
0.0
 11
67.5145856249
 21
151.2838728533
 31
0.0
  0
ARC
  5
EB
330
6F
100
AcDbEntity
  8
11334_INNENPROFI
  6
Continuous
 62
     7
100
AcDbCircle
 10
67.3145856248
 20
151.2838728533
 30
0.0
 40
0.200000000006504
100
AcDbArc
 50
0.0
 51
89.9999999981
  0
LINE
  5
EC
330
6F
100
AcDbEntity
  8
11334_INNENPROFI
  6
Continuous
 62
     7
100
AcDbLine
 10
67.3145856249
 20
151.4838728533
 30
0.0
 11
66.6757965471
 21
151.4838728533
 31
0.0
  0
ARC
  5
ED
330
6F
100
AcDbEntity
  8
11334_INNENPROFI
  6
Continuous
 62
     7
100
AcDbCircle
 10
66.6757965471
 20
151.2838728533
 30
0.0
 40
0.1999999999999988
100
AcDbArc
 50
90.0
 51
119.9999999991
  0
LINE
  5
EE
330
6F
100
AcDbEntity
  8
11334_INNENPROFI
  6
Continuous
 62
     7
100
AcDbLine
 10
66.5757965471
 20
151.4570779341
 30
0.0
 11
65.5145856249
 21
150.8443875225
 31
0.0
  0
LINE
  5
F0
330
6F
100
AcDbEntity
  8
11319_AUSSENPROF
  6
Continuous
 62
     7
100
AcDbLine
 10
73.1145856249
 20
152.4838728533
 30
0.0
 11
74.7626483127
 21
152.4838728533
 31
0.0
  0
LINE
  5
F1
330
6F
100
AcDbEntity
  8
11319_AUSSENPROF
  6
Continuous
 62
     7
100
AcDbLine
 10
74.7626483127
 20
152.4838728533
 30
0.0
 11
74.7626483127
 21
162.1838728533
 31
0.0
  0
LINE
  5
F2
330
6F
100
AcDbEntity
  8
11319_AUSSENPROF
  6
Continuous
 62
     7
100
AcDbLine
 10
74.7626483127
 20
162.1838728533
 30
0.0
 11
65.0645856249
 21
162.1838728533
 31
0.0
  0
LINE
  5
F3
330
6F
100
AcDbEntity
  8
11319_AUSSENPROF
  6
Continuous
 62
     7
100
AcDbLine
 10
65.0645856249
 20
162.1838728533
 30
0.0
 11
65.0645856249
 21
152.4838728533
 31
0.0
  0
LINE
  5
F4
330
6F
100
AcDbEntity
  8
11319_AUSSENPROF
  6
Continuous
 62
     7
100
AcDbLine
 10
65.0645856249
 20
152.4838728533
 30
0.0
 11
66.7145856249
 21
152.4838728533
 31
0.0
  0
ARC
  5
F5
330
6F
100
AcDbEntity
  8
11319_AUSSENPROF
  6
Continuous
 62
     7
100
AcDbCircle
 10
66.7145856249
 20
152.2838728533
 30
0.0
 40
0.1999999999999988
100
AcDbArc
 50
300.0
 51
90.0
  0
LINE
  5
F6
330
6F
100
AcDbEntity
  8
11319_AUSSENPROF
  6
Continuous
 62
     7
100
AcDbLine
 10
66.8145856249
 20
152.1106677726
 30
0.0
 11
65.7289449788
 21
151.4838728533
 31
0.0
  0
LINE
  5
F7
330
6F
100
AcDbEntity
  8
11319_AUSSENPROF
  6
Continuous
 62
     7
100
AcDbLine
 10
65.7289449788
 20
151.4838728533
 30
0.0
 11
64.9145856249
 21
151.4838728533
 31
0.0
  0
LINE
  5
F8
330
6F
100
AcDbEntity
  8
11319_AUSSENPROF
  6
Continuous
 62
     7
100
AcDbLine
 10
64.9145856249
 20
151.4838728533
 30
0.0
 11
64.9145856249
 21
131.7838728533
 31
0.0
  0
ARC
  5
F9
330
6F
100
AcDbEntity
  8
11319_AUSSENPROF
  6
Continuous
 62
     7
100
AcDbCircle
 10
64.6145856249
 20
131.7838728533
 30
0.0
 40
0.2999999999999999
100
AcDbArc
 50
270.0
 51
0.0
  0
LINE
  5
FA
330
6F
100
AcDbEntity
  8
11319_AUSSENPROF
  6
Continuous
 62
     7
100
AcDbLine
 10
64.6145856249
 20
131.4838728533
 30
0.0
 11
63.9145856249
 21
131.4838728533
 31
0.0
  0
LINE
  5
FB
330
6F
100
AcDbEntity
  8
11319_AUSSENPROF
  6
Continuous
 62
     7
100
AcDbLine
 10
63.9145856249
 20
131.4838728533
 30
0.0
 11
63.9145856249
 21
164.4322764183
 31
0.0
  0
LINE
  5
FC
330
6F
100
AcDbEntity
  8
11319_AUSSENPROF
  6
Continuous
 62
     7
100
AcDbLine
 10
65.0645856249
 20
164.4322764183
 30
0.0
 11
65.0645856249
 21
163.1838728533
 31
0.0
  0
LINE
  5
FD
330
6F
100
AcDbEntity
  8
11319_AUSSENPROF
  6
Continuous
 62
     7
100
AcDbLine
 10
65.0645856249
 20
163.1838728533
 30
0.0
 11
74.7626483127
 21
163.1838728533
 31
0.0
  0
LINE
  5
FE
330
6F
100
AcDbEntity
  8
11319_AUSSENPROF
  6
Continuous
 62
     7
100
AcDbLine
 10
74.7626483127
 20
163.1838728533
 30
0.0
 11
74.7626483127
 21
164.4322764183
 31
0.0
  0
LINE
  5
FF
330
6F
100
AcDbEntity
  8
11319_AUSSENPROF
  6
Continuous
 62
     7
100
AcDbLine
 10
75.9145856249
 20
164.4322764183
 30
0.0
 11
75.9145856249
 21
131.4838728533
 31
0.0
  0
LINE
  5
100
330
6F
100
AcDbEntity
  8
11319_AUSSENPROF
  6
Continuous
 62
     7
100
AcDbLine
 10
75.9145856249
 20
131.4838728533
 30
0.0
 11
75.2145856249
 21
131.4838728533
 31
0.0
  0
ARC
  5
101
330
6F
100
AcDbEntity
  8
11319_AUSSENPROF
  6
Continuous
 62
     7
100
AcDbCircle
 10
75.2145856249
 20
131.7838728533
 30
0.0
 40
0.3000000000000017
100
AcDbArc
 50
180.0
 51
270.0
  0
LINE
  5
102
330
6F
100
AcDbEntity
  8
11319_AUSSENPROF
  6
Continuous
 62
     7
100
AcDbLine
 10
74.9145856249
 20
131.7838728533
 30
0.0
 11
74.9145856249
 21
151.4838728533
 31
0.0
  0
LINE
  5
103
330
6F
100
AcDbEntity
  8
11319_AUSSENPROF
  6
Continuous
 62
     7
100
AcDbLine
 10
74.9145856249
 20
151.4838728533
 30
0.0
 11
74.1002262709
 21
151.4838728533
 31
0.0
  0
LINE
  5
104
330
6F
100
AcDbEntity
  8
11319_AUSSENPROF
  6
Continuous
 62
     7
100
AcDbLine
 10
74.1002262709
 20
151.4838728533
 30
0.0
 11
73.0145856249
 21
152.1106677726
 31
0.0
  0
ARC
  5
105
330
6F
100
AcDbEntity
  8
11319_AUSSENPROF
  6
Continuous
 62
     7
100
AcDbCircle
 10
73.1145856249
 20
152.2838728533
 30
0.0
 40
0.1999999999999958
100
AcDbArc
 50
90.0
 51
240.0
  0
LINE
  5
107
330
6F
100
AcDbEntity
  8
27508__DICHTPROFI
  6
Continuous
 62
     7
100
AcDbLine
 10
73.2212915694
 20
141.3870969646
 30
0.0
 11
73.2212915692
 21
132.2476059653
 31
0.0
  0
ARC
  5
108
330
6F
100
AcDbEntity
  8
27508__DICHTPROFI
  6
Continuous
 62
     7
100
AcDbCircle
 10
73.6212915694
 20
141.3870969646
 30
0.0
 40
0.3999999999999988
100
AcDbArc
 50
97.1885560152
 51
179.9999999992
  0
ARC
  5
109
330
6F
100
AcDbEntity
  8
27508__DICHTPROFI
  6
Continuous
 62
     7
100
AcDbCircle
 10
73.5215107741
 20
142.1808498758
 30
0.0
 40
0.4000000000000005
100
AcDbArc
 50
277.1413103461
 51
90.4268611858
  0
LINE
  5
10A
330
6F
100
AcDbEntity
  8
27508__DICHTPROFI
  6
Continuous
 62
     7
100
AcDbLine
 10
73.5185307484
 20
146.0300511583
 30
0.0
 11
73.5185307484
 21
142.580838775
 31
0.0
  0
ARC
  5
10B
330
6F
100
AcDbEntity
  8
27508__DICHTPROFI
  6
Continuous
 62
     7
100
AcDbCircle
 10
73.3185307484
 20
146.0300511583
 30
0.0
 40
0.200000000000001
100
AcDbArc
 50
0.0
 51
123.943228401
  0
LINE
  5
10C
330
6F
100
AcDbEntity
  8
27508__DICHTPROFI
  6
Continuous
 62
     7
100
AcDbLine
 10
73.0109824996
 20
146.0641329098
 30
0.0
 11
73.2068565132
 21
146.1959694068
 31
0.0
  0
ARC
  5
10D
330
6F
100
AcDbEntity
  8
27508__DICHTPROFI
  6
Continuous
 62
     7
100
AcDbCircle
 10
72.8993082644
 20
146.2300511583
 30
0.0
 40
0.2000000000000019
100
AcDbArc
 50
237.4999999992
 51
303.943228401
  0
LINE
  5
10E
330
6F
100
AcDbEntity
  8
27508__DICHTPROFI
  6
Continuous
 62
     7
100
AcDbLine
 10
71.6145841599
 20
146.8113728692
 30
0.0
 11
72.7918483427
 21
146.0613728692
 31
0.0
  0
ARC
  5
10F
330
6F
100
AcDbEntity
  8
27508__DICHTPROFI
  6
Continuous
 62
     7
100
AcDbCircle
 10
71.7220440815
 20
146.9800511584
 30
0.0
 40
0.1999999999999997
100
AcDbArc
 50
122.4999999992
 51
237.4999999992
  0
LINE
  5
110
330
6F
100
AcDbEntity
  8
27508__DICHTPROFI
  6
Continuous
 62
     7
100
AcDbLine
 10
72.7918483427
 20
147.8987294475
 30
0.0
 11
71.6145841599
 21
147.1487294475
 31
0.0
  0
ARC
  5
111
330
6F
100
AcDbEntity
  8
27508__DICHTPROFI
  6
Continuous
 62
     7
100
AcDbCircle
 10
72.8993082644
 20
147.7300511583
 30
0.0
 40
0.1999999999999948
100
AcDbArc
 50
56.0567715973
 51
122.4999999992
  0
LINE
  5
112
330
6F
100
AcDbEntity
  8
27508__DICHTPROFI
  6
Continuous
 62
     7
100
AcDbLine
 10
73.2068565132
 20
147.7641329098
 30
0.0
 11
73.0109824996
 21
147.8959694068
 31
0.0
  0
ARC
  5
113
330
6F
100
AcDbEntity
  8
27508__DICHTPROFI
  6
Continuous
 62
     7
100
AcDbCircle
 10
73.3185307485
 20
147.9300511583
 30
0.0
 40
0.2000000000000001
100
AcDbArc
 50
236.0567715973
 51
359.9999999992
  0
LINE
  5
114
330
6F
100
AcDbEntity
  8
27508__DICHTPROFI
  6
Continuous
 62
     7
100
AcDbLine
 10
73.5185307485
 20
147.9422233026
 30
0.0
 11
73.5185307485
 21
147.9300511583
 31
0.0
  0
LINE
  5
115
330
6F
100
AcDbEntity
  8
27508__DICHTPROFI
  6
Continuous
 62
     7
100
AcDbLine
 10
74.0838343564
 20
148.5075269105
 30
0.0
 11
73.5185307485
 21
147.9422233026
 31
0.0
  0
LINE
  5
116
330
6F
100
AcDbEntity
  8
27508__DICHTPROFI
  6
Continuous
 62
     7
100
AcDbLine
 10
74.5183176407
 20
148.2566778694
 30
0.0
 11
74.0838343564
 21
148.5075269105
 31
0.0
  0
LINE
  5
117
330
6F
100
AcDbEntity
  8
27508__DICHTPROFI
  6
Continuous
 62
     7
100
AcDbLine
 10
74.5183176406
 20
145.3806477299
 30
0.0
 11
74.5183176407
 21
148.2566778694
 31
0.0
  0
ARC
  5
118
330
6F
100
AcDbEntity
  8
27508__DICHTPROFI
  6
Continuous
 62
     7
100
AcDbCircle
 10
74.5183176406
 20
145.1806477299
 30
0.0
 40
0.2000000000000023
100
AcDbArc
 50
89.9999999999
 51
269.9999999993
  0
LINE
  5
119
330
6F
100
AcDbEntity
  8
27508__DICHTPROFI
  6
Continuous
 62
     7
100
AcDbLine
 10
65.3108536092
 20
144.98064773
 30
0.0
 11
65.310853609
 21
132.3871153095
 31
0.0
  0
ARC
  5
11A
330
6F
100
AcDbEntity
  8
27508__DICHTPROFI
  6
Continuous
 62
     7
100
AcDbCircle
 10
65.3108536092
 20
145.18064773
 30
0.0
 40
0.2000000000000005
100
AcDbArc
 50
269.9999999988
 51
89.9999999988
  0
LINE
  5
11B
330
6F
100
AcDbEntity
  8
27508__DICHTPROFI
  6
Continuous
 62
     7
100
AcDbLine
 10
65.3108536092
 20
148.2566778695
 30
0.0
 11
65.3108536092
 21
145.38064773
 31
0.0
  0
LINE
  5
11C
330
6F
100
AcDbEntity
  8
27508__DICHTPROFI
  6
Continuous
 62
     7
100
AcDbLine
 10
65.7453368935
 20
148.5075269106
 30
0.0
 11
65.3108536092
 21
148.2566778695
 31
0.0
  0
LINE
  5
11D
330
6F
100
AcDbEntity
  8
27508__DICHTPROFI
  6
Continuous
 62
     7
100
AcDbLine
 10
66.3106405014
 20
147.9422233027
 30
0.0
 11
65.7453368935
 21
148.5075269106
 31
0.0
  0
LINE
  5
11E
330
6F
100
AcDbEntity
  8
27508__DICHTPROFI
  6
Continuous
 62
     7
100
AcDbLine
 10
66.3106405014
 20
147.9300511584
 30
0.0
 11
66.3106405014
 21
147.9422233027
 31
0.0
  0
ARC
  5
11F
330
6F
100
AcDbEntity
  8
27508__DICHTPROFI
  6
Continuous
 62
     7
100
AcDbCircle
 10
66.5106405014
 20
147.9300511584
 30
0.0
 40
0.2000000000000005
100
AcDbArc
 50
179.9999999992
 51
303.943228401
  0
LINE
  5
120
330
6F
100
AcDbEntity
  8
27508__DICHTPROFI
  6
Continuous
 62
     7
100
AcDbLine
 10
66.8181887502
 20
147.8959694069
 30
0.0
 11
66.6223147366
 21
147.7641329099
 31
0.0
  0
ARC
  5
121
330
6F
100
AcDbEntity
  8
27508__DICHTPROFI
  6
Continuous
 62
     7
100
AcDbCircle
 10
66.9298629855
 20
147.7300511584
 30
0.0
 40
0.1999999999999985
100
AcDbArc
 50
57.4999999992
 51
123.943228401
  0
LINE
  5
122
330
6F
100
AcDbEntity
  8
27508__DICHTPROFI
  6
Continuous
 62
     7
100
AcDbLine
 10
68.21458709
 20
147.1487294476
 30
0.0
 11
67.0373229071
 21
147.8987294476
 31
0.0
  0
ARC
  5
123
330
6F
100
AcDbEntity
  8
27508__DICHTPROFI
  6
Continuous
 62
     7
100
AcDbCircle
 10
68.1071271683
 20
146.9800511584
 30
0.0
 40
0.2000000000000026
100
AcDbArc
 50
302.4999999992
 51
57.4999999992
  0
LINE
  5
124
330
6F
100
AcDbEntity
  8
27508__DICHTPROFI
  6
Continuous
 62
     7
100
AcDbLine
 10
67.0373229071
 20
146.0613728693
 30
0.0
 11
68.21458709
 21
146.8113728693
 31
0.0
  0
ARC
  5
125
330
6F
100
AcDbEntity
  8
27508__DICHTPROFI
  6
Continuous
 62
     7
100
AcDbCircle
 10
66.9298629854
 20
146.2300511584
 30
0.0
 40
0.1999999999999923
100
AcDbArc
 50
236.0567715973
 51
302.4999999992
  0
LINE
  5
126
330
6F
100
AcDbEntity
  8
27508__DICHTPROFI
  6
Continuous
 62
     7
100
AcDbLine
 10
66.6223147366
 20
146.1959694069
 30
0.0
 11
66.8181887502
 21
146.0641329099
 31
0.0
  0
ARC
  5
127
330
6F
100
AcDbEntity
  8
27508__DICHTPROFI
  6
Continuous
 62
     7
100
AcDbCircle
 10
66.5106405014
 20
146.0300511584
 30
0.0
 40
0.200000000000004
100
AcDbArc
 50
56.0567715973
 51
179.9999999992
  0
LINE
  5
128
330
6F
100
AcDbEntity
  8
27508__DICHTPROFI
  6
Continuous
 62
     7
100
AcDbLine
 10
66.3106405013
 20
142.5808387751
 30
0.0
 11
66.3106405014
 21
146.0300511584
 31
0.0
  0
ARC
  5
129
330
6F
100
AcDbEntity
  8
27508__DICHTPROFI
  6
Continuous
 62
     7
100
AcDbCircle
 10
66.3076604756
 20
142.1808498759
 30
0.0
 40
0.3999999999999742
100
AcDbArc
 50
89.5731388128
 51
262.8586896521
  0
ARC
  5
12A
330
6F
100
AcDbEntity
  8
27508__DICHTPROFI
  6
Continuous
 62
     7
100
AcDbCircle
 10
66.2078796803
 20
141.3870969647
 30
0.0
 40
0.3999999999999993
100
AcDbArc
 50
0.0
 51
82.811443983
  0
LINE
  5
12B
330
6F
100
AcDbEntity
  8
27508__DICHTPROFI
  6
Continuous
 62
     7
100
AcDbLine
 10
66.6078796802
 20
132.2476059654
 30
0.0
 11
66.6078796803
 21
141.3870969647
 31
0.0
  0
ARC
  5
12C
330
6F
100
AcDbEntity
  8
27508__DICHTPROFI
  6
Continuous
 62
     7
100
AcDbCircle
 10
67.1078796802
 20
132.2476059654
 30
0.0
 40
0.4999999999999985
100
AcDbArc
 50
179.9999999992
 51
255.078467113
  0
ARC
  5
12D
330
6F
100
AcDbEntity
  8
27508__DICHTPROFI
  6
Continuous
 62
     7
100
AcDbCircle
 10
69.9145856249
 20
142.7800511583
 30
0.0
 40
11.4
100
AcDbArc
 50
255.078467113
 51
284.9215328853
  0
ARC
  5
12E
330
6F
100
AcDbEntity
  8
27508__DICHTPROFI
  6
Continuous
 62
     7
100
AcDbCircle
 10
72.7212915692
 20
132.2476059654
 30
0.0
 40
0.5
100
AcDbArc
 50
284.9215328853
 51
359.9999999992
  0
ARC
  5
12F
330
6F
100
AcDbEntity
  8
27508__DICHTPROFI
  6
Continuous
 62
     7
100
AcDbCircle
 10
69.9145856249
 20
142.7800511583
 30
0.0
 40
12.0
100
AcDbArc
 50
250.8761023701
 51
289.1238976282
  0
ARC
  5
130
330
6F
100
AcDbEntity
  8
27508__DICHTPROFI
  6
Continuous
 62
     7
100
AcDbCircle
 10
66.310853609
 20
132.3871153095
 30
0.0
 40
1.000000000000001
100
AcDbArc
 50
179.9999999992
 51
250.8761023701
  0
LINE
  5
131
330
6F
100
AcDbEntity
  8
27508__DICHTPROFI
  6
Continuous
 62
     7
100
AcDbLine
 10
74.5183176404
 20
132.3871153093
 30
0.0
 11
74.5183176406
 21
144.9806477299
 31
0.0
  0
ARC
  5
132
330
6F
100
AcDbEntity
  8
27508__DICHTPROFI
  6
Continuous
 62
     7
100
AcDbCircle
 10
73.5183176404
 20
132.3871153093
 30
0.0
 40
0.9999999999999983
100
AcDbArc
 50
289.1238976282
 51
359.9999999992
  0
LINE
  5
134
330
6F
100
AcDbEntity
  8
29599__GLASWAND_8
  6
Continuous
 62
     7
100
AcDbLine
 10
84.7136618231
 20
132.7838725184
 30
0.0
 11
81.6763634885
 21
132.7838725184
 31
0.0
  0
LINE
  5
135
330
6F
100
AcDbEntity
  8
29599__GLASWAND_8
  6
Continuous
 62
     7
100
AcDbLine
 10
81.0509601578
 20
132.7838725184
 30
0.0
 11
77.7136618231
 21
132.7838725184
 31
0.0
  0
LINE
  5
136
330
6F
100
AcDbEntity
  8
29599__GLASWAND_8
  6
Continuous
 62
     7
100
AcDbLine
 10
77.2136618231
 20
175.338943108
 30
0.0
 11
77.2136618231
 21
194.9251741718
 31
0.0
  0
LINE
  5
137
330
6F
100
AcDbEntity
  8
29599__GLASWAND_8
  6
Continuous
 62
     7
100
AcDbLine
 10
85.2136618231
 20
194.9251741718
 30
0.0
 11
85.2136618231
 21
161.4013635164
 31
0.0
  0
LINE
  5
138
330
6F
100
AcDbEntity
  8
29599__GLASWAND_8
  6
Continuous
 62
     7
100
AcDbLine
 10
85.2136618231
 20
154.3703446174
 30
0.0
 11
85.2136618231
 21
133.2838725184
 31
0.0
  0
LINE
  5
139
330
6F
100
AcDbEntity
  8
29599__GLASWAND_8
  6
Continuous
 62
     7
100
AcDbLine
 10
77.2136618231
 20
133.2838725184
 30
0.0
 11
77.7136618231
 21
132.7838725184
 31
0.0
  0
LINE
  5
13A
330
6F
100
AcDbEntity
  8
29599__GLASWAND_8
  6
Continuous
 62
     7
100
AcDbLine
 10
84.7136618231
 20
132.7838725184
 30
0.0
 11
85.2136618231
 21
133.2838725184
 31
0.0
  0
CIRCLE
  5
13C
330
6F
100
AcDbEntity
  8
10472_AUSLÖSERKN
  6
Continuous
 62
     7
100
AcDbCircle
 10
69.9145856249
 20
156.9838728533
 30
0.0
 40
4.6
  0
ARC
  5
13D
330
6F
100
AcDbEntity
  8
10472_AUSLÖSERKN
  6
Continuous
 62
     7
100
AcDbCircle
 10
69.9145856249
 20
156.9838728533
 30
0.0
 40
2.999999999999998
100
AcDbArc
 50
293.5635514141
 51
312.7516878678
  0
ARC
  5
13E
330
6F
100
AcDbEntity
  8
10472_AUSLÖSERKN
  6
Continuous
 62
     7
100
AcDbCircle
 10
69.9145856249
 20
156.9838728533
 30
0.0
 40
3.000000000000001
100
AcDbArc
 50
23.5635514141
 51
42.7516878678
  0
ARC
  5
13F
330
6F
100
AcDbEntity
  8
10472_AUSLÖSERKN
  6
Continuous
 62
     7
100
AcDbCircle
 10
69.9145856249
 20
156.9838728533
 30
0.0
 40
3.000000000000001
100
AcDbArc
 50
113.5635514141
 51
132.7516878678
  0
ARC
  5
140
330
6F
100
AcDbEntity
  8
10472_AUSLÖSERKN
  6
Continuous
 62
     7
100
AcDbCircle
 10
69.9145856249
 20
156.9838728533
 30
0.0
 40
2.999999999999999
100
AcDbArc
 50
203.5635514141
 51
222.7516878678
  0
LINE
  5
141
330
6F
100
AcDbEntity
  8
10472_AUSLÖSERKN
  6
Continuous
 62
     7
100
AcDbLine
 10
67.164733949
 20
155.7845748251
 30
0.0
 11
68.3853598991
 21
156.5820411976
 31
0.0
  0
LINE
  5
142
330
6F
100
AcDbEntity
  8
10472_AUSLÖSERKN
  6
Continuous
 62
     7
100
AcDbLine
 10
68.7152875966
 20
159.7337245292
 30
0.0
 11
69.5127539691
 21
158.5130985791
 31
0.0
  0
LINE
  5
143
330
6F
100
AcDbEntity
  8
10472_AUSLÖSERKN
  6
Continuous
 62
     7
100
AcDbLine
 10
72.6644373008
 20
158.1831708816
 30
0.0
 11
71.4438113507
 21
157.3857045091
 31
0.0
  0
LINE
  5
144
330
6F
100
AcDbEntity
  8
10472_AUSLÖSERKN
  6
Continuous
 62
     7
100
AcDbLine
 10
71.1138836531
 20
154.2340211774
 30
0.0
 11
70.3164172806
 21
155.4546471275
 31
0.0
  0
LINE
  5
145
330
6F
100
AcDbEntity
  8
10472_AUSLÖSERKN
  6
Continuous
 62
     7
100
AcDbLine
 10
68.9323040377
 20
155.7448720933
 30
0.0
 11
67.7116780876
 21
154.9474057207
 31
0.0
  0
ARC
  5
146
330
6F
100
AcDbEntity
  8
10472_AUSLÖSERKN
  6
Continuous
 62
     7
100
AcDbCircle
 10
69.4792481763
 20
154.9077029889
 30
0.0
 40
0.9999999999999972
100
AcDbArc
 50
33.1576196409
 51
123.1576196409
  0
LINE
  5
147
330
6F
100
AcDbEntity
  8
10472_AUSLÖSERKN
  6
Continuous
 62
     7
100
AcDbLine
 10
71.1535863849
 20
156.0015912661
 30
0.0
 11
71.9510527529
 21
154.7809653231
 31
0.0
  0
ARC
  5
148
330
6F
100
AcDbEntity
  8
10472_AUSLÖSERKN
  6
Continuous
 62
     7
100
AcDbCircle
 10
71.9907554893
 20
156.5485354047
 30
0.0
 40
0.9999999999999993
100
AcDbArc
 50
123.1576196409
 51
213.1576196409
  0
LINE
  5
149
330
6F
100
AcDbEntity
  8
10472_AUSLÖSERKN
  6
Continuous
 62
     7
100
AcDbLine
 10
70.8968672121
 20
158.2228736134
 30
0.0
 11
72.1174931204
 21
159.0203399586
 31
0.0
  0
ARC
  5
14A
330
6F
100
AcDbEntity
  8
10472_AUSLÖSERKN
  6
Continuous
 62
     7
100
AcDbCircle
 10
70.3499230735
 20
159.0600427177
 30
0.0
 40
1.000000000000003
100
AcDbArc
 50
213.1576196409
 51
303.1576196409
  0
LINE
  5
14B
330
6F
100
AcDbEntity
  8
10472_AUSLÖSERKN
  6
Continuous
 62
     7
100
AcDbLine
 10
68.6755848648
 20
157.9661544405
 30
0.0
 11
67.8781184877
 21
159.1867803977
 31
0.0
  0
ARC
  5
14C
330
6F
100
AcDbEntity
  8
10472_AUSLÖSERKN
  6
Continuous
 62
     7
100
AcDbCircle
 10
67.8384157605
 20
157.4192103019
 30
0.0
 40
0.9999999999999983
100
AcDbArc
 50
303.1576196409
 51
33.1576196409
  0
ENDBLK
  5
14E
330
6F
100
AcDbEntity
  8
0
100
AcDbBlockEnd
  0
BLOCK
  5
15E
330
14F
100
AcDbEntity
  8
0
100
AcDbBlockBegin
  2
SE1
 70
     0
 10
0.0
 20
0.0
 30
0.0
  3
SE1
  1

  0
INSERT
  5
152
330
14F
100
AcDbEntity
  8
0
100
AcDbBlockReference
  2
SE2
 10
0.0
 20
0.0
 30
0.0
  0
ENDBLK
  5
15F
330
14F
100
AcDbEntity
  8
0
100
AcDbBlockEnd
  0
BLOCK
  5
15C
330
151
100
AcDbEntity
  8
0
100
AcDbBlockBegin
  2
SE2
 70
     0
 10
0.0
 20
0.0
 30
0.0
  3
SE2
  1

  0
INSERT
  5
154
330
151
100
AcDbEntity
  8
Standard
100
AcDbBlockReference
  2
SE3
 10
0.0
 20
0.0
 30
0.0
  0
ENDBLK
  5
15D
330
151
100
AcDbEntity
  8
0
100
AcDbBlockEnd
  0
BLOCK
  5
15A
330
153
100
AcDbEntity
  8
0
100
AcDbBlockBegin
  2
SE3
 70
     0
 10
0.0
 20
0.0
 30
0.0
  3
SE3
  1

  0
INSERT
  5
156
330
153
100
AcDbEntity
  8
0
100
AcDbBlockReference
  2
SE4
 10
0.0
 20
0.0
 30
0.0
  0
ENDBLK
  5
15B
330
153
100
AcDbEntity
  8
0
100
AcDbBlockEnd
  0
BLOCK
  5
158
330
155
100
AcDbEntity
  8
0
100
AcDbBlockBegin
  2
SE4
 70
     0
 10
0.0
 20
0.0
 30
0.0
  3
SE4
  1

  0
LINE
  5
157
330
155
100
AcDbEntity
  8
Standard
  6
Continuous
 62
     7
100
AcDbLine
 10
85.2136618231
 20
194.9251741718
 30
0.0
 11
77.2136618231
 21
194.9251741718
 31
0.0
  0
ENDBLK
  5
159
330
155
100
AcDbEntity
  8
0
100
AcDbBlockEnd
  0
BLOCK
  5
162
330
161
100
AcDbEntity
  8
0
100
AcDbBlockBegin
  2
_Oblique
 70
     0
 10
0.0
 20
0.0
 30
0.0
  3
_Oblique
  1

  0
LINE
  5
164
330
161
100
AcDbEntity
  8
0
  6
ByBlock
 62
     0
370
    -2
100
AcDbLine
 10
-0.5
 20
-0.5
 30
0.0
 11
0.5
 21
0.5
 31
0.0
  0
ENDBLK
  5
163
330
161
100
AcDbEntity
  8
0
100
AcDbBlockEnd
  0
BLOCK
  5
166
330
165
100
AcDbEntity
  8
0
100
AcDbBlockBegin
  2
_Dot
 70
     0
 10
0.0
 20
0.0
 30
0.0
  3
_Dot
  1

  0
LWPOLYLINE
  5
168
330
165
100
AcDbEntity
  8
0
  6
ByBlock
 62
     0
100
AcDbPolyline
 90
        2
 70
     1
 43
0.5
 10
-0.25
 20
0.0
 42
1.0
 10
0.25
 20
0.0
 42
1.0
  0
LINE
  5
169
330
165
100
AcDbEntity
  8
0
  6
ByBlock
 62
     0
370
    -2
100
AcDbLine
 10
-0.5
 20
0.0
 30
0.0
 11
-1.0
 21
0.0
 31
0.0
  0
ENDBLK
  5
167
330
165
100
AcDbEntity
  8
0
100
AcDbBlockEnd
  0
BLOCK
  5
16E
330
16A
100
AcDbEntity
  8
0
100
AcDbBlockBegin
  2
_SE_OPEN
 70
     0
 10
0.0
 20
0.0
 30
0.0
  3
_SE_OPEN
  1

  0
LINE
  5
16B
330
16A
100
AcDbEntity
  8
0
 62
     0
100
AcDbLine
 10
0.0
 20
0.0
 30
0.0
 11
-1.0
 21
-0.1665
 31
0.0
  0
LINE
  5
16C
330
16A
100
AcDbEntity
  8
0
 62
     0
100
AcDbLine
 10
-1.0
 20
0.1665
 30
0.0
 11
0.0
 21
0.0
 31
0.0
  0
LINE
  5
16D
330
16A
100
AcDbEntity
  8
0
 62
     0
100
AcDbLine
 10
0.0
 20
0.0
 30
0.0
 11
-1.0
 21
0.0
 31
0.0
  0
ENDBLK
  5
16F
330
16A
100
AcDbEntity
  8
0
100
AcDbBlockEnd
  0
BLOCK
  5
249
330
173
100
AcDbEntity
  8
0
100
AcDbBlockBegin
  2
SE5
 70
     0
 10
0.0
 20
0.0
 30
0.0
  3
SE5
  1

  0
HATCH
  5
176
330
173
100
AcDbEntity
  8
DV2_Füllung
  6
Continuous
 62
     7
100
AcDbHatch
 10
0.0
 20
0.0
 30
0.0
210
0.0
220
0.0
230
1.0
  2
SOLID
 70
     1
 71
     0
 91
        1
 92
        1
 93
       12
 72
     1
 10
155.0157450808685
 20
194.5015293900533
 11
147.0157450808686
 21
194.5015293900533
 72
     1
 10
147.0157450808685
 20
194.5015293900533
 11
147.0157450808685
 21
175.3389431080193
 72
     1
 10
147.0157450808685
 20
175.3389431080194
 11
147.0157450808685
 21
133.283872518379
 72
     1
 10
147.0157450808685
 20
133.283872518379
 11
147.5157450808685
 21
132.783872518379
 72
     1
 10
147.5157450808685
 20
132.783872518379
 11
150.8530434154892
 21
132.783872518379
 72
     1
 10
150.8530434154892
 20
132.783872518379
 11
151.4784467462477
 21
132.7838725183788
 72
     1
 10
151.4784467462477
 20
132.7838725183788
 11
154.5157450808685
 21
132.783872518379
 72
     1
 10
154.5157450808685
 20
132.783872518379
 11
155.0157450808685
 21
133.283872518379
 72
     1
 10
155.0157450808685
 20
133.283872518379
 11
155.0157450808685
 21
154.370344617421
 72
     1
 10
155.0157450808685
 20
154.370344617421
 11
154.9224077472563
 21
161.1797611104332
 72
     2
 10
155.22237956855
 20
161.183872853339
 40
0.2999999999999997
 50
179.2146903622201
 51
226.4662588056263
 73
     0
 72
     1
 10
155.0157450808692
 20
161.4013635163591
 11
155.0157450808685
 21
194.5015293900533
 97
        0
 75
     0
 76
     1
 98
        0
  0
HATCH
  5
177
330
173
100
AcDbEntity
  8
DV2_Füllung
  6
Continuous
 62
     7
100
AcDbHatch
 10
0.0
 20
0.0
 30
0.0
210
0.0
220
0.0
230
1.0
  2
SOLID
 70
     1
 71
     0
 91
        1
 92
        1
 93
       34
 72
     1
 10
146.3179185249832
 20
131.483872853335
 11
156.0226643813585
 21
131.483872853335
 72
     2
 10
156.0226643813585
 20
131.983872853335
 40
0.5000000000000004
 50
270.0
 51
360.7853096377777
 73
     1
 72
     1
 10
156.5226174168481
 20
131.9907257581782
 11
156.134429795717
 21
160.3109175551134
 72
     1
 10
156.134429795717
 20
160.3109175551134
 11
155.9673649436452
 21
160.6861841061788
 72
     2
 10
154.1402476502007
 20
159.8727700689282
 40
2.000000000000003
 50
23.99814202597082
 51
50.46509456780677
 73
     1
 72
     2
 10
155.22237956855
 20
161.183872853339
 40
0.2999999999999997
 50
50.46509456780728
 51
180.7853096377799
 73
     1
 72
     1
 10
154.9224077472562
 20
161.1797611104331
 11
155.3157450808685
 21
132.4838725183787
 72
     1
 10
155.3157450808685
 20
132.4838725183787
 11
151.8657450808685
 21
132.4838725183788
 72
     2
 10
151.8657450808685
 20
132.6838725183787
 40
0.1999999999999988
 50
90.0
 51
165.5224878140816
 73
     0
 72
     2
 10
151.4784467462477
 20
132.5838725183788
 40
0.1999999999999995
 50
14.4775121859322
 51
90.0
 73
     1
 72
     1
 10
151.4784467462477
 20
132.7838725183788
 11
150.8530434154892
 21
132.7838725183788
 72
     2
 10
150.8530434154892
 20
132.5838725183788
 40
0.1999999999999988
 50
90.0
 51
165.5224878140678
 73
     1
 72
     2
 10
150.4657450808685
 20
132.6838725183788
 40
0.1999999999999996
 50
14.47751218592434
 51
90.0
 73
     0
 72
     1
 10
150.4657450808685
 20
132.4838725183788
 11
147.0157450808685
 21
132.4838725183788
 72
     1
 10
147.0157450808685
 20
132.4838725183788
 11
147.0157450808686
 21
175.3389431080193
 72
     2
 10
146.5157450808686
 20
175.3389431080194
 40
0.5
 50
0.0
 51
104.8168401703999
 73
     1
 72
     1
 10
146.3878801247849
 20
175.8223172415906
 11
136.1392691404404
 21
173.1112946559374
 72
     2
 10
137.4179187012771
 20
168.2775533202256
 40
4.999999999999687
 50
104.8168401704009
 51
180.0000000000029
 73
     1
 72
     1
 10
132.4179187012774
 20
168.2775533202254
 11
132.4179187012771
 21
131.683872853335
 72
     2
 10
132.6179187012771
 20
131.683872853335
 40
0.2000000000000005
 50
180.0
 51
270.0
 73
     1
 72
     1
 10
132.6179187012771
 20
131.483872853335
 11
133.1154192402255
 21
131.483872853335
 72
     2
 10
133.1154192402255
 20
131.983872853335
 40
0.5000000000000004
 50
270.0
 51
360.0
 73
     1
 72
     1
 10
133.6154192402255
 20
131.983872853335
 11
133.6154192402255
 21
164.4322764182623
 72
     1
 10
133.6154192402255
 20
164.4322764182623
 11
133.1179187012774
 21
164.4322764182623
 72
     2
 10
133.1179187012774
 20
164.9322764182623
 40
0.5000000000000004
 50
89.99999999999675
 51
180.0
 73
     0
 72
     1
 10
132.6179187012774
 20
164.9322764182623
 11
132.6179187012773
 21
168.1235794030994
 72
     2
 10
137.6179187012773
 20
168.1235794030995
 40
5.000000000000003
 50
179.9999999999984
 51
255.1831598295977
 73
     0
 72
     1
 10
136.3392691404404
 20
172.9573207388116
 11
146.1878801247849
 21
175.5625329823688
 72
     2
 10
146.3157450808686
 20
175.0791588487976
 40
0.5
 50
255.1831598295938
 51
360.0
 73
     0
 72
     1
 10
146.8157450808686
 20
175.0791588487976
 11
146.8157450808689
 21
164.9322764182627
 72
     2
 10
146.3157450808689
 20
164.9322764182627
 40
0.5000000000000001
 50
0.0
 51
90.0
 73
     0
 72
     1
 10
146.3157450808689
 20
164.4322764182627
 11
145.8179185249832
 21
164.4322764182626
 72
     1
 10
145.8179185249832
 20
164.4322764182626
 11
145.8179185249832
 21
131.983872853335
 72
     2
 10
146.3179185249832
 20
131.983872853335
 40
0.5
 50
180.0
 51
270.0
 73
     1
 97
        0
 75
     0
 76
     1
 98
        0
  0
HATCH
  5
178
330
173
100
AcDbEntity
  8
DV2_Füllung
  6
Continuous
 62
     7
100
AcDbHatch
 10
0.0
 20
0.0
 30
0.0
210
0.0
220
0.0
230
1.0
  2
SOLID
 70
     1
 71
     0
 91
        1
 92
        1
 93
       24
 72
     1
 10
144.7166688826043
 20
151.4838728533349
 11
144.7166688826043
 21
131.7838728533349
 72
     2
 10
145.0166688826043
 20
131.7838728533349
 40
0.3000000000000017
 50
180.0
 51
270.0
 73
     1
 72
     1
 10
145.0166688826043
 20
131.4838728533349
 11
145.7166688826043
 21
131.4838728533349
 72
     1
 10
145.7166688826043
 20
131.4838728533349
 11
145.7166688826043
 21
164.4322764182627
 72
     1
 10
145.7166688826043
 20
164.4322764182627
 11
144.564731570472
 21
164.4322764182626
 72
     1
 10
144.564731570472
 20
164.4322764182626
 11
144.564731570472
 21
163.183872853335
 72
     1
 10
144.564731570472
 20
163.183872853335
 11
134.8666688826043
 21
163.183872853335
 72
     1
 10
134.8666688826043
 20
163.183872853335
 11
134.8666688826043
 21
164.4322764182624
 72
     1
 10
134.8666688826043
 20
164.4322764182623
 11
133.7166688826043
 21
164.4322764182623
 72
     1
 10
133.7166688826043
 20
164.4322764182623
 11
133.7166688826043
 21
131.4838728533349
 72
     1
 10
133.7166688826043
 20
131.4838728533349
 11
134.4166688826043
 21
131.483872853335
 72
     2
 10
134.4166688826043
 20
131.7838728533349
 40
0.2999999999999999
 50
270.0
 51
360.0
 73
     1
 72
     1
 10
134.7166688826043
 20
131.7838728533349
 11
134.7166688826043
 21
151.4838728533349
 72
     1
 10
134.7166688826043
 20
151.483872853335
 11
135.5310282365492
 21
151.4838728533349
 72
     1
 10
135.5310282365492
 20
151.4838728533349
 11
136.6166688826043
 21
152.110667772578
 72
     2
 10
136.5166688826043
 20
152.2838728533349
 40
0.1999999999999988
 50
300.0000000000078
 51
450.0
 73
     1
 72
     1
 10
136.5166688826043
 20
152.483872853335
 11
134.8666688826043
 21
152.4838728533349
 72
     1
 10
134.8666688826043
 20
152.4838728533349
 11
134.8666688826043
 21
162.183872853335
 72
     1
 10
134.8666688826043
 20
162.183872853335
 11
144.564731570472
 21
162.183872853335
 72
     1
 10
144.564731570472
 20
162.183872853335
 11
144.564731570472
 21
152.4838728533349
 72
     1
 10
144.564731570472
 20
152.4838728533349
 11
142.9166688826043
 21
152.4838728533349
 72
     2
 10
142.9166688826043
 20
152.2838728533349
 40
0.1999999999999958
 50
90.0
 51
239.9999999999992
 73
     1
 72
     1
 10
142.8166688826043
 20
152.1106677725781
 11
143.9023095286594
 21
151.483872853335
 72
     1
 10
143.9023095286594
 20
151.483872853335
 11
144.7166688826043
 21
151.4838728533349
 97
        0
 75
     0
 76
     1
 98
        0
  0
HATCH
  5
179
330
173
100
AcDbEntity
  8
DV2_Füllung
  6
Continuous
 62
     7
100
AcDbHatch
 10
0.0
 20
0.0
 30
0.0
210
0.0
220
0.0
230
1.0
  2
SOLID
 70
     1
 71
     0
 91
        1
 92
        1
 93
       68
 72
     1
 10
142.9167817278392
 20
136.4813251557303
 11
142.9167817279628
 21
145.0755834359094
 72
     2
 10
142.3180902387784
 20
146.9838728533663
 40
1.999999999999985
 50
287.4183112750555
 51
299.9570741787738
 73
     1
 72
     1
 10
143.3167923111309
 20
145.2510733350495
 11
143.3167923111427
 21
146.0689622448439
 72
     2
 10
143.120614006157
 20
146.0300511583399
 40
0.200000000000001
 50
11.21875437403377
 51
15.69743081443868
 73
     1
 72
     1
 10
143.3131547820339
 20
146.0841626139172
 11
143.2090997496288
 21
146.1882176463253
 72
     2
 10
143.0676783933894
 20
146.0467962900901
 40
0.2
 50
44.99999999917093
 51
64.46771102456069
 73
     1
 72
     2
 10
143.120614006157
 20
146.0300511583399
 40
0.200000000000001
 50
80.42481948802943
 51
123.9432284010087
 73
     1
 72
     1
 10
143.008939770932
 20
146.1959694068448
 11
142.8130657573083
 21
146.0641329098411
 72
     2
 10
142.7013915220833
 20
146.230051158346
 40
0.2000000000000019
 50
56.05677159899132
 51
106.681341003778
 73
     0
 72
     2
 10
142.3180902387784
 20
146.9838728533663
 40
0.9999978695709346
 50
70.98035884593264
 51
289.7719648475912
 73
     0
 72
     2
 10
142.7013915221049
 20
147.730051158346
 40
0.1999999999999948
 50
103.0100824781186
 51
416.0567715973336
 73
     1
 72
     1
 10
142.8130657573347
 20
147.8959694068476
 11
143.0089397709546
 21
147.7641329098383
 72
     2
 10
143.1206140061843
 20
147.9300511583399
 40
0.2000000000000001
 50
236.056771597345
 51
248.8442590282872
 73
     1
 72
     2
 10
143.0388487944205
 20
147.9433008034717
 40
0.1999999999999977
 50
272.7467680238758
 51
314.9999999991709
 73
     1
 72
     1
 10
143.1802701506558
 20
147.8018794472324
 11
143.3206140061845
 21
147.942223302757
 72
     1
 10
143.3206140061845
 20
147.942223302757
 11
143.8859176141461
 21
148.5075269104968
 72
     1
 10
143.8859176141461
 20
148.5075269104968
 11
144.1166688825649
 21
148.7382781791145
 72
     1
 10
144.1166688825648
 20
148.7382781791145
 11
144.1166688825951
 21
150.8443875223613
 72
     1
 10
144.1166688825951
 20
150.8443875223613
 11
143.0554579603619
 21
151.4570779339999
 72
     2
 10
142.9554579603594
 20
151.2838728532445
 40
0.2000000000000002
 50
59.99999999917109
 51
89.99999999916949
 73
     1
 72
     1
 10
142.9554579603623
 20
151.4838728532445
 11
142.3166688826043
 21
151.4838728532536
 72
     2
 10
142.3166688826014
 20
151.2838728532537
 40
0.1999999999999988
 50
89.99999999917763
 51
179.9999999991776
 73
     1
 72
     1
 10
142.1166688826014
 20
151.2838728532565
 11
142.1166688825928
 21
150.6838728533692
 72
     2
 10
142.3166688825928
 20
150.6838728533663
 40
0.1999999999999988
 50
179.9999999991776
 51
269.9999999991776
 73
     1
 72
     1
 10
142.3166688825899
 20
150.4838728533663
 11
142.9166688825988
 21
150.4838728533576
 72
     2
 10
142.9166688825959
 20
150.2838728533665
 40
0.1999999999911448
 50
270.0000000008305
 51
360.0
 73
     0
 72
     1
 10
143.116668882587
 20
150.2838728533665
 11
143.1166688825712
 21
149.1838728533548
 72
     2
 10
142.9166688825712
 20
149.1838728533577
 40
0.1999999999999988
 50
0.0000000008223642
 51
90.00000000081423
 73
     0
 72
     1
 10
142.9166688825684
 20
148.9838728533576
 11
140.9805111389869
 21
148.9838728533855
 72
     1
 10
140.9805111389869
 20
148.9838728533855
 11
140.1144857351809
 21
147.483872853398
 72
     1
 10
140.1144857351809
 20
147.483872853398
 11
139.3188520299127
 21
147.4838728534094
 72
     1
 10
139.3188520299127
 20
147.4838728534094
 11
138.4528266261498
 21
148.9838728534219
 72
     1
 10
138.4528266261498
 20
148.9838728534218
 11
136.5166688825684
 21
148.9838728534497
 72
     2
 10
136.5166688825713
 20
149.1838728534497
 40
0.1999999999999988
 50
90.00000000083051
 51
180.0000000008224
 73
     0
 72
     1
 10
136.3166688825712
 20
149.1838728534526
 11
136.3166688825871
 21
150.283872853468
 72
     2
 10
136.5166688825782
 20
150.2838728534651
 40
0.1999999999911448
 50
180.0000000008305
 51
270.0000000008142
 73
     0
 72
     1
 10
136.5166688825811
 20
150.4838728534562
 11
137.1166688825798
 21
150.4838728534476
 72
     2
 10
137.1166688825827
 20
150.6838728534411
 40
0.199999999993497
 50
269.9999999991776
 51
359.9999999991695
 73
     1
 72
     1
 10
137.3166688825762
 20
150.6838728534382
 11
137.3166688825848
 21
151.2838728533256
 72
     2
 10
137.1166688825783
 20
151.2838728533285
 40
0.200000000006504
 50
0.0
 51
89.99999999813544
 73
     1
 72
     1
 10
137.1166688825848
 20
151.483872853335
 11
136.4778798048416
 21
151.4838728533349
 72
     2
 10
136.4778798048416
 20
151.2838728533349
 40
0.1999999999999988
 50
90.0
 51
119.9999999991322
 73
     1
 72
     1
 10
136.3778798048443
 20
151.4570779340933
 11
135.3166688825951
 21
150.8443875224873
 72
     1
 10
135.3166688825951
 20
150.8443875224873
 11
135.3166688825648
 21
148.7382781792411
 72
     1
 10
135.3166688825648
 20
148.7382781792411
 11
135.5474201511825
 21
148.5075269106167
 72
     1
 10
135.5474201511825
 20
148.5075269106167
 11
136.1127237591278
 21
147.9422233026552
 72
     1
 10
136.1127237591278
 20
147.9422233026552
 11
136.253067614447
 21
147.801879447332
 72
     2
 10
136.3944889706863
 20
147.9433008035673
 40
0.1999999999999978
 50
224.9999999991767
 51
267.253232029036
 73
     1
 72
     2
 10
136.3127237591276
 20
147.9300511584378
 40
0.2000000000000005
 50
68.84425903494784
 51
416.0567715989914
 73
     0
 72
     1
 10
136.4243979943526
 20
147.764132909933
 11
136.6202720079763
 21
147.8959694069366
 72
     2
 10
136.7319462432012
 20
147.7300511584318
 40
0.1999999999999985
 50
236.0567715989913
 51
283.0100824327982
 73
     0
 72
     2
 10
137.1152475263008
 20
146.9838728534411
 40
0.9999978695709382
 50
250.2280351565306
 51
469.0196411518467
 73
     0
 72
     2
 10
136.7319462431797
 20
146.2300511584318
 40
0.1999999999999923
 50
286.6813409614591
 51
596.056771597345
 73
     1
 72
     1
 10
136.6202720079499
 20
146.0641329099302
 11
136.42439799433
 21
146.1959694069395
 72
     2
 10
136.3127237591003
 20
146.0300511584378
 40
0.200000000000004
 50
56.05677159734277
 51
104.9963040663533
 73
     1
 72
     2
 10
136.361354768444
 20
146.0502559102434
 40
0.1999999999999982
 50
120.1265642406832
 51
134.9999999991767
 73
     1
 72
     1
 10
136.2199334122087
 20
146.1916772664828
 11
136.123725023751
 21
146.0954688780278
 72
     2
 10
136.3127237591003
 20
146.0300511584378
 40
0.200000000000004
 50
160.9078398182901
 51
168.7812459269114
 73
     1
 72
     1
 10
136.1165454539102
 20
146.0689622439114
 11
136.1165454538984
 21
145.2510733351531
 72
     2
 10
137.1152475263008
 20
146.9838728534411
 40
1.999999999999984
 50
240.0429258195786
 51
252.581688723296
 73
     1
 72
     1
 10
136.5165560370615
 20
145.0755834360014
 11
136.5165560369379
 21
136.4813251558233
 72
     2
 10
137.0164116633299
 20
136.4933398453461
 40
0.5000000000000272
 50
181.3769145329238
 51
358.6230854654245
 73
     1
 72
     1
 10
137.5162672897215
 20
136.4813251558089
 11
137.5162672898444
 21
145.0244894940019
 72
     2
 10
137.1152475263008
 20
146.9838728534411
 40
1.999999999999984
 50
281.5667771069468
 51
345.5224878132458
 73
     1
 72
     1
 10
139.0517391993973
 20
146.4838728534133
 11
140.3815985656675
 21
146.4838728533941
 72
     2
 10
142.3180902387784
 20
146.9838728533663
 40
1.999999999999984
 50
194.4775121851052
 51
258.4332228914059
 73
     1
 72
     1
 10
141.9170704751785
 20
145.0244894939386
 11
141.9170704750557
 21
136.4813251557457
 72
     2
 10
142.4169261014476
 20
136.4933398452684
 40
0.5000000000000262
 50
181.3769145329174
 51
358.6230854653203
 73
     1
 97
        0
 75
     0
 76
     1
 98
        0
  0
HATCH
  5
17A
330
173
100
AcDbEntity
  8
DV2_Füllung
  6
Continuous
 62
     7
100
AcDbHatch
 10
0.0
 20
0.0
 30
0.0
210
0.0
220
0.0
230
1.0
  2
SOLID
 70
     1
 71
     0
 91
        1
 92
        1
 93
        4
 72
     2
 10
139.7166688826044
 20
156.9838728533351
 40
2.999999999999999
 50
203.5635514140635
 51
222.7516878677849
 73
     1
 72
     1
 10
137.5137613453216
 20
154.9474057207295
 11
138.3111025663798
 21
155.4683292773549
 72
     2
 10
139.7166688826044
 20
156.9838728533351
 40
2.067000000000002
 50
132.8438818307345
 51
160.840878887417
 73
     0
 72
     1
 10
137.7641584277757
 20
156.3054983816861
 11
136.9668172067175
 21
155.7845748250607
 97
        0
 75
     0
 76
     1
 98
        0
  0
HATCH
  5
17B
330
173
100
AcDbEntity
  8
DV2_Füllung
  6
Continuous
 62
     7
100
AcDbHatch
 10
0.0
 20
0.0
 30
0.0
210
0.0
220
0.0
230
1.0
  2
SOLID
 70
     1
 71
     0
 91
        1
 92
        1
 93
       16
 72
     1
 10
138.1874431568055
 20
156.5820411975947
 11
137.7641584277757
 21
156.3054983816861
 72
     2
 10
139.7166688826044
 20
156.9838728533351
 40
2.067000000000002
 50
199.159121112583
 51
227.1561181692655
 73
     1
 72
     1
 10
138.3111025663797
 20
155.4683292773549
 11
138.7343872954095
 21
155.7448720932635
 72
     2
 10
139.2813314340135
 20
154.9077029889323
 40
0.9999999999999972
 50
236.8423803590753
 51
326.8423803590758
 73
     0
 72
     1
 10
140.1185005383447
 20
155.4546471275362
 11
140.3950433542533
 21
155.0313623985065
 72
     2
 10
139.7166688826044
 20
156.9838728533351
 40
2.067000000000001
 50
289.1591211125823
 51
317.156118169265
 73
     1
 72
     1
 10
141.2322124585845
 20
155.5783065371105
 11
140.9556696426759
 21
156.0015912661403
 72
     2
 10
141.7928387470072
 20
156.5485354047442
 40
0.9999999999999993
 50
146.8423803590758
 51
236.8423803590767
 73
     0
 72
     1
 10
141.2458946084032
 20
157.3857045090755
 11
141.669179337433
 21
157.662247324984
 72
     2
 10
139.7166688826044
 20
156.9838728533351
 40
2.066999999999999
 50
19.15912111258179
 51
47.156118169265
 73
     1
 72
     1
 10
141.122235198829
 20
158.4994164293153
 11
140.6989504697992
 21
158.2228736134067
 72
     2
 10
140.1520063311952
 20
159.0600427177379
 40
1.000000000000003
 50
56.84238035907534
 51
146.8423803590744
 73
     0
 72
     1
 10
139.314837226864
 20
158.5130985791339
 11
139.0382944109554
 21
158.9363833081637
 72
     2
 10
139.7166688826044
 20
156.9838728533351
 40
2.066999999999999
 50
109.1591211125833
 51
137.1561181692656
 73
     1
 72
     1
 10
138.2011253066242
 20
158.3894391695597
 11
138.4776681225328
 21
157.9661544405299
 72
     2
 10
137.6404990182015
 20
157.4192103019259
 40
0.9999999999999983
 50
326.8423803590767
 51
416.8423803590767
 73
     0
 97
        0
 75
     0
 76
     1
 98
        0
  0
HATCH
  5
17C
330
173
100
AcDbEntity
  8
DV2_Füllung
  6
Continuous
 62
     7
100
AcDbHatch
 10
0.0
 20
0.0
 30
0.0
210
0.0
220
0.0
230
1.0
  2
SOLID
 70
     1
 71
     0
 91
        1
 92
        1
 93
        4
 72
     2
 10
139.7166688826044
 20
156.9838728533351
 40
3.000000000000001
 50
113.5635514140635
 51
132.7516878677846
 73
     1
 72
     1
 10
137.6802017499988
 20
159.1867803906179
 11
138.2011253066242
 21
158.3894391695597
 72
     2
 10
139.7166688826044
 20
156.9838728533351
 40
2.066999999999999
 50
222.8438818307344
 51
250.8408788874167
 73
     0
 72
     1
 10
139.0382944109554
 20
158.9363833081637
 11
138.51737085433
 21
159.7337245292219
 97
        0
 75
     0
 76
     1
 98
        0
  0
HATCH
  5
17D
330
173
100
AcDbEntity
  8
DV2_Füllung
  6
Continuous
 62
     7
100
AcDbHatch
 10
0.0
 20
0.0
 30
0.0
210
0.0
220
0.0
230
1.0
  2
SOLID
 70
     1
 71
     0
 91
        1
 92
        1
 93
        4
 72
     2
 10
139.7166688826044
 20
156.9838728533351
 40
2.066999999999999
 50
312.843881830735
 51
340.8408788874183
 73
     0
 72
     1
 10
141.669179337433
 20
157.662247324984
 11
142.4665205584911
 21
158.1831708816094
 72
     2
 10
139.7166688826044
 20
156.9838728533351
 40
3.000000000000001
 50
23.56355141406301
 51
42.75168786778453
 73
     1
 72
     1
 10
141.9195764198871
 20
159.0203399859406
 11
141.1222351988289
 21
158.4994164293152
 97
        0
 75
     0
 76
     1
 98
        0
  0
HATCH
  5
17E
330
173
100
AcDbEntity
  8
DV2_Füllung
  6
Continuous
 62
     7
100
AcDbHatch
 10
0.0
 20
0.0
 30
0.0
210
0.0
220
0.0
230
1.0
  2
SOLID
 70
     1
 71
     0
 91
        2
 92
        1
 93
        1
 72
     3
 10
139.7166688826044
 20
156.9838728533351
 11
4.6
 21
0.0
 40
1.0
 50
0.0
 51
360.0
 73
     1
 97
        0
 92
        1
 93
       16
 72
     1
 10
137.5137613453216
 20
154.9474057207295
 11
138.7343872954095
 21
155.7448720932635
 72
     2
 10
139.2813314340135
 20
154.9077029889323
 40
0.9999999999999972
 50
236.8423803590753
 51
326.8423803590758
 73
     0
 72
     1
 10
140.1185005383447
 20
155.4546471275362
 11
140.9159669108786
 21
154.2340211774483
 72
     2
 10
139.7166688826044
 20
156.9838728533351
 40
2.999999999999998
 50
293.5635514140637
 51
312.7516878677838
 73
     1
 72
     1
 10
141.7531360152099
 20
154.7809653160523
 11
140.955669642676
 21
156.0015912661403
 72
     2
 10
141.7928387470072
 20
156.5485354047442
 40
0.9999999999999993
 50
146.8423803590758
 51
236.8423803590767
 73
     0
 72
     1
 10
141.2458946084032
 20
157.3857045090755
 11
142.4665205584911
 21
158.1831708816094
 72
     2
 10
139.7166688826044
 20
156.9838728533351
 40
3.000000000000001
 50
23.56355141406301
 51
42.75168786778453
 73
     1
 72
     1
 10
141.9195764198871
 20
159.0203399859406
 11
140.6989504697991
 21
158.2228736134067
 72
     2
 10
140.1520063311952
 20
159.0600427177379
 40
1.000000000000003
 50
56.84238035907534
 51
146.8423803590744
 73
     0
 72
     1
 10
139.314837226864
 20
158.5130985791339
 11
138.51737085433
 21
159.7337245292218
 72
     2
 10
139.7166688826044
 20
156.9838728533351
 40
3.000000000000001
 50
113.5635514140635
 51
132.7516878677846
 73
     1
 72
     1
 10
137.6802017499988
 20
159.1867803906179
 11
138.4776681225327
 21
157.9661544405299
 72
     2
 10
137.6404990182015
 20
157.4192103019259
 40
0.9999999999999983
 50
326.8423803590767
 51
416.8423803590767
 73
     0
 72
     1
 10
138.1874431568055
 20
156.5820411975947
 11
136.9668172067176
 21
155.7845748250608
 72
     2
 10
139.7166688826044
 20
156.9838728533351
 40
2.999999999999999
 50
203.5635514140635
 51
222.7516878677849
 73
     1
 97
        0
 75
     0
 76
     1
 98
        0
  0
HATCH
  5
17F
330
173
100
AcDbEntity
  8
DV2_Füllung
  6
Continuous
 62
     7
100
AcDbHatch
 10
0.0
 20
0.0
 30
0.0
210
0.0
220
0.0
230
1.0
  2
SOLID
 70
     1
 71
     0
 91
        1
 92
        1
 93
        4
 72
     2
 10
139.7166688826044
 20
156.9838728533351
 40
2.067000000000001
 50
42.84388183073501
 51
70.84087888741774
 73
     0
 72
     1
 10
140.3950433542533
 20
155.0313623985065
 11
140.9159669108787
 21
154.2340211774483
 72
     2
 10
139.7166688826044
 20
156.9838728533351
 40
2.999999999999998
 50
293.5635514140637
 51
312.7516878677838
 73
     1
 72
     1
 10
141.7531360152099
 20
154.7809653160523
 11
141.2322124585845
 21
155.5783065371105
 97
        0
 75
     0
 76
     1
 98
        0
  0
HATCH
  5
180
330
173
100
AcDbEntity
  8
DV2_Füllung
  6
Continuous
 62
     7
100
AcDbHatch
 10
0.0
 20
0.0
 30
0.0
210
0.0
220
0.0
230
1.0
  2
SOLID
 70
     1
 71
     0
 91
        1
 92
        1
 93
        1
 72
     3
 10
139.7157450808688
 20
168.7303693380432
 11
3.065933786798643
 21
0.0
 40
1.0
 50
0.0
 51
360.0
 73
     1
 97
        0
 75
     0
 76
     1
 98
        0
  0
HATCH
  5
181
330
173
100
AcDbEntity
  8
DV2_Füllung
  6
Continuous
 62
     7
100
AcDbHatch
 10
0.0
 20
0.0
 30
0.0
210
0.0
220
0.0
230
1.0
  2
SOLID
 70
     1
 71
     0
 91
        1
 92
        1
 93
       14
 72
     1
 10
146.8157450808689
 20
164.9322764182627
 11
146.8157450808686
 21
175.0791588487976
 72
     2
 10
146.3157450808686
 20
175.0791588487976
 40
0.5
 50
0.0
 51
104.8168401704062
 73
     1
 72
     1
 10
146.1878801247849
 20
175.5625329823688
 11
136.3392691404404
 21
172.9573207388116
 72
     2
 10
137.6179187012773
 20
168.1235794030995
 40
5.000000000000003
 50
104.8168401704023
 51
180.0000000000016
 73
     1
 72
     1
 10
132.6179187012773
 20
168.1235794030994
 11
132.6179187012774
 21
164.9322764182623
 72
     2
 10
133.1179187012774
 20
164.9322764182623
 40
0.5000000000000004
 50
180.0
 51
270.0000000000032
 73
     1
 72
     1
 10
133.1179187012774
 20
164.4322764182623
 11
135.2157450808689
 21
164.4322764182623
 72
     1
 10
135.2157450808689
 20
164.4322764182623
 11
135.2157450808689
 21
164.2322764182623
 72
     1
 10
135.2157450808689
 20
164.2322764182624
 11
135.2157450808689
 21
163.2322764182624
 72
     1
 10
135.2157450808689
 20
163.2322764182624
 11
144.2157450808689
 21
163.2322764182626
 72
     1
 10
144.2157450808689
 20
163.2322764182626
 11
144.2157450808689
 21
164.2322764182626
 72
     1
 10
144.2157450808689
 20
164.2322764182626
 11
144.2157450808689
 21
164.4322764182626
 72
     1
 10
144.2157450808689
 20
164.4322764182626
 11
146.3157450808689
 21
164.4322764182627
 72
     2
 10
146.3157450808689
 20
164.9322764182627
 40
0.5000000000000001
 50
270.0
 51
360.0
 73
     1
 97
        0
 75
     0
 76
     1
 98
        0
  0
HATCH
  5
182
330
173
100
AcDbEntity
  8
DV2_Füllung
  6
Continuous
 62
     7
100
AcDbHatch
 10
0.0
 20
0.0
 30
0.0
210
0.0
220
0.0
230
1.0
  2
SOLID
 70
     1
 71
     0
 91
        1
 92
        1
 93
       44
 72
     1
 10
135.1129368669349
 20
148.2566778695063
 11
135.1129368668935
 21
145.3806477300419
 72
     2
 10
135.1129368668893
 20
145.1806477300419
 40
0.2000000000000005
 50
270.0000000011969
 51
450.0000000011969
 73
     0
 72
     1
 10
135.1129368668851
 20
144.9806477300419
 11
135.112936866704
 21
132.387115309465
 72
     2
 10
136.112936866704
 20
132.3871153094507
 40
1.000000000000001
 50
179.999999999176
 51
250.8761023701492
 73
     1
 72
     2
 10
139.7166688825819
 20
142.780051158273
 40
12.0
 50
250.8761023701477
 51
289.1238976282049
 73
     1
 72
     2
 10
143.3204008981609
 20
132.3871153093471
 40
0.9999999999999983
 50
289.1238976282028
 51
359.999999999176
 73
     1
 72
     1
 10
144.3204008981609
 20
132.3871153093327
 11
144.320400898342
 21
144.9806477299095
 72
     2
 10
144.3204008983446
 20
145.1806477299095
 40
0.2000000000000023
 50
90.00000000074095
 51
270.0000000001465
 73
     0
 72
     1
 10
144.3204008983451
 20
145.3806477299095
 11
144.3204008983865
 21
148.2566778693739
 72
     1
 10
144.3204008983865
 20
148.2566778693739
 11
143.885917614146
 21
148.5075269104968
 72
     1
 10
143.8859176141461
 20
148.5075269104968
 11
143.3206140061844
 21
147.9422233025515
 72
     1
 10
143.3206140061844
 20
147.9422233025515
 11
143.3206140061843
 21
147.9300511583371
 72
     2
 10
143.1206140061843
 20
147.9300511583399
 40
0.2000000000000001
 50
0.0000000008223642
 51
123.943228402655
 73
     0
 72
     1
 10
143.0089397709546
 20
147.7641329098383
 11
142.8130657573347
 21
147.8959694068476
 72
     2
 10
142.7013915221049
 20
147.730051158346
 40
0.1999999999999948
 50
56.05677159733367
 51
122.4999999991786
 73
     1
 72
     1
 10
142.593931600438
 20
147.89872944751
 11
141.4166674175891
 21
147.148729447527
 72
     2
 10
141.524127339256
 20
146.9800511583629
 40
0.1999999999999997
 50
122.4999999991742
 51
237.4999999991747
 73
     1
 72
     1
 10
141.4166674175842
 20
146.8113728692018
 11
142.5939316004115
 21
146.0613728691849
 72
     2
 10
142.7013915220833
 20
146.230051158346
 40
0.2000000000000019
 50
237.4999999991859
 51
303.9432284010087
 73
     1
 72
     1
 10
142.8130657573083
 20
146.0641329098411
 11
143.008939770932
 21
146.1959694068448
 72
     2
 10
143.120614006157
 20
146.0300511583399
 40
0.200000000000001
 50
236.0567715989913
 51
360.0
 73
     0
 72
     1
 10
143.3206140061569
 20
146.0300511583399
 11
143.3206140061073
 21
142.5808387749922
 72
     2
 10
143.3235940317961
 20
142.1808498758376
 40
0.4000000000000005
 50
269.5731388142163
 51
442.8586896539304
 73
     0
 72
     2
 10
143.4233748270936
 20
141.3870969646005
 40
0.3999999999999988
 50
97.18855601517483
 51
179.9999999991736
 73
     1
 72
     1
 10
143.0233748270936
 20
141.3870969646063
 11
143.0233748269622
 21
132.2476059653498
 72
     2
 10
142.5233748269622
 20
132.247605965357
 40
0.5
 50
0.0000000008239927
 51
75.07846711469394
 73
     0
 72
     2
 10
139.7166688825819
 20
142.780051158273
 40
11.4
 50
75.07846711469703
 51
104.921532886956
 73
     0
 72
     2
 10
136.9099629378977
 20
132.2476059654379
 40
0.4999999999999985
 50
104.921532886958
 51
180.0000000008273
 73
     0
 72
     1
 10
136.4099629378977
 20
132.2476059654452
 11
136.4099629380291
 21
141.3870969647014
 72
     2
 10
136.0099629380291
 20
141.3870969647071
 40
0.3999999999999993
 50
0.0
 51
82.81144398303562
 73
     1
 72
     2
 10
136.1097437333519
 20
142.180849875941
 40
0.3999999999999742
 50
97.14131034792027
 51
270.4268611872331
 73
     0
 72
     1
 10
136.1127237590507
 20
142.5808387750955
 11
136.1127237591003
 21
146.0300511584407
 72
     2
 10
136.3127237591003
 20
146.0300511584378
 40
0.200000000000004
 50
180.0000000008305
 51
303.9432284026572
 73
     0
 72
     1
 10
136.42439799433
 20
146.1959694069395
 11
136.6202720079499
 21
146.0641329099302
 72
     2
 10
136.7319462431797
 20
146.2300511584318
 40
0.1999999999999923
 50
236.056771597345
 51
302.4999999991742
 73
     1
 72
     1
 10
136.8394061648466
 20
146.0613728692677
 11
138.0166703476955
 21
146.8113728692507
 72
     2
 10
137.9092104260286
 20
146.9800511584149
 40
0.2000000000000026
 50
302.4999999991742
 51
417.4999999991859
 73
     1
 72
     1
 10
138.0166703477003
 20
147.1487294475759
 11
136.839406164873
 21
147.8987294475928
 72
     2
 10
136.7319462432012
 20
147.7300511584318
 40
0.1999999999999985
 50
57.49999999917906
 51
123.9432284010087
 73
     1
 72
     1
 10
136.6202720079763
 20
147.8959694069367
 11
136.4243979943526
 21
147.764132909933
 72
     2
 10
136.3127237591276
 20
147.9300511584378
 40
0.2000000000000005
 50
56.05677159899132
 51
180.0000000008224
 73
     0
 72
     1
 10
136.1127237591276
 20
147.9300511584407
 11
136.1127237591278
 21
147.9422233026552
 72
     1
 10
136.1127237591278
 20
147.9422233026552
 11
135.5474201511825
 21
148.5075269106167
 72
     1
 10
135.5474201511825
 20
148.5075269106167
 11
135.1129368669348
 21
148.2566778695063
 97
        0
 75
     0
 76
     1
 98
        0
  0
LINE
  5
183
330
173
100
AcDbEntity
  8
11379_AUSSENPROF
  6
Continuous
 62
     7
100
AcDbLine
 10
155.3157450809
 20
132.4838725184
 30
0.0
 11
151.8657450809
 21
132.4838725184
 31
0.0
  0
LINE
  5
184
330
173
100
AcDbEntity
  8
11379_AUSSENPROF
  6
Continuous
 62
     7
100
AcDbLine
 10
147.0157450809
 20
132.4838725184
 30
0.0
 11
147.0157450809
 21
175.338943108
 31
0.0
  0
ARC
  5
185
330
173
100
AcDbEntity
  8
11379_AUSSENPROF
  6
Continuous
 62
     7
100
AcDbCircle
 10
137.4179187013
 20
168.2775533202
 30
0.0
 40
4.999999999999687
100
AcDbArc
 50
104.8168401704
 51
180.0
  0
LINE
  5
186
330
173
100
AcDbEntity
  8
11379_AUSSENPROF
  6
Continuous
 62
     7
100
AcDbLine
 10
132.4179187013
 20
168.2775533202
 30
0.0
 11
132.4179187013
 21
131.6838728533
 31
0.0
  0
LINE
  5
187
330
173
100
AcDbEntity
  8
11379_AUSSENPROF
  6
Continuous
 62
     7
100
AcDbLine
 10
146.3878801248
 20
175.8223172416
 30
0.0
 11
136.1392691404
 21
173.1112946559
 31
0.0
  0
ARC
  5
188
330
173
100
AcDbEntity
  8
11379_AUSSENPROF
  6
Continuous
 62
     7
100
AcDbCircle
 10
146.5157450809
 20
175.338943108
 30
0.0
 40
0.5
100
AcDbArc
 50
0.0
 51
104.8168401704
  0
LINE
  5
189
330
173
100
AcDbEntity
  8
11379_AUSSENPROF
  6
Continuous
 62
     7
100
AcDbLine
 10
145.817918525
 20
164.4322764183
 30
0.0
 11
145.817918525
 21
131.9838728533
 31
0.0
  0
LINE
  5
18A
330
173
100
AcDbEntity
  8
11379_AUSSENPROF
  6
Continuous
 62
     7
100
AcDbLine
 10
154.9224077473
 20
161.1797611104
 30
0.0
 11
155.3157450809
 21
132.4838725184
 31
0.0
  0
LINE
  5
18B
330
173
100
AcDbEntity
  8
11379_AUSSENPROF
  6
Continuous
 62
     7
100
AcDbLine
 10
156.1344297957
 20
160.3109175551
 30
0.0
 11
155.9673649436
 21
160.6861841062
 31
0.0
  0
ARC
  5
18C
330
173
100
AcDbEntity
  8
11379_AUSSENPROF
  6
Continuous
 62
     7
100
AcDbCircle
 10
154.1402476502
 20
159.8727700689
 30
0.0
 40
2.000000000000003
100
AcDbArc
 50
23.998142026
 51
50.4650945678
  0
ARC
  5
18D
330
173
100
AcDbEntity
  8
11379_AUSSENPROF
  6
Continuous
 62
     7
100
AcDbCircle
 10
155.2223795685
 20
161.1838728533
 30
0.0
 40
0.2999999999999997
100
AcDbArc
 50
50.4650945678
 51
180.7853096378
  0
LINE
  5
18E
330
173
100
AcDbEntity
  8
11379_AUSSENPROF
  6
Continuous
 62
     7
100
AcDbLine
 10
156.5226174168
 20
131.9907257582
 30
0.0
 11
156.1344297957
 21
160.3109175551
 31
0.0
  0
ARC
  5
18F
330
173
100
AcDbEntity
  8
11379_AUSSENPROF
  6
Continuous
 62
     7
100
AcDbCircle
 10
156.0226643814
 20
131.9838728533
 30
0.0
 40
0.5000000000000004
100
AcDbArc
 50
270.0
 51
0.7853096378
  0
LINE
  5
190
330
173
100
AcDbEntity
  8
11379_AUSSENPROF
  6
Continuous
 62
     7
100
AcDbLine
 10
146.317918525
 20
131.4838728533
 30
0.0
 11
156.0226643814
 21
131.4838728533
 31
0.0
  0
ARC
  5
191
330
173
100
AcDbEntity
  8
11379_AUSSENPROF
  6
Continuous
 62
     7
100
AcDbCircle
 10
146.317918525
 20
131.9838728533
 30
0.0
 40
0.5
100
AcDbArc
 50
180.0
 51
270.0
  0
ARC
  5
192
330
173
100
AcDbEntity
  8
11379_AUSSENPROF
  6
Continuous
 62
     7
100
AcDbCircle
 10
151.8657450809
 20
132.6838725184
 30
0.0
 40
0.1999999999999988
100
AcDbArc
 50
194.4775121859
 51
270.0
  0
LINE
  5
193
330
173
100
AcDbEntity
  8
11379_AUSSENPROF
  6
Continuous
 62
     7
100
AcDbLine
 10
150.4657450809
 20
132.4838725184
 30
0.0
 11
147.0157450809
 21
132.4838725184
 31
0.0
  0
ARC
  5
194
330
173
100
AcDbEntity
  8
11379_AUSSENPROF
  6
Continuous
 62
     7
100
AcDbCircle
 10
150.4657450809
 20
132.6838725184
 30
0.0
 40
0.1999999999999996
100
AcDbArc
 50
270.0
 51
345.5224878141
  0
ARC
  5
195
330
173
100
AcDbEntity
  8
11379_AUSSENPROF
  6
Continuous
 62
     7
100
AcDbCircle
 10
150.8530434155
 20
132.5838725184
 30
0.0
 40
0.1999999999999988
100
AcDbArc
 50
90.0
 51
165.5224878141
  0
LINE
  5
196
330
173
100
AcDbEntity
  8
11379_AUSSENPROF
  6
Continuous
 62
     7
100
AcDbLine
 10
151.4784467462
 20
132.7838725184
 30
0.0
 11
150.8530434155
 21
132.7838725184
 31
0.0
  0
ARC
  5
197
330
173
100
AcDbEntity
  8
11379_AUSSENPROF
  6
Continuous
 62
     7
100
AcDbCircle
 10
151.4784467462
 20
132.5838725184
 30
0.0
 40
0.1999999999999995
100
AcDbArc
 50
14.4775121859
 51
90.0
  0
LINE
  5
198
330
173
100
AcDbEntity
  8
11379_AUSSENPROF
  6
Continuous
 62
     7
100
AcDbLine
 10
133.6154192402
 20
131.9838728533
 30
0.0
 11
133.6154192402
 21
164.4322764183
 31
0.0
  0
ARC
  5
199
330
173
100
AcDbEntity
  8
11379_AUSSENPROF
  6
Continuous
 62
     7
100
AcDbCircle
 10
133.1154192402
 20
131.9838728533
 30
0.0
 40
0.5000000000000004
100
AcDbArc
 50
270.0
 51
0.0
  0
LINE
  5
19A
330
173
100
AcDbEntity
  8
11379_AUSSENPROF
  6
Continuous
 62
     7
100
AcDbLine
 10
132.6179187013
 20
131.4838728533
 30
0.0
 11
133.1154192402
 21
131.4838728533
 31
0.0
  0
ARC
  5
19B
330
173
100
AcDbEntity
  8
11379_AUSSENPROF
  6
Continuous
 62
     7
100
AcDbCircle
 10
132.6179187013
 20
131.6838728533
 30
0.0
 40
0.2000000000000005
100
AcDbArc
 50
180.0
 51
270.0
  0
LINE
  5
19C
330
173
100
AcDbEntity
  8
19337_BEFESTIGUN
  6
Continuous
 62
     7
100
AcDbLine
 10
132.6179187013
 20
168.1235794031
 30
0.0
 11
132.6179187013
 21
164.9322764183
 31
0.0
  0
ARC
  5
19D
330
173
100
AcDbEntity
  8
19337_BEFESTIGUN
  6
Continuous
 62
     7
100
AcDbCircle
 10
146.3157450809
 20
175.0791588488
 30
0.0
 40
0.5
100
AcDbArc
 50
0.0
 51
104.8168401704
  0
LINE
  5
19E
330
173
100
AcDbEntity
  8
19337_BEFESTIGUN
  6
Continuous
 62
     7
100
AcDbLine
 10
146.1878801248
 20
175.5625329824
 30
0.0
 11
136.3392691404
 21
172.9573207388
 31
0.0
  0
ARC
  5
19F
330
173
100
AcDbEntity
  8
19337_BEFESTIGUN
  6
Continuous
 62
     7
100
AcDbCircle
 10
137.6179187013
 20
168.1235794031
 30
0.0
 40
5.000000000000003
100
AcDbArc
 50
104.8168401704
 51
180.0
  0
LINE
  5
1A0
330
173
100
AcDbEntity
  8
19337_BEFESTIGUN
  6
Continuous
 62
     7
100
AcDbLine
 10
144.2157450809
 20
164.4322764183
 30
0.0
 11
146.3157450809
 21
164.4322764183
 31
0.0
  0
LINE
  5
1A1
330
173
100
AcDbEntity
  8
19337_BEFESTIGUN
  6
Continuous
 62
     7
100
AcDbLine
 10
135.2157450809
 20
164.4322764183
 30
0.0
 11
133.1179187013
 21
164.4322764183
 31
0.0
  0
LINE
  5
1A2
330
173
100
AcDbEntity
  8
19337_BEFESTIGUN
  6
Continuous
 62
     7
100
AcDbLine
 10
144.2157450809
 20
164.4322764183
 30
0.0
 11
144.2157450809
 21
164.2322764183
 31
0.0
  0
LINE
  5
1A3
330
173
100
AcDbEntity
  8
19337_BEFESTIGUN
  6
Continuous
 62
     7
100
AcDbLine
 10
135.2157450809
 20
163.2322764183
 30
0.0
 11
144.2157450809
 21
163.2322764183
 31
0.0
  0
LINE
  5
1A4
330
173
100
AcDbEntity
  8
19337_BEFESTIGUN
  6
Continuous
 62
     7
100
AcDbLine
 10
144.2157450809
 20
163.2322764183
 30
0.0
 11
144.2157450809
 21
164.2322764183
 31
0.0
  0
LINE
  5
1A5
330
173
100
AcDbEntity
  8
19337_BEFESTIGUN
  6
Continuous
 62
     7
100
AcDbLine
 10
135.2157450809
 20
164.2322764183
 30
0.0
 11
135.2157450809
 21
164.4322764183
 31
0.0
  0
LINE
  5
1A6
330
173
100
AcDbEntity
  8
19337_BEFESTIGUN
  6
Continuous
 62
     7
100
AcDbLine
 10
135.2157450809
 20
164.2322764183
 30
0.0
 11
135.2157450809
 21
163.2322764183
 31
0.0
  0
ARC
  5
1A7
330
173
100
AcDbEntity
  8
19337_BEFESTIGUN
  6
Continuous
 62
     7
100
AcDbCircle
 10
133.1179187013
 20
164.9322764183
 30
0.0
 40
0.5000000000000004
100
AcDbArc
 50
180.0
 51
270.0
  0
LINE
  5
1A8
330
173
100
AcDbEntity
  8
19337_BEFESTIGUN
  6
Continuous
 62
     7
100
AcDbLine
 10
146.8157450809
 20
164.9322764183
 30
0.0
 11
146.8157450809
 21
175.0791588488
 31
0.0
  0
ARC
  5
1A9
330
173
100
AcDbEntity
  8
19337_BEFESTIGUN
  6
Continuous
 62
     7
100
AcDbCircle
 10
146.3157450809
 20
164.9322764183
 30
0.0
 40
0.5000000000000001
100
AcDbArc
 50
270.0
 51
0.0
  0
CIRCLE
  5
1AA
330
173
100
AcDbEntity
  8
50555__ABC_SPAX_S
  6
Continuous
 62
     7
100
AcDbCircle
 10
139.7157450809
 20
168.730369338
 30
0.0
 40
3.5
  0
ARC
  5
1AB
330
173
100
AcDbEntity
  8
50555__ABC_SPAX_S
  6
Continuous
 62
     7
100
AcDbCircle
 10
137.7089574358
 20
167.359076315
 30
0.0
 40
0.9300000000000013
100
AcDbArc
 50
352.3095646513
 51
76.3691344917
  0
ARC
  5
1AC
330
173
100
AcDbEntity
  8
50555__ABC_SPAX_S
  6
Continuous
 62
     7
100
AcDbCircle
 10
137.9516930852
 20
168.360065528
 30
0.0
 40
0.1000000000000055
100
AcDbArc
 50
127.281950458
 51
256.3691344917
  0
ARC
  5
1AD
330
173
100
AcDbEntity
  8
50555__ABC_SPAX_S
  6
Continuous
 62
     7
100
AcDbCircle
 10
138.7296931553
 20
167.2212409383
 30
0.0
 40
0.0999999999999979
100
AcDbArc
 50
172.3095646513
 51
301.3967590871
  0
ARC
  5
1AE
330
173
100
AcDbEntity
  8
50555__ABC_SPAX_S
  6
Continuous
 62
     7
100
AcDbCircle
 10
137.3277831748
 20
169.1795998005
 30
0.0
 40
0.9300000000000027
100
AcDbArc
 50
307.2819504579
 51
31.3990065803
  0
ARC
  5
1AF
330
173
100
AcDbEntity
  8
50555__ABC_SPAX_S
  6
Continuous
 62
     7
100
AcDbCircle
 10
139.266283346
 20
166.3420532637
 30
0.0
 40
0.9300000000000049
100
AcDbArc
 50
37.3003615934
 51
121.3967590871
  0
ARC
  5
1B0
330
173
100
AcDbEntity
  8
50555__ABC_SPAX_S
  6
Continuous
 62
     7
100
AcDbCircle
 10
138.2069498004
 20
169.716224478
 30
0.0
 40
0.100000000000001
100
AcDbArc
 50
82.3118141074
 51
211.3990065803
  0
ARC
  5
1B1
330
173
100
AcDbEntity
  8
50555__ABC_SPAX_S
  6
Continuous
 62
     7
100
AcDbCircle
 10
140.0856170921
 20
166.9662264868
 30
0.0
 40
0.0999999999999984
100
AcDbArc
 50
217.3003615934
 51
346.3875601994
  0
ARC
  5
1B2
330
173
100
AcDbEntity
  8
50555__ABC_SPAX_S
  6
Continuous
 62
     7
100
AcDbCircle
 10
138.3447451025
 20
170.7369656081
 30
0.0
 40
0.9300000000000059
100
AcDbArc
 50
262.3118141074
 51
346.3843991545
  0
ARC
  5
1B3
330
173
100
AcDbEntity
  8
50555__ABC_SPAX_S
  6
Continuous
 62
     7
100
AcDbCircle
 10
141.0866843146
 20
166.7238127574
 30
0.0
 40
0.9299999999999976
100
AcDbArc
 50
82.2965459063
 51
166.3875601994
  0
ARC
  5
1B4
330
173
100
AcDbEntity
  8
50555__ABC_SPAX_S
  6
Continuous
 62
     7
100
AcDbCircle
 10
139.3457989493
 20
170.4944966496
 30
0.0
 40
0.1000000000000021
100
AcDbArc
 50
37.2972005485
 51
166.3843991545
  0
ARC
  5
1B5
330
173
100
AcDbEntity
  8
50555__ABC_SPAX_S
  6
Continuous
 62
     7
100
AcDbCircle
 10
141.2247516193
 20
167.7445171315
 30
0.0
 40
0.1000000000000003
100
AcDbArc
 50
262.2965459063
 51
31.3837444207
  0
ARC
  5
1B6
330
173
100
AcDbEntity
  8
50555__ABC_SPAX_S
  6
Continuous
 62
     7
100
AcDbCircle
 10
140.1651671302
 20
171.1186246686
 30
0.0
 40
0.9300000000000049
100
AcDbArc
 50
217.2972005484
 51
301.3859797086
  0
ARC
  5
1B7
330
173
100
AcDbEntity
  8
50555__ABC_SPAX_S
  6
Continuous
 62
     7
100
AcDbCircle
 10
142.104061157
 20
168.280907602
 30
0.0
 40
0.9300000000000014
100
AcDbArc
 50
127.3003615626
 51
211.3837444207
  0
ARC
  5
1B8
330
173
100
AcDbEntity
  8
50555__ABC_SPAX_S
  6
Continuous
 62
     7
100
AcDbCircle
 10
140.7015919049
 20
170.2393360578
 30
0.0
 40
0.0999999999999962
100
AcDbArc
 50
352.298781011
 51
121.3859797086
  0
ARC
  5
1B9
330
173
100
AcDbEntity
  8
50555__ABC_SPAX_S
  6
Continuous
 62
     7
100
AcDbCircle
 10
141.4798879344
 20
169.1002413485
 30
0.0
 40
0.1000000000000002
100
AcDbArc
 50
307.3003615626
 51
76.3875601686
  0
ARC
  5
1BA
330
173
100
AcDbEntity
  8
50555__ABC_SPAX_S
  6
Continuous
 62
     7
100
AcDbCircle
 10
141.7223016643
 20
170.1013085708
 30
0.0
 40
0.9300000000000082
100
AcDbArc
 50
172.298781011
 51
256.3875601686
  0
LINE
  5
1BB
330
173
100
AcDbEntity
  8
11334_INNENPROFI
  6
Continuous
 62
     7
100
AcDbLine
 10
135.3166688826
 20
150.8443875225
 30
0.0
 11
135.3166688826
 21
148.7382781792
 31
0.0
  0
LINE
  5
1BC
330
173
100
AcDbEntity
  8
11334_INNENPROFI
  6
Continuous
 62
     7
100
AcDbLine
 10
135.3166688826
 20
148.7382781792
 30
0.0
 11
135.5474201512
 21
148.5075269106
 31
0.0
  0
LINE
  5
1BD
330
173
100
AcDbEntity
  8
11334_INNENPROFI
  6
Continuous
 62
     7
100
AcDbLine
 10
136.1127237591
 20
147.9422233027
 30
0.0
 11
136.2530676144
 21
147.8018794473
 31
0.0
  0
ARC
  5
1BE
330
173
100
AcDbEntity
  8
11334_INNENPROFI
  6
Continuous
 62
     7
100
AcDbCircle
 10
136.3944889707
 20
147.9433008036
 30
0.0
 40
0.1999999999999978
100
AcDbArc
 50
224.9999999992
 51
267.253232029
  0
ARC
  5
1BF
330
173
100
AcDbEntity
  8
11334_INNENPROFI
  6
Continuous
 62
     7
100
AcDbCircle
 10
137.1152475263
 20
146.9838728534
 30
0.0
 40
0.9999978695709382
100
AcDbArc
 50
250.9803588482
 51
109.7719648435
  0
ARC
  5
1C0
330
173
100
AcDbEntity
  8
11334_INNENPROFI
  6
Continuous
 62
     7
100
AcDbCircle
 10
136.3613547684
 20
146.0502559102
 30
0.0
 40
0.1999999999999982
100
AcDbArc
 50
120.1265642407
 51
134.9999999992
  0
LINE
  5
1C1
330
173
100
AcDbEntity
  8
11334_INNENPROFI
  6
Continuous
 62
     7
100
AcDbLine
 10
136.2199334122
 20
146.1916772665
 30
0.0
 11
136.1237250238
 21
146.095468878
 31
0.0
  0
LINE
  5
1C2
330
173
100
AcDbEntity
  8
11334_INNENPROFI
  6
Continuous
 62
     7
100
AcDbLine
 10
136.1165454539
 20
146.0689622439
 30
0.0
 11
136.1165454539
 21
145.2510733352
 31
0.0
  0
ARC
  5
1C3
330
173
100
AcDbEntity
  8
11334_INNENPROFI
  6
Continuous
 62
     7
100
AcDbCircle
 10
137.1152475263
 20
146.9838728534
 30
0.0
 40
1.999999999999984
100
AcDbArc
 50
240.0429258196
 51
252.5816887233
  0
LINE
  5
1C4
330
173
100
AcDbEntity
  8
11334_INNENPROFI
  6
Continuous
 62
     7
100
AcDbLine
 10
136.5165560371
 20
145.075583436
 30
0.0
 11
136.5165560369
 21
136.4813251558
 31
0.0
  0
ARC
  5
1C5
330
173
100
AcDbEntity
  8
11334_INNENPROFI
  6
Continuous
 62
     7
100
AcDbCircle
 10
137.0164116633
 20
136.4933398453
 30
0.0
 40
0.5000000000000272
100
AcDbArc
 50
181.3769145329
 51
358.6230854654
  0
LINE
  5
1C6
330
173
100
AcDbEntity
  8
11334_INNENPROFI
  6
Continuous
 62
     7
100
AcDbLine
 10
137.5162672897
 20
136.4813251558
 30
0.0
 11
137.5162672898
 21
145.024489494
 31
0.0
  0
ARC
  5
1C7
330
173
100
AcDbEntity
  8
11334_INNENPROFI
  6
Continuous
 62
     7
100
AcDbCircle
 10
137.1152475263
 20
146.9838728534
 30
0.0
 40
1.999999999999984
100
AcDbArc
 50
281.5667771069
 51
345.5224878132
  0
LINE
  5
1C8
330
173
100
AcDbEntity
  8
11334_INNENPROFI
  6
Continuous
 62
     7
100
AcDbLine
 10
139.0517391994
 20
146.4838728534
 30
0.0
 11
140.3815985657
 21
146.4838728534
 31
0.0
  0
ARC
  5
1C9
330
173
100
AcDbEntity
  8
11334_INNENPROFI
  6
Continuous
 62
     7
100
AcDbCircle
 10
142.3180902388
 20
146.9838728534
 30
0.0
 40
1.999999999999984
100
AcDbArc
 50
194.4775121851
 51
258.4332228914
  0
LINE
  5
1CA
330
173
100
AcDbEntity
  8
11334_INNENPROFI
  6
Continuous
 62
     7
100
AcDbLine
 10
141.9170704752
 20
145.0244894939
 30
0.0
 11
141.9170704751
 21
136.4813251557
 31
0.0
  0
ARC
  5
1CB
330
173
100
AcDbEntity
  8
11334_INNENPROFI
  6
Continuous
 62
     7
100
AcDbCircle
 10
142.4169261014
 20
136.4933398453
 30
0.0
 40
0.5000000000000262
100
AcDbArc
 50
181.3769145329
 51
358.6230854653
  0
LINE
  5
1CC
330
173
100
AcDbEntity
  8
11334_INNENPROFI
  6
Continuous
 62
     7
100
AcDbLine
 10
142.9167817278
 20
136.4813251557
 30
0.0
 11
142.916781728
 21
145.0755834359
 31
0.0
  0
ARC
  5
1CD
330
173
100
AcDbEntity
  8
11334_INNENPROFI
  6
Continuous
 62
     7
100
AcDbCircle
 10
142.3180902388
 20
146.9838728534
 30
0.0
 40
1.999999999999985
100
AcDbArc
 50
287.4183112751
 51
299.9570741788
  0
LINE
  5
1CE
330
173
100
AcDbEntity
  8
11334_INNENPROFI
  6
Continuous
 62
     7
100
AcDbLine
 10
143.3167923111
 20
145.251073335
 30
0.0
 11
143.3167923111
 21
146.0689622448
 31
0.0
  0
LINE
  5
1CF
330
173
100
AcDbEntity
  8
11334_INNENPROFI
  6
Continuous
 62
     7
100
AcDbLine
 10
143.313154782
 20
146.0841626139
 30
0.0
 11
143.2090997496
 21
146.1882176463
 31
0.0
  0
ARC
  5
1D0
330
173
100
AcDbEntity
  8
11334_INNENPROFI
  6
Continuous
 62
     7
100
AcDbCircle
 10
143.0676783934
 20
146.0467962901
 30
0.0
 40
0.2
100
AcDbArc
 50
44.9999999992
 51
64.4677110246
  0
ARC
  5
1D1
330
173
100
AcDbEntity
  8
11334_INNENPROFI
  6
Continuous
 62
     7
100
AcDbCircle
 10
142.3180902388
 20
146.9838728534
 30
0.0
 40
0.9999978695709346
100
AcDbArc
 50
70.2280351524
 51
289.0196411541
  0
ARC
  5
1D2
330
173
100
AcDbEntity
  8
11334_INNENPROFI
  6
Continuous
 62
     7
100
AcDbCircle
 10
143.0388487944
 20
147.9433008035
 30
0.0
 40
0.1999999999999977
100
AcDbArc
 50
272.7467680239
 51
314.9999999992
  0
LINE
  5
1D3
330
173
100
AcDbEntity
  8
11334_INNENPROFI
  6
Continuous
 62
     7
100
AcDbLine
 10
143.1802701507
 20
147.8018794472
 30
0.0
 11
143.3206140062
 21
147.9422233028
 31
0.0
  0
LINE
  5
1D4
330
173
100
AcDbEntity
  8
11334_INNENPROFI
  6
Continuous
 62
     7
100
AcDbLine
 10
143.885917614
 20
148.5075269106
 30
0.0
 11
144.1166688826
 21
148.7382781791
 31
0.0
  0
LINE
  5
1D5
330
173
100
AcDbEntity
  8
11334_INNENPROFI
  6
Continuous
 62
     7
100
AcDbLine
 10
144.1166688826
 20
148.7382781791
 30
0.0
 11
144.1166688826
 21
150.8443875224
 31
0.0
  0
LINE
  5
1D6
330
173
100
AcDbEntity
  8
11334_INNENPROFI
  6
Continuous
 62
     7
100
AcDbLine
 10
144.1166688826
 20
150.8443875224
 30
0.0
 11
143.0554579604
 21
151.457077934
 31
0.0
  0
ARC
  5
1D7
330
173
100
AcDbEntity
  8
11334_INNENPROFI
  6
Continuous
 62
     7
100
AcDbCircle
 10
142.9554579604
 20
151.2838728532
 30
0.0
 40
0.2000000000000002
100
AcDbArc
 50
59.9999999992
 51
89.9999999992
  0
LINE
  5
1D8
330
173
100
AcDbEntity
  8
11334_INNENPROFI
  6
Continuous
 62
     7
100
AcDbLine
 10
142.9554579604
 20
151.4838728532
 30
0.0
 11
142.3166688826
 21
151.4838728533
 31
0.0
  0
ARC
  5
1D9
330
173
100
AcDbEntity
  8
11334_INNENPROFI
  6
Continuous
 62
     7
100
AcDbCircle
 10
142.3166688826
 20
151.2838728533
 30
0.0
 40
0.1999999999999988
100
AcDbArc
 50
89.9999999992
 51
179.9999999992
  0
LINE
  5
1DA
330
173
100
AcDbEntity
  8
11334_INNENPROFI
  6
Continuous
 62
     7
100
AcDbLine
 10
142.1166688826
 20
151.2838728533
 30
0.0
 11
142.1166688826
 21
150.6838728534
 31
0.0
  0
ARC
  5
1DB
330
173
100
AcDbEntity
  8
11334_INNENPROFI
  6
Continuous
 62
     7
100
AcDbCircle
 10
142.3166688826
 20
150.6838728534
 30
0.0
 40
0.1999999999999988
100
AcDbArc
 50
179.9999999992
 51
269.9999999992
  0
LINE
  5
1DC
330
173
100
AcDbEntity
  8
11334_INNENPROFI
  6
Continuous
 62
     7
100
AcDbLine
 10
142.3166688826
 20
150.4838728534
 30
0.0
 11
142.9166688826
 21
150.4838728534
 31
0.0
  0
ARC
  5
1DD
330
173
100
AcDbEntity
  8
11334_INNENPROFI
  6
Continuous
 62
     7
100
AcDbCircle
 10
142.9166688826
 20
150.2838728534
 30
0.0
 40
0.1999999999911448
100
AcDbArc
 50
0.0
 51
89.9999999992
  0
LINE
  5
1DE
330
173
100
AcDbEntity
  8
11334_INNENPROFI
  6
Continuous
 62
     7
100
AcDbLine
 10
143.1166688826
 20
150.2838728534
 30
0.0
 11
143.1166688826
 21
149.1838728534
 31
0.0
  0
ARC
  5
1DF
330
173
100
AcDbEntity
  8
11334_INNENPROFI
  6
Continuous
 62
     7
100
AcDbCircle
 10
142.9166688826
 20
149.1838728534
 30
0.0
 40
0.1999999999999988
100
AcDbArc
 50
269.9999999992
 51
359.9999999992
  0
LINE
  5
1E0
330
173
100
AcDbEntity
  8
11334_INNENPROFI
  6
Continuous
 62
     7
100
AcDbLine
 10
142.9166688826
 20
148.9838728534
 30
0.0
 11
140.980511139
 21
148.9838728534
 31
0.0
  0
LINE
  5
1E1
330
173
100
AcDbEntity
  8
11334_INNENPROFI
  6
Continuous
 62
     7
100
AcDbLine
 10
140.980511139
 20
148.9838728534
 30
0.0
 11
140.1144857352
 21
147.4838728534
 31
0.0
  0
LINE
  5
1E2
330
173
100
AcDbEntity
  8
11334_INNENPROFI
  6
Continuous
 62
     7
100
AcDbLine
 10
140.1144857352
 20
147.4838728534
 30
0.0
 11
139.3188520299
 21
147.4838728534
 31
0.0
  0
LINE
  5
1E3
330
173
100
AcDbEntity
  8
11334_INNENPROFI
  6
Continuous
 62
     7
100
AcDbLine
 10
139.3188520299
 20
147.4838728534
 30
0.0
 11
138.4528266261
 21
148.9838728534
 31
0.0
  0
LINE
  5
1E4
330
173
100
AcDbEntity
  8
11334_INNENPROFI
  6
Continuous
 62
     7
100
AcDbLine
 10
138.4528266261
 20
148.9838728534
 30
0.0
 11
136.5166688826
 21
148.9838728534
 31
0.0
  0
ARC
  5
1E5
330
173
100
AcDbEntity
  8
11334_INNENPROFI
  6
Continuous
 62
     7
100
AcDbCircle
 10
136.5166688826
 20
149.1838728534
 30
0.0
 40
0.1999999999999988
100
AcDbArc
 50
179.9999999992
 51
269.9999999992
  0
LINE
  5
1E6
330
173
100
AcDbEntity
  8
11334_INNENPROFI
  6
Continuous
 62
     7
100
AcDbLine
 10
136.3166688826
 20
149.1838728535
 30
0.0
 11
136.3166688826
 21
150.2838728535
 31
0.0
  0
ARC
  5
1E7
330
173
100
AcDbEntity
  8
11334_INNENPROFI
  6
Continuous
 62
     7
100
AcDbCircle
 10
136.5166688826
 20
150.2838728535
 30
0.0
 40
0.1999999999911448
100
AcDbArc
 50
89.9999999992
 51
179.9999999992
  0
LINE
  5
1E8
330
173
100
AcDbEntity
  8
11334_INNENPROFI
  6
Continuous
 62
     7
100
AcDbLine
 10
136.5166688826
 20
150.4838728535
 30
0.0
 11
137.1166688826
 21
150.4838728534
 31
0.0
  0
ARC
  5
1E9
330
173
100
AcDbEntity
  8
11334_INNENPROFI
  6
Continuous
 62
     7
100
AcDbCircle
 10
137.1166688826
 20
150.6838728534
 30
0.0
 40
0.199999999993497
100
AcDbArc
 50
269.9999999992
 51
359.9999999992
  0
LINE
  5
1EA
330
173
100
AcDbEntity
  8
11334_INNENPROFI
  6
Continuous
 62
     7
100
AcDbLine
 10
137.3166688826
 20
150.6838728534
 30
0.0
 11
137.3166688826
 21
151.2838728533
 31
0.0
  0
ARC
  5
1EB
330
173
100
AcDbEntity
  8
11334_INNENPROFI
  6
Continuous
 62
     7
100
AcDbCircle
 10
137.1166688826
 20
151.2838728533
 30
0.0
 40
0.200000000006504
100
AcDbArc
 50
0.0
 51
89.9999999981
  0
LINE
  5
1EC
330
173
100
AcDbEntity
  8
11334_INNENPROFI
  6
Continuous
 62
     7
100
AcDbLine
 10
137.1166688826
 20
151.4838728533
 30
0.0
 11
136.4778798048
 21
151.4838728533
 31
0.0
  0
ARC
  5
1ED
330
173
100
AcDbEntity
  8
11334_INNENPROFI
  6
Continuous
 62
     7
100
AcDbCircle
 10
136.4778798048
 20
151.2838728533
 30
0.0
 40
0.1999999999999988
100
AcDbArc
 50
90.0
 51
119.9999999991
  0
LINE
  5
1EE
330
173
100
AcDbEntity
  8
11334_INNENPROFI
  6
Continuous
 62
     7
100
AcDbLine
 10
136.3778798048
 20
151.4570779341
 30
0.0
 11
135.3166688826
 21
150.8443875225
 31
0.0
  0
LINE
  5
1EF
330
173
100
AcDbEntity
  8
11319_AUSSENPROF
  6
Continuous
 62
     7
100
AcDbLine
 10
142.9166688826
 20
152.4838728533
 30
0.0
 11
144.5647315705
 21
152.4838728533
 31
0.0
  0
LINE
  5
1F0
330
173
100
AcDbEntity
  8
11319_AUSSENPROF
  6
Continuous
 62
     7
100
AcDbLine
 10
144.5647315705
 20
152.4838728533
 30
0.0
 11
144.5647315705
 21
162.1838728533
 31
0.0
  0
LINE
  5
1F1
330
173
100
AcDbEntity
  8
11319_AUSSENPROF
  6
Continuous
 62
     7
100
AcDbLine
 10
144.5647315705
 20
162.1838728533
 30
0.0
 11
134.8666688826
 21
162.1838728533
 31
0.0
  0
LINE
  5
1F2
330
173
100
AcDbEntity
  8
11319_AUSSENPROF
  6
Continuous
 62
     7
100
AcDbLine
 10
134.8666688826
 20
162.1838728533
 30
0.0
 11
134.8666688826
 21
152.4838728533
 31
0.0
  0
LINE
  5
1F3
330
173
100
AcDbEntity
  8
11319_AUSSENPROF
  6
Continuous
 62
     7
100
AcDbLine
 10
134.8666688826
 20
152.4838728533
 30
0.0
 11
136.5166688826
 21
152.4838728533
 31
0.0
  0
ARC
  5
1F4
330
173
100
AcDbEntity
  8
11319_AUSSENPROF
  6
Continuous
 62
     7
100
AcDbCircle
 10
136.5166688826
 20
152.2838728533
 30
0.0
 40
0.1999999999999988
100
AcDbArc
 50
300.0
 51
90.0
  0
LINE
  5
1F5
330
173
100
AcDbEntity
  8
11319_AUSSENPROF
  6
Continuous
 62
     7
100
AcDbLine
 10
136.6166688826
 20
152.1106677726
 30
0.0
 11
135.5310282365
 21
151.4838728533
 31
0.0
  0
LINE
  5
1F6
330
173
100
AcDbEntity
  8
11319_AUSSENPROF
  6
Continuous
 62
     7
100
AcDbLine
 10
135.5310282365
 20
151.4838728533
 30
0.0
 11
134.7166688826
 21
151.4838728533
 31
0.0
  0
LINE
  5
1F7
330
173
100
AcDbEntity
  8
11319_AUSSENPROF
  6
Continuous
 62
     7
100
AcDbLine
 10
134.7166688826
 20
151.4838728533
 30
0.0
 11
134.7166688826
 21
131.7838728533
 31
0.0
  0
ARC
  5
1F8
330
173
100
AcDbEntity
  8
11319_AUSSENPROF
  6
Continuous
 62
     7
100
AcDbCircle
 10
134.4166688826
 20
131.7838728533
 30
0.0
 40
0.2999999999999999
100
AcDbArc
 50
270.0
 51
0.0
  0
LINE
  5
1F9
330
173
100
AcDbEntity
  8
11319_AUSSENPROF
  6
Continuous
 62
     7
100
AcDbLine
 10
134.4166688826
 20
131.4838728533
 30
0.0
 11
133.7166688826
 21
131.4838728533
 31
0.0
  0
LINE
  5
1FA
330
173
100
AcDbEntity
  8
11319_AUSSENPROF
  6
Continuous
 62
     7
100
AcDbLine
 10
133.7166688826
 20
131.4838728533
 30
0.0
 11
133.7166688826
 21
164.4322764183
 31
0.0
  0
LINE
  5
1FB
330
173
100
AcDbEntity
  8
11319_AUSSENPROF
  6
Continuous
 62
     7
100
AcDbLine
 10
134.8666688826
 20
164.4322764183
 30
0.0
 11
134.8666688826
 21
163.1838728533
 31
0.0
  0
LINE
  5
1FC
330
173
100
AcDbEntity
  8
11319_AUSSENPROF
  6
Continuous
 62
     7
100
AcDbLine
 10
134.8666688826
 20
163.1838728533
 30
0.0
 11
144.5647315705
 21
163.1838728533
 31
0.0
  0
LINE
  5
1FD
330
173
100
AcDbEntity
  8
11319_AUSSENPROF
  6
Continuous
 62
     7
100
AcDbLine
 10
144.5647315705
 20
163.1838728533
 30
0.0
 11
144.5647315705
 21
164.4322764183
 31
0.0
  0
LINE
  5
1FE
330
173
100
AcDbEntity
  8
11319_AUSSENPROF
  6
Continuous
 62
     7
100
AcDbLine
 10
145.7166688826
 20
164.4322764183
 30
0.0
 11
145.7166688826
 21
131.4838728533
 31
0.0
  0
LINE
  5
1FF
330
173
100
AcDbEntity
  8
11319_AUSSENPROF
  6
Continuous
 62
     7
100
AcDbLine
 10
145.7166688826
 20
131.4838728533
 30
0.0
 11
145.0166688826
 21
131.4838728533
 31
0.0
  0
ARC
  5
200
330
173
100
AcDbEntity
  8
11319_AUSSENPROF
  6
Continuous
 62
     7
100
AcDbCircle
 10
145.0166688826
 20
131.7838728533
 30
0.0
 40
0.3000000000000017
100
AcDbArc
 50
180.0
 51
270.0
  0
LINE
  5
201
330
173
100
AcDbEntity
  8
11319_AUSSENPROF
  6
Continuous
 62
     7
100
AcDbLine
 10
144.7166688826
 20
131.7838728533
 30
0.0
 11
144.7166688826
 21
151.4838728533
 31
0.0
  0
LINE
  5
202
330
173
100
AcDbEntity
  8
11319_AUSSENPROF
  6
Continuous
 62
     7
100
AcDbLine
 10
144.7166688826
 20
151.4838728533
 30
0.0
 11
143.9023095287
 21
151.4838728533
 31
0.0
  0
LINE
  5
203
330
173
100
AcDbEntity
  8
11319_AUSSENPROF
  6
Continuous
 62
     7
100
AcDbLine
 10
143.9023095287
 20
151.4838728533
 30
0.0
 11
142.8166688826
 21
152.1106677726
 31
0.0
  0
ARC
  5
204
330
173
100
AcDbEntity
  8
11319_AUSSENPROF
  6
Continuous
 62
     7
100
AcDbCircle
 10
142.9166688826
 20
152.2838728533
 30
0.0
 40
0.1999999999999958
100
AcDbArc
 50
90.0
 51
240.0
  0
LINE
  5
205
330
173
100
AcDbEntity
  8
27508__DICHTPROFI
  6
Continuous
 62
     7
100
AcDbLine
 10
143.0233748271
 20
141.3870969646
 30
0.0
 11
143.023374827
 21
132.2476059653
 31
0.0
  0
ARC
  5
206
330
173
100
AcDbEntity
  8
27508__DICHTPROFI
  6
Continuous
 62
     7
100
AcDbCircle
 10
143.4233748271
 20
141.3870969646
 30
0.0
 40
0.3999999999999988
100
AcDbArc
 50
97.1885560152
 51
179.9999999992
  0
ARC
  5
207
330
173
100
AcDbEntity
  8
27508__DICHTPROFI
  6
Continuous
 62
     7
100
AcDbCircle
 10
143.3235940318
 20
142.1808498758
 30
0.0
 40
0.4000000000000005
100
AcDbArc
 50
277.1413103461
 51
90.4268611858
  0
LINE
  5
208
330
173
100
AcDbEntity
  8
27508__DICHTPROFI
  6
Continuous
 62
     7
100
AcDbLine
 10
143.3206140062
 20
146.0300511583
 30
0.0
 11
143.3206140061
 21
142.580838775
 31
0.0
  0
ARC
  5
209
330
173
100
AcDbEntity
  8
27508__DICHTPROFI
  6
Continuous
 62
     7
100
AcDbCircle
 10
143.1206140062
 20
146.0300511583
 30
0.0
 40
0.200000000000001
100
AcDbArc
 50
0.0
 51
123.943228401
  0
LINE
  5
20A
330
173
100
AcDbEntity
  8
27508__DICHTPROFI
  6
Continuous
 62
     7
100
AcDbLine
 10
142.8130657573
 20
146.0641329098
 30
0.0
 11
143.0089397709
 21
146.1959694068
 31
0.0
  0
ARC
  5
20B
330
173
100
AcDbEntity
  8
27508__DICHTPROFI
  6
Continuous
 62
     7
100
AcDbCircle
 10
142.7013915221
 20
146.2300511583
 30
0.0
 40
0.2000000000000019
100
AcDbArc
 50
237.4999999992
 51
303.943228401
  0
LINE
  5
20C
330
173
100
AcDbEntity
  8
27508__DICHTPROFI
  6
Continuous
 62
     7
100
AcDbLine
 10
141.4166674176
 20
146.8113728692
 30
0.0
 11
142.5939316004
 21
146.0613728692
 31
0.0
  0
ARC
  5
20D
330
173
100
AcDbEntity
  8
27508__DICHTPROFI
  6
Continuous
 62
     7
100
AcDbCircle
 10
141.5241273393
 20
146.9800511584
 30
0.0
 40
0.1999999999999997
100
AcDbArc
 50
122.4999999992
 51
237.4999999992
  0
LINE
  5
20E
330
173
100
AcDbEntity
  8
27508__DICHTPROFI
  6
Continuous
 62
     7
100
AcDbLine
 10
142.5939316004
 20
147.8987294475
 30
0.0
 11
141.4166674176
 21
147.1487294475
 31
0.0
  0
ARC
  5
20F
330
173
100
AcDbEntity
  8
27508__DICHTPROFI
  6
Continuous
 62
     7
100
AcDbCircle
 10
142.7013915221
 20
147.7300511583
 30
0.0
 40
0.1999999999999948
100
AcDbArc
 50
56.0567715973
 51
122.4999999992
  0
LINE
  5
210
330
173
100
AcDbEntity
  8
27508__DICHTPROFI
  6
Continuous
 62
     7
100
AcDbLine
 10
143.008939771
 20
147.7641329098
 30
0.0
 11
142.8130657573
 21
147.8959694068
 31
0.0
  0
ARC
  5
211
330
173
100
AcDbEntity
  8
27508__DICHTPROFI
  6
Continuous
 62
     7
100
AcDbCircle
 10
143.1206140062
 20
147.9300511583
 30
0.0
 40
0.2000000000000001
100
AcDbArc
 50
236.0567715973
 51
359.9999999992
  0
LINE
  5
212
330
173
100
AcDbEntity
  8
27508__DICHTPROFI
  6
Continuous
 62
     7
100
AcDbLine
 10
143.3206140062
 20
147.9422233026
 30
0.0
 11
143.3206140062
 21
147.9300511583
 31
0.0
  0
LINE
  5
213
330
173
100
AcDbEntity
  8
27508__DICHTPROFI
  6
Continuous
 62
     7
100
AcDbLine
 10
143.8859176141
 20
148.5075269105
 30
0.0
 11
143.3206140062
 21
147.9422233026
 31
0.0
  0
LINE
  5
214
330
173
100
AcDbEntity
  8
27508__DICHTPROFI
  6
Continuous
 62
     7
100
AcDbLine
 10
144.3204008984
 20
148.2566778694
 30
0.0
 11
143.8859176141
 21
148.5075269105
 31
0.0
  0
LINE
  5
215
330
173
100
AcDbEntity
  8
27508__DICHTPROFI
  6
Continuous
 62
     7
100
AcDbLine
 10
144.3204008983
 20
145.3806477299
 30
0.0
 11
144.3204008984
 21
148.2566778694
 31
0.0
  0
ARC
  5
216
330
173
100
AcDbEntity
  8
27508__DICHTPROFI
  6
Continuous
 62
     7
100
AcDbCircle
 10
144.3204008983
 20
145.1806477299
 30
0.0
 40
0.2000000000000023
100
AcDbArc
 50
89.9999999999
 51
269.9999999993
  0
LINE
  5
217
330
173
100
AcDbEntity
  8
27508__DICHTPROFI
  6
Continuous
 62
     7
100
AcDbLine
 10
135.1129368669
 20
144.98064773
 30
0.0
 11
135.1129368667
 21
132.3871153095
 31
0.0
  0
ARC
  5
218
330
173
100
AcDbEntity
  8
27508__DICHTPROFI
  6
Continuous
 62
     7
100
AcDbCircle
 10
135.1129368669
 20
145.18064773
 30
0.0
 40
0.2000000000000005
100
AcDbArc
 50
269.9999999988
 51
89.9999999988
  0
LINE
  5
219
330
173
100
AcDbEntity
  8
27508__DICHTPROFI
  6
Continuous
 62
     7
100
AcDbLine
 10
135.1129368669
 20
148.2566778695
 30
0.0
 11
135.1129368669
 21
145.38064773
 31
0.0
  0
LINE
  5
21A
330
173
100
AcDbEntity
  8
27508__DICHTPROFI
  6
Continuous
 62
     7
100
AcDbLine
 10
135.5474201512
 20
148.5075269106
 30
0.0
 11
135.1129368669
 21
148.2566778695
 31
0.0
  0
LINE
  5
21B
330
173
100
AcDbEntity
  8
27508__DICHTPROFI
  6
Continuous
 62
     7
100
AcDbLine
 10
136.1127237591
 20
147.9422233027
 30
0.0
 11
135.5474201512
 21
148.5075269106
 31
0.0
  0
LINE
  5
21C
330
173
100
AcDbEntity
  8
27508__DICHTPROFI
  6
Continuous
 62
     7
100
AcDbLine
 10
136.1127237591
 20
147.9300511584
 30
0.0
 11
136.1127237591
 21
147.9422233027
 31
0.0
  0
ARC
  5
21D
330
173
100
AcDbEntity
  8
27508__DICHTPROFI
  6
Continuous
 62
     7
100
AcDbCircle
 10
136.3127237591
 20
147.9300511584
 30
0.0
 40
0.2000000000000005
100
AcDbArc
 50
179.9999999992
 51
303.943228401
  0
LINE
  5
21E
330
173
100
AcDbEntity
  8
27508__DICHTPROFI
  6
Continuous
 62
     7
100
AcDbLine
 10
136.620272008
 20
147.8959694069
 30
0.0
 11
136.4243979944
 21
147.7641329099
 31
0.0
  0
ARC
  5
21F
330
173
100
AcDbEntity
  8
27508__DICHTPROFI
  6
Continuous
 62
     7
100
AcDbCircle
 10
136.7319462432
 20
147.7300511584
 30
0.0
 40
0.1999999999999985
100
AcDbArc
 50
57.4999999992
 51
123.943228401
  0
LINE
  5
220
330
173
100
AcDbEntity
  8
27508__DICHTPROFI
  6
Continuous
 62
     7
100
AcDbLine
 10
138.0166703477
 20
147.1487294476
 30
0.0
 11
136.8394061649
 21
147.8987294476
 31
0.0
  0
ARC
  5
221
330
173
100
AcDbEntity
  8
27508__DICHTPROFI
  6
Continuous
 62
     7
100
AcDbCircle
 10
137.909210426
 20
146.9800511584
 30
0.0
 40
0.2000000000000026
100
AcDbArc
 50
302.4999999992
 51
57.4999999992
  0
LINE
  5
222
330
173
100
AcDbEntity
  8
27508__DICHTPROFI
  6
Continuous
 62
     7
100
AcDbLine
 10
136.8394061648
 20
146.0613728693
 30
0.0
 11
138.0166703477
 21
146.8113728693
 31
0.0
  0
ARC
  5
223
330
173
100
AcDbEntity
  8
27508__DICHTPROFI
  6
Continuous
 62
     7
100
AcDbCircle
 10
136.7319462432
 20
146.2300511584
 30
0.0
 40
0.1999999999999923
100
AcDbArc
 50
236.0567715973
 51
302.4999999992
  0
LINE
  5
224
330
173
100
AcDbEntity
  8
27508__DICHTPROFI
  6
Continuous
 62
     7
100
AcDbLine
 10
136.4243979943
 20
146.1959694069
 30
0.0
 11
136.6202720079
 21
146.0641329099
 31
0.0
  0
ARC
  5
225
330
173
100
AcDbEntity
  8
27508__DICHTPROFI
  6
Continuous
 62
     7
100
AcDbCircle
 10
136.3127237591
 20
146.0300511584
 30
0.0
 40
0.200000000000004
100
AcDbArc
 50
56.0567715973
 51
179.9999999992
  0
LINE
  5
226
330
173
100
AcDbEntity
  8
27508__DICHTPROFI
  6
Continuous
 62
     7
100
AcDbLine
 10
136.1127237591
 20
142.5808387751
 30
0.0
 11
136.1127237591
 21
146.0300511584
 31
0.0
  0
ARC
  5
227
330
173
100
AcDbEntity
  8
27508__DICHTPROFI
  6
Continuous
 62
     7
100
AcDbCircle
 10
136.1097437334
 20
142.1808498759
 30
0.0
 40
0.3999999999999742
100
AcDbArc
 50
89.5731388128
 51
262.8586896521
  0
ARC
  5
228
330
173
100
AcDbEntity
  8
27508__DICHTPROFI
  6
Continuous
 62
     7
100
AcDbCircle
 10
136.009962938
 20
141.3870969647
 30
0.0
 40
0.3999999999999993
100
AcDbArc
 50
0.0
 51
82.811443983
  0
LINE
  5
229
330
173
100
AcDbEntity
  8
27508__DICHTPROFI
  6
Continuous
 62
     7
100
AcDbLine
 10
136.4099629379
 20
132.2476059654
 30
0.0
 11
136.409962938
 21
141.3870969647
 31
0.0
  0
ARC
  5
22A
330
173
100
AcDbEntity
  8
27508__DICHTPROFI
  6
Continuous
 62
     7
100
AcDbCircle
 10
136.9099629379
 20
132.2476059654
 30
0.0
 40
0.4999999999999985
100
AcDbArc
 50
179.9999999992
 51
255.078467113
  0
ARC
  5
22B
330
173
100
AcDbEntity
  8
27508__DICHTPROFI
  6
Continuous
 62
     7
100
AcDbCircle
 10
139.7166688826
 20
142.7800511583
 30
0.0
 40
11.4
100
AcDbArc
 50
255.078467113
 51
284.9215328853
  0
ARC
  5
22C
330
173
100
AcDbEntity
  8
27508__DICHTPROFI
  6
Continuous
 62
     7
100
AcDbCircle
 10
142.523374827
 20
132.2476059654
 30
0.0
 40
0.5
100
AcDbArc
 50
284.9215328853
 51
359.9999999992
  0
ARC
  5
22D
330
173
100
AcDbEntity
  8
27508__DICHTPROFI
  6
Continuous
 62
     7
100
AcDbCircle
 10
139.7166688826
 20
142.7800511583
 30
0.0
 40
12.0
100
AcDbArc
 50
250.8761023701
 51
289.1238976282
  0
ARC
  5
22E
330
173
100
AcDbEntity
  8
27508__DICHTPROFI
  6
Continuous
 62
     7
100
AcDbCircle
 10
136.1129368667
 20
132.3871153095
 30
0.0
 40
1.000000000000001
100
AcDbArc
 50
179.9999999992
 51
250.8761023701
  0
LINE
  5
22F
330
173
100
AcDbEntity
  8
27508__DICHTPROFI
  6
Continuous
 62
     7
100
AcDbLine
 10
144.3204008982
 20
132.3871153093
 30
0.0
 11
144.3204008983
 21
144.9806477299
 31
0.0
  0
ARC
  5
230
330
173
100
AcDbEntity
  8
27508__DICHTPROFI
  6
Continuous
 62
     7
100
AcDbCircle
 10
143.3204008982
 20
132.3871153093
 30
0.0
 40
0.9999999999999983
100
AcDbArc
 50
289.1238976282
 51
359.9999999992
  0
LINE
  5
231
330
173
100
AcDbEntity
  8
29599__GLASWAND_8
  6
Continuous
 62
     7
100
AcDbLine
 10
154.5157450809
 20
132.7838725184
 30
0.0
 11
151.4784467462
 21
132.7838725184
 31
0.0
  0
LINE
  5
232
330
173
100
AcDbEntity
  8
29599__GLASWAND_8
  6
Continuous
 62
     7
100
AcDbLine
 10
150.8530434155
 20
132.7838725184
 30
0.0
 11
147.5157450809
 21
132.7838725184
 31
0.0
  0
LINE
  5
233
330
173
100
AcDbEntity
  8
29599__GLASWAND_8
  6
Continuous
 62
     7
100
AcDbLine
 10
147.0157450809
 20
175.338943108
 30
0.0
 11
147.0157450809
 21
194.5015293901
 31
0.0
  0
LINE
  5
234
330
173
100
AcDbEntity
  8
29599__GLASWAND_8
  6
Continuous
 62
     7
100
AcDbLine
 10
155.0157450809
 20
194.5015293901
 30
0.0
 11
155.0157450809
 21
161.4013635164
 31
0.0
  0
LINE
  5
235
330
173
100
AcDbEntity
  8
29599__GLASWAND_8
  6
Continuous
 62
     7
100
AcDbLine
 10
155.0157450809
 20
154.3703446174
 30
0.0
 11
155.0157450809
 21
133.2838725184
 31
0.0
  0
LINE
  5
236
330
173
100
AcDbEntity
  8
29599__GLASWAND_8
  6
Continuous
 62
     7
100
AcDbLine
 10
147.0157450809
 20
133.2838725184
 30
0.0
 11
147.5157450809
 21
132.7838725184
 31
0.0
  0
LINE
  5
237
330
173
100
AcDbEntity
  8
29599__GLASWAND_8
  6
Continuous
 62
     7
100
AcDbLine
 10
154.5157450809
 20
132.7838725184
 30
0.0
 11
155.0157450809
 21
133.2838725184
 31
0.0
  0
CIRCLE
  5
238
330
173
100
AcDbEntity
  8
10472_AUSLÖSERKN
  6
Continuous
 62
     7
100
AcDbCircle
 10
139.7166688826
 20
156.9838728533
 30
0.0
 40
4.6
  0
ARC
  5
239
330
173
100
AcDbEntity
  8
10472_AUSLÖSERKN
  6
Continuous
 62
     7
100
AcDbCircle
 10
139.7166688826
 20
156.9838728533
 30
0.0
 40
2.999999999999998
100
AcDbArc
 50
293.5635514141
 51
312.7516878678
  0
ARC
  5
23A
330
173
100
AcDbEntity
  8
10472_AUSLÖSERKN
  6
Continuous
 62
     7
100
AcDbCircle
 10
139.7166688826
 20
156.9838728533
 30
0.0
 40
3.000000000000001
100
AcDbArc
 50
23.5635514141
 51
42.7516878678
  0
ARC
  5
23B
330
173
100
AcDbEntity
  8
10472_AUSLÖSERKN
  6
Continuous
 62
     7
100
AcDbCircle
 10
139.7166688826
 20
156.9838728533
 30
0.0
 40
3.000000000000001
100
AcDbArc
 50
113.5635514141
 51
132.7516878678
  0
ARC
  5
23C
330
173
100
AcDbEntity
  8
10472_AUSLÖSERKN
  6
Continuous
 62
     7
100
AcDbCircle
 10
139.7166688826
 20
156.9838728533
 30
0.0
 40
2.999999999999999
100
AcDbArc
 50
203.5635514141
 51
222.7516878678
  0
LINE
  5
23D
330
173
100
AcDbEntity
  8
10472_AUSLÖSERKN
  6
Continuous
 62
     7
100
AcDbLine
 10
136.9668172067
 20
155.7845748251
 30
0.0
 11
138.1874431568
 21
156.5820411976
 31
0.0
  0
LINE
  5
23E
330
173
100
AcDbEntity
  8
10472_AUSLÖSERKN
  6
Continuous
 62
     7
100
AcDbLine
 10
138.5173708543
 20
159.7337245292
 30
0.0
 11
139.3148372269
 21
158.5130985791
 31
0.0
  0
LINE
  5
23F
330
173
100
AcDbEntity
  8
10472_AUSLÖSERKN
  6
Continuous
 62
     7
100
AcDbLine
 10
142.4665205585
 20
158.1831708816
 30
0.0
 11
141.2458946084
 21
157.3857045091
 31
0.0
  0
LINE
  5
240
330
173
100
AcDbEntity
  8
10472_AUSLÖSERKN
  6
Continuous
 62
     7
100
AcDbLine
 10
140.9159669109
 20
154.2340211774
 30
0.0
 11
140.1185005383
 21
155.4546471275
 31
0.0
  0
LINE
  5
241
330
173
100
AcDbEntity
  8
10472_AUSLÖSERKN
  6
Continuous
 62
     7
100
AcDbLine
 10
138.7343872954
 20
155.7448720933
 30
0.0
 11
137.5137613453
 21
154.9474057207
 31
0.0
  0
ARC
  5
242
330
173
100
AcDbEntity
  8
10472_AUSLÖSERKN
  6
Continuous
 62
     7
100
AcDbCircle
 10
139.281331434
 20
154.9077029889
 30
0.0
 40
0.9999999999999972
100
AcDbArc
 50
33.1576196409
 51
123.1576196409
  0
LINE
  5
243
330
173
100
AcDbEntity
  8
10472_AUSLÖSERKN
  6
Continuous
 62
     7
100
AcDbLine
 10
140.9556696427
 20
156.0015912661
 30
0.0
 11
141.7531360106
 21
154.7809653231
 31
0.0
  0
ARC
  5
244
330
173
100
AcDbEntity
  8
10472_AUSLÖSERKN
  6
Continuous
 62
     7
100
AcDbCircle
 10
141.792838747
 20
156.5485354047
 30
0.0
 40
0.9999999999999993
100
AcDbArc
 50
123.1576196409
 51
213.1576196409
  0
LINE
  5
245
330
173
100
AcDbEntity
  8
10472_AUSLÖSERKN
  6
Continuous
 62
     7
100
AcDbLine
 10
140.6989504698
 20
158.2228736134
 30
0.0
 11
141.9195763781
 21
159.0203399586
 31
0.0
  0
ARC
  5
246
330
173
100
AcDbEntity
  8
10472_AUSLÖSERKN
  6
Continuous
 62
     7
100
AcDbCircle
 10
140.1520063312
 20
159.0600427177
 30
0.0
 40
1.000000000000003
100
AcDbArc
 50
213.1576196409
 51
303.1576196409
  0
LINE
  5
247
330
173
100
AcDbEntity
  8
10472_AUSLÖSERKN
  6
Continuous
 62
     7
100
AcDbLine
 10
138.4776681225
 20
157.9661544405
 30
0.0
 11
137.6802017454
 21
159.1867803977
 31
0.0
  0
ARC
  5
248
330
173
100
AcDbEntity
  8
10472_AUSLÖSERKN
  6
Continuous
 62
     7
100
AcDbCircle
 10
137.6404990182
 20
157.4192103019
 30
0.0
 40
0.9999999999999983
100
AcDbArc
 50
303.1576196409
 51
33.1576196409
  0
ENDBLK
  5
24A
330
173
100
AcDbEntity
  8
0
100
AcDbBlockEnd
  0
BLOCK
  5
25A
330
24B
100
AcDbEntity
  8
0
100
AcDbBlockBegin
  2
SE6
 70
     0
 10
0.0
 20
0.0
 30
0.0
  3
SE6
  1

  0
INSERT
  5
24E
330
24B
100
AcDbEntity
  8
0
100
AcDbBlockReference
  2
SE7
 10
0.0
 20
0.0
 30
0.0
  0
ENDBLK
  5
25B
330
24B
100
AcDbEntity
  8
0
100
AcDbBlockEnd
  0
BLOCK
  5
258
330
24D
100
AcDbEntity
  8
0
100
AcDbBlockBegin
  2
SE7
 70
     0
 10
0.0
 20
0.0
 30
0.0
  3
SE7
  1

  0
INSERT
  5
250
330
24D
100
AcDbEntity
  8
Standard
100
AcDbBlockReference
  2
SE8
 10
0.0
 20
0.0
 30
0.0
  0
ENDBLK
  5
259
330
24D
100
AcDbEntity
  8
0
100
AcDbBlockEnd
  0
BLOCK
  5
256
330
24F
100
AcDbEntity
  8
0
100
AcDbBlockBegin
  2
SE8
 70
     0
 10
0.0
 20
0.0
 30
0.0
  3
SE8
  1

  0
INSERT
  5
252
330
24F
100
AcDbEntity
  8
0
100
AcDbBlockReference
  2
SE9
 10
0.0
 20
0.0
 30
0.0
  0
ENDBLK
  5
257
330
24F
100
AcDbEntity
  8
0
100
AcDbBlockEnd
  0
BLOCK
  5
254
330
251
100
AcDbEntity
  8
0
100
AcDbBlockBegin
  2
SE9
 70
     0
 10
0.0
 20
0.0
 30
0.0
  3
SE9
  1

  0
LINE
  5
253
330
251
100
AcDbEntity
  8
Standard
  6
Continuous
 62
     7
100
AcDbLine
 10
155.0157450809
 20
194.5015293901
 30
0.0
 11
147.0157450809
 21
194.5015293901
 31
0.0
  0
ENDBLK
  5
255
330
251
100
AcDbEntity
  8
0
100
AcDbBlockEnd
  0
BLOCK
  5
268
330
266
100
AcDbEntity
  8
0
100
AcDbBlockBegin
  2
SEANNOT_GROUP
 70
     0
 10
0.0
 20
0.0
 30
0.0
  3
SEANNOT_GROUP
  1

  0
ENDBLK
  5
269
330
266
100
AcDbEntity
  8
0
100
AcDbBlockEnd
  0
BLOCK
  5
26B
330
26A
100
AcDbEntity
  8
0
100
AcDbBlockBegin
  2
_NONE
 70
     0
 10
0.0
 20
0.0
 30
0.0
  3
_NONE
  1

  0
ENDBLK
  5
26C
330
26A
100
AcDbEntity
  8
0
100
AcDbBlockEnd
  0
ENDSEC
  0
SECTION
  2
ENTITIES
  0
INSERT
  5
70
330
1F
100
AcDbEntity
  8
Standard
100
AcDbBlockReference
  2
SE
 10
0.0
 20
0.0
 30
0.0
  0
INSERT
  5
150
330
1F
100
AcDbEntity
  8
Standard
100
AcDbBlockReference
  2
SE1
 10
0.0
 20
0.0
 30
0.0
  0
DIMENSION
  5
172
330
1F
100
AcDbEntity
  8
Standard
  6
Continuous
 62
     7
100
AcDbDimension
 10
56.2356844185
 20
175.8223172416
 30
0.0
 11
56.2356844185
 21
153.6530959086
 31
0.0
 70
   160
  1
\A1;44,5 {}
 71
     5
 42
-1.0
 73
     0
 74
     0
 75
     0
  3
E-Katalog
100
AcDbAlignedDimension
 13
63.3133359825
 23
131.4838728533
 33
0.0
 14
76.5857968671
 24
175.8223172416
 34
0.0
 50
90.0
100
AcDbRotatedDimension
  0
INSERT
  5
174
330
1F
100
AcDbEntity
  8
Standard
100
AcDbBlockReference
  2
SE5
 10
0.0
 20
0.0
 30
0.0
  0
INSERT
  5
24C
330
1F
100
AcDbEntity
  8
Standard
100
AcDbBlockReference
  2
SE6
 10
0.0
 20
0.0
 30
0.0
  0
DIMENSION
  5
25C
330
1F
100
AcDbEntity
  8
Standard
  6
Continuous
 62
     7
100
AcDbDimension
 10
77.2136618231
 20
181.7288141937
 30
0.0
 11
81.2136620131
 21
181.7288141937
 31
0.0
 70
   161
  1
\A1;<>
 71
     5
 42
-1.0
 73
     0
 74
     0
 75
     0
  3
E-Katalog
100
AcDbAlignedDimension
 13
77.2136618231
 23
182.7838725184
 33
0.0
 14
85.2136618231
 24
182.7838725184
 34
0.0
  0
DIMENSION
  5
25D
330
1F
100
AcDbEntity
  8
Standard
  6
Continuous
 62
     7
100
AcDbDimension
 10
62.6158354435
 20
181.7288141583
 30
0.0
 11
69.9147485045
 21
181.7288141583
 31
0.0
 70
   160
  1
\A1;<>
 71
     5
 42
-1.0
 73
     0
 74
     0
 75
     0
  3
E-Katalog
100
AcDbAlignedDimension
 13
77.2136618231
 23
133.2838725184
 33
0.0
 14
62.6158354435
 24
168.2775533202
 34
0.0
100
AcDbRotatedDimension
  0
MTEXT
  5
25F
330
1F
100
AcDbEntity
  8
Default
100
AcDbMText
 10
139.6221177889
 20
28.161474171
 30
0.0
 40
2.5
 41
60.0887616677
 46
5.4782708696
 71
     4
 72
     1
  1
{\fSolid Edge ISO|b0||i0||c0|p34;\C7;\H2.5;\W1.;Schall-Ex® GS-8}
 73
     1
 44
1.0
1001
ACAD
1000
ACAD_MTEXT_DEFINED_HEIGHT_BEGIN
1070
    46
1040
5.4782708696
1000
ACAD_MTEXT_DEFINED_HEIGHT_END
  0
LINE
  5
260
330
1F
100
AcDbEntity
  8
Default
  6
Continuous
 62
     7
100
AcDbLine
 10
138.2000000051
 20
9.9999999541
 30
0.0
 11
138.2000000051
 21
34.3502211504
 31
0.0
  0
MTEXT
  5
261
330
1F
100
AcDbEntity
  8
Default
100
AcDbMText
 10
122.5168744495
 20
17.5485405285
 30
0.0
 40
2.2
 41
15.7520375387
 46
4.0615484615
 71
     1
 72
     1
  1
{\fSolid Edge ANSI|b0||i0||c0|p34;\C7;\H2.2;\W1.;Maßst.}{\fSolid Edge ANSI|b0||i0||c0|p34;\C7;\H1.5;\W1.;/ scale}
 73
     1
 44
1.0
1001
ACAD
1000
ACAD_MTEXT_DEFINED_HEIGHT_BEGIN
1070
    46
1040
4.0615484615
1000
ACAD_MTEXT_DEFINED_HEIGHT_END
  0
MTEXT
  5
262
330
1F
100
AcDbEntity
  8
Default
100
AcDbMText
 10
148.2238718478
 20
15.907103298
 30
0.0
 40
2.2
 41
18.1206027323
 46
4.0615484615
 71
     5
 72
     1
  1
{\fSolid Edge ANSI|b0||i0||c0|p34;\C7;\H2.2;\W1.;Art. Nr.}{\fSolid Edge ANSI|b0||i0||c0|p34;\C7;\H1.5;\W1.;/ art. no.}
 73
     1
 44
1.0
1001
ACAD
1000
ACAD_MTEXT_DEFINED_HEIGHT_BEGIN
1070
    46
1040
4.0615484615
1000
ACAD_MTEXT_DEFINED_HEIGHT_END
  0
MTEXT
  5
263
330
1F
100
AcDbEntity
  8
Default
100
AcDbMText
 10
139.5512791446
 20
32.9682471949
 30
0.0
 40
2.2
 41
21.7100432289
 46
4.0615484615
 71
     1
 72
     1
  1
{\fSolid Edge ANSI|b0||i0||c0|p34;\C7;\H2.2;\W1.;Benennung}{\fSolid Edge ANSI|b0||i0||c0|p34;\C7;\H1.5;\W1.;/ title}
 73
     1
 44
1.0
1001
ACAD
1000
ACAD_MTEXT_DEFINED_HEIGHT_BEGIN
1070
    46
1040
4.0615484615
1000
ACAD_MTEXT_DEFINED_HEIGHT_END
  0
LINE
  5
264
330
1F
100
AcDbEntity
  8
Default
  6
Continuous
 62
     7
100
AcDbLine
 10
9.9999999859
 20
25.9987912971
 30
0.0
 11
199.9999999859
 21
25.9987912971
 31
0.0
  0
LINE
  5
265
330
1F
100
AcDbEntity
  8
Default
  6
Continuous
 62
     7
100
AcDbLine
 10
138.2000000051
 20
34.3502211504
 30
0.0
 11
199.9999999859
 21
34.3502211504
 31
0.0
  0
INSERT
  5
267
330
1F
100
AcDbEntity
  8
Standard
100
AcDbBlockReference
  2
SEANNOT_GROUP
 10
0.0
 20
0.0
 30
0.0
  0
MULTILEADER
  5
26D
330
1F
100
AcDbEntity
  8
Standard
  6
Continuous
 62
     7
 92
      224
310
E0000000020000000C00000013000000993A0000CC0000002600000024AC20655A0D60407E6F6387C31D2640000000000000000000000000000000000000000000000000000000000000F03F000000000000F03F0000000000000000000000000000000031003A003100000003000000010000003333333333330940000000
310
000000F03F0000000000000000000000000000F03F00000000000000000000000000000000000000000000000000000000000000002200000053006F006C0069006400200045006400670065002000490053004F00000000000000000000000000
100
AcDbMLeader
300
CONTEXT_DATA{
 40
1.0
 10
126.5558845495
 20
12.6331323918
 30
0.0
 41
3.15
140
4.725
145
1.1025
174
     1
175
     1
176
     0
177
     0
290
     1
304
{\pxsm1.;\fSolid Edge ISO|b0||i0||c0|p34;\W1.;1:1\P}
 11
0.0
 21
0.0
 31
1.0
340
11
 12
128.5558845495
 22
14.2112823918
 32
0.0
 13
1.0
 23
0.0
 33
0.0
 42
0.0
 43
0.0
 44
0.0
 45
1.0
170
     1
 90
-1023410169
171
     1
172
     1
 91
-939524096
141
1.5
 92
        0
291
     0
292
     0
173
     0
293
     0
142
0.0
143
0.0
294
     0
295
     0
296
     0
110
0.0
120
0.0
130
0.0
111
1.0
121
0.0
131
0.0
112
0.0
122
1.0
132
0.0
297
     0
301
}
340
6C
 90
 35119009
170
     0
 91
-1056964608
341
14
171
    -2
290
     1
291
     1
 41
0.0
342
26A
 42
4.725
172
     2
343
11
173
     1
 95
        1
174
     1
175
     0
 92
-1023410169
292
     0
 93
-1023410169
 10
1.0
 20
1.0
 30
1.0
 43
0.0
176
     0
293
     0
294
     0
178
     0
179
     1
 45
1.0
1001
ACAD_MLEADERVER
1070
     2
  0
MTEXT
  5
26E
330
1F
100
AcDbEntity
  8
Default
100
AcDbMText
 10
139.7786414766
 20
12.1030055624
 30
0.0
 40
3.0
 41
18.7991063348
 46
5.0845858028
 71
     4
 72
     1
  1
{\fSolid Edge ISO|b0||i0||c0|p34;\C7;\H3.;\W1.;1-671}
 73
     1
 44
1.0
1001
ACAD
1000
ACAD_MTEXT_DEFINED_HEIGHT_BEGIN
1070
    46
1040
5.0845858028
1000
ACAD_MTEXT_DEFINED_HEIGHT_END
  0
MTEXT
  5
26F
330
1F
100
AcDbEntity
  8
Standard
100
AcDbMText
 10
128.2243715112
 20
21.9523050455
 30
0.0
 40
2.5
 41
4.125011
 46
4.0909190909
 71
     1
 72
     1
  1
{\fSolid Edge ISO|b0||i0||c0|p34;\C7;\H2.5;\W1.;mm}
 73
     1
 44
1.0
1001
ACAD
1000
ACAD_MTEXT_DEFINED_HEIGHT_BEGIN
1070
    46
1040
4.0909190909
1000
ACAD_MTEXT_DEFINED_HEIGHT_END
  0
LINE
  5
270
330
1F
100
AcDbEntity
  8
Standard
  6
Continuous
 62
     7
100
AcDbLine
 10
138.2000000051
 20
18.2287912793
 30
0.0
 11
106.3095894048
 21
18.2287912793
 31
0.0
  0
LINE
  5
271
330
1F
100
AcDbEntity
  8
Standard
  6
Continuous
 62
     7
100
AcDbLine
 10
106.3095894048
 20
25.9987912971
 30
0.0
 11
106.3095894048
 21
9.9999999541
 31
0.0
  0
MTEXT
  5
272
330
1F
100
AcDbEntity
  8
Standard
100
AcDbMText
 10
106.9145404388
 20
25.2290846617
 30
0.0
 40
2.2
 41
14.4015494615
 46
4.0615484615
 71
     1
 72
     1
  1
{\fSolid Edge ANSI|b0||i0||c0|p34;\C7;\H2.2;\W1.;freig.}{\fSolid Edge ANSI|b0||i0||c0|p34;\C7;\H1.5;\W1.;/ appr.}
 73
     1
 44
1.0
1001
ACAD
1000
ACAD_MTEXT_DEFINED_HEIGHT_BEGIN
1070
    46
1040
4.0615484615
1000
ACAD_MTEXT_DEFINED_HEIGHT_END
  0
MTEXT
  5
273
330
1F
100
AcDbEntity
  8
Default
100
AcDbMText
 10
107.6188207159
 20
17.6037681847
 30
0.0
 40
2.2
 41
13.1956831311
 46
4.0615484615
 71
     1
 72
     1
  1
{\fSolid Edge ANSI|b0||i0||c0|p34;\C7;\H2.2;\W1.;Blatt}{\fSolid Edge ANSI|b0||i0||c0|p34;\C7;\H1.5;\W1.;/ sheet}
 73
     1
 44
1.0
1001
ACAD
1000
ACAD_MTEXT_DEFINED_HEIGHT_BEGIN
1070
    46
1040
4.0615484615
1000
ACAD_MTEXT_DEFINED_HEIGHT_END
  0
MTEXT
  5
274
330
1F
100
AcDbEntity
  8
Standard
100
AcDbMText
 10
112.0531670475
 20
14.2192192227
 30
0.0
 40
3.0
 41
3.750011
 46
4.9091009091
 71
     1
 72
     1
  1
{\fSolid Edge ISO|b0||i0||c0|p34;\C7;\H3.;\W1.;A4}
 73
     1
 44
1.0
1001
ACAD
1000
ACAD_MTEXT_DEFINED_HEIGHT_BEGIN
1070
    46
1040
4.9091009091
1000
ACAD_MTEXT_DEFINED_HEIGHT_END
  0
MTEXT
  5
275
330
1F
100
AcDbEntity
  8
Standard
100
AcDbMText
 10
10.6587314417
 20
33.7981133176
 30
0.0
 40
1.2
 41
127.5412685634
 46
8.1685527897
 71
     1
 72
     1
  3
{\fSolid Edge ANSI|b0||i0||c0|p34;\C7;\H1.2;\W1.;Weitergabe sowie Vervielfältigung dieser vertraulichen Unterlage(n), Verwertung und Mitteilung ihres Inhalts nicht ohne unsere vorherige schriftliche Genehmigung gestattet. \P}{\fSolid Edge ANSI|b0||i0
  3
||c0|p34;\C7;\H1.2;\W1.;Zuwiderhandlungen verpflichten zu Schadenersatz. Alle Rechte für den Fall der Patenterteilung oder Gebrauchsmuster-Eintragung vorbehalten.\P}{\fSolid Edge ANSI|b0||i0||c0|p34;\C7;\H1.;\W1.;The copying, use, distribution or dis
  3
closure of the confidential and proprietary information contained in this document(s) is strictly prohibited without prior written consent. Any breach shall subject the \P}{\fSolid Edge ANSI|b0||i0||c0|p34;\C7;\H1.;\W1.;infringing party to remedies. 
  1
The owner reserves all rights in the event of the grant of a patent or the registration of a utility model or design.}
 73
     1
 44
1.0
1001
ACAD
1000
ACAD_MTEXT_DEFINED_HEIGHT_BEGIN
1070
    46
1040
8.1685527897
1000
ACAD_MTEXT_DEFINED_HEIGHT_END
  0
MTEXT
  5
276
330
1F
100
AcDbEntity
  8
Default
100
AcDbMText
 10
139.5531289039
 20
20.5520608538
 30
0.0
 40
2.5
 41
59.872727305
 46
4.6153946154
 71
     4
 72
     1
  1
{\fSolid Edge ISO|b0||i0||c0|p34;\C7;\H2.5;\W1.;technische Zeichnung_mkt}
 73
     1
 44
1.0
1001
ACAD
1000
ACAD_MTEXT_DEFINED_HEIGHT_BEGIN
1070
    46
1040
4.6153946154
1000
ACAD_MTEXT_DEFINED_HEIGHT_END
  0
MTEXT
  5
277
330
1F
100
AcDbEntity
  8
Default
100
AcDbMText
 10
139.645932934
 20
25.5772390452
 30
0.0
 40
2.2
 41
33.0612482929
 46
4.0615484615
 71
     1
 72
     1
  1
{\fSolid Edge ANSI|b0||i0||c0|p34;\C7;\H2.2;\W1.;Zeichnungsart}{\fSolid Edge ANSI|b0||i0||c0|p34;\C7;\H1.5;\W1.;/ drawing type}
 73
     1
 44
1.0
1001
ACAD
1000
ACAD_MTEXT_DEFINED_HEIGHT_BEGIN
1070
    46
1040
4.0615484615
1000
ACAD_MTEXT_DEFINED_HEIGHT_END
  0
MTEXT
  5
278
330
1F
100
AcDbEntity
  8
Standard
100
AcDbMText
 10
122.722860057
 20
25.1473558409
 30
0.0
 40
2.2
 41
15.8428315128
 46
4.0615484615
 71
     1
 72
     1
  1
{\fSolid Edge ANSI|b0||i0||c0|p34;\C7;\H2.2;\W1.;Einheit}{\fSolid Edge ANSI|b0||i0||c0|p34;\C7;\H1.5;\W1.;/ unit}
 73
     1
 44
1.0
1001
ACAD
1000
ACAD_MTEXT_DEFINED_HEIGHT_BEGIN
1070
    46
1040
4.0615484615
1000
ACAD_MTEXT_DEFINED_HEIGHT_END
  0
LINE
  5
279
330
1F
100
AcDbEntity
  8
Standard
  6
Continuous
 62
     7
100
AcDbLine
 10
122.1841943695
 20
25.9987912971
 30
0.0
 11
122.1841943695
 21
10.0
 31
0.0
  0
LINE
  5
27A
330
1F
100
AcDbEntity
  8
Standard
  6
Continuous
 62
     7
100
AcDbLine
 10
138.2000000051
 20
18.2287912793
 30
0.0
 11
200.0
 21
18.2287912793
 31
0.0
  0
LINE
  5
27B
330
1F
100
AcDbEntity
  8
Standard
  6
Continuous
 62
     7
100
AcDbLine
 10
138.2000000051
 20
34.3502211504
 30
0.0
 11
10.0
 21
34.3502211504
 31
0.0
  0
LINE
  5
27D
330
1F
100
AcDbEntity
  8
Skizziergeometrie(DIN)
  6
Continuous
 62
     7
100
AcDbLine
 10
10.0
 20
287.0
 30
0.0
 11
200.0
 21
287.0
 31
0.0
  0
LINE
  5
27E
330
1F
100
AcDbEntity
  8
Skizziergeometrie(DIN)
  6
Continuous
 62
     7
100
AcDbLine
 10
200.0
 20
287.0
 30
0.0
 11
200.0
 21
9.9999926436
 31
0.0
  0
LINE
  5
27F
330
1F
100
AcDbEntity
  8
Skizziergeometrie(DIN)
  6
Continuous
 62
     7
100
AcDbLine
 10
200.0
 20
9.9999926436
 30
0.0
 11
10.0
 21
9.9999926436
 31
0.0
  0
LINE
  5
280
330
1F
100
AcDbEntity
  8
Skizziergeometrie(DIN)
  6
Continuous
 62
     7
100
AcDbLine
 10
10.0
 20
10.0
 30
0.0
 11
10.0
 21
287.0
 31
0.0
  0
MTEXT
  5
281
330
1F
100
AcDbEntity
  8
Default
100
AcDbMText
 10
106.9892886679
 20
20.383550953
 30
0.0
 40
2.2
 41
14.7330465525
 46
3.6
 71
     4
 72
     1
  1
{\fSolid Edge ISO|b0||i0||c0|p34;\C7;\H2.2;\W1.;23.11.2023}
 73
     1
 44
1.0
1001
ACAD
1000
ACAD_MTEXT_DEFINED_HEIGHT_BEGIN
1070
    46
1040
3.6
1000
ACAD_MTEXT_DEFINED_HEIGHT_END
  0
IMAGE
  5
285
330
1F
100
AcDbEntity
  8
0
 92
      140
310
8C00000001000000840000000600000005000000132FCF2C236F2B40E2F8C052077A25400000000000000000B2C0EF17296D4740E2F8C052077A25400000000000000000B2C0EF17296D47405B153790EE6A38400000000000000000132FCF2C236F2B405B153790EE6A38400000000000000000132FCF2C236F2B40E2F8C0
310
52077A25400000000000000000
100
AcDbRasterImage
 90
        0
 10
13.7170652392
 20
10.738337122
 30
0.0
 11
0.009660568902312008
 21
0.0
 31
0.0
 12
0.0
 22
0.009660568902311975
 32
0.0
 13
3430.0
 23
1416.0
340
284
 70
     7
280
     0
281
    50
282
    50
283
     0
360
286
 71
     1
 91
        2
 14
-0.5
 24
-0.5
 14
3429.5
 24
1415.5
  0
ENDSEC
  0
SECTION
  2
OBJECTS
  0
DICTIONARY
  5
C
330
0
100
AcDbDictionary
281
     1
  3
ACAD_DETAILVIEWSTYLE
350
2C2
  3
ACAD_GROUP
350
D
  3
ACAD_IMAGE_DICT
350
283
  3
ACAD_IMAGE_VARS
350
282
  3
ACAD_LAYOUT
350
1A
  3
ACAD_MATERIAL
350
43
  3
ACAD_MLEADERSTYLE
350
6B
  3
ACAD_MLINESTYLE
350
17
  3
ACAD_PLOTSETTINGS
350
19
  3
ACAD_PLOTSTYLENAME
350
E
  3
ACAD_SCALELIST
350
47
  3
ACAD_SECTIONVIEWSTYLE
350
2C3
  3
ACAD_TABLESTYLE
350
69
  3
ACAD_VISUALSTYLE
350
2A
  3
ACDB_RECOMPOSE_DATA
350
2BF
  3
AcDbVariableDictionary
350
288
  0
SUN
  5
6D
330
29
100
AcDbSun
 90
        1
290
     0
 63
     7
421
 16777215
 40
1.0
291
     1
 91
  2455826
 92
 54000000
292
     0
 70
     2
 71
   256
280
     1
  0
IMAGEDEF_REACTOR
  5
286
330
285
100
AcDbRasterImageDefReactor
 90
        2
330
285
  0
DICTIONARY
  5
2C2
102
{ACAD_REACTORS
330
C
102
}
330
C
100
AcDbDictionary
281
     1
  0
DICTIONARY
  5
D
102
{ACAD_REACTORS
330
C
102
}
330
C
100
AcDbDictionary
281
     1
  0
DICTIONARY
  5
283
102
{ACAD_REACTORS
330
C
102
}
330
C
100
AcDbDictionary
281
     1
  3
1-671-1x_IMAGE_PASTED_FROM_CLIPBOARD_INTO_SOLID_EDGE_2.bmp
350
284
  0
RASTERVARIABLES
  5
282
102
{ACAD_REACTORS
330
C
102
}
330
C
100
AcDbRasterVariables
 90
        0
 70
     1
 71
     1
 72
     1
  0
DICTIONARY
  5
1A
102
{ACAD_REACTORS
330
C
102
}
330
C
100
AcDbDictionary
281
     1
  3
Layout1
350
1E
  3
Model
350
22
  0
DICTIONARY
  5
43
102
{ACAD_REACTORS
330
C
102
}
330
C
100
AcDbDictionary
281
     1
  3
ByBlock
350
45
  3
ByLayer
350
44
  3
Global
350
46
  0
DICTIONARY
  5
6B
102
{ACAD_REACTORS
330
C
102
}
330
C
100
AcDbDictionary
281
     1
  3
Standard
350
6C
  0
DICTIONARY
  5
17
102
{ACAD_REACTORS
330
C
102
}
330
C
100
AcDbDictionary
281
     1
  3
Standard
350
18
  0
DICTIONARY
  5
19
102
{ACAD_REACTORS
330
C
102
}
330
C
100
AcDbDictionary
281
     1
  0
ACDBDICTIONARYWDFLT
  5
E
102
{ACAD_REACTORS
330
C
102
}
330
C
100
AcDbDictionary
281
     1
  3
Normal
350
F
100
AcDbDictionaryWithDefault
340
F
  0
DICTIONARY
  5
47
102
{ACAD_REACTORS
330
C
102
}
330
C
100
AcDbDictionary
281
     1
  3
A0
350
48
  3
A1
350
49
  3
A2
350
4A
  3
A3
350
4B
  3
A4
350
4C
  3
A5
350
4D
  3
A6
350
4E
  3
A7
350
4F
  3
A8
350
50
  3
A9
350
51
  3
B0
350
52
  3
B1
350
53
  3
B2
350
54
  3
B3
350
55
  3
B4
350
56
  3
B5
350
57
  3
B6
350
58
  3
B7
350
59
  3
B8
350
5A
  3
B9
350
5B
  3
C0
350
5C
  3
C1
350
5D
  3
C2
350
5E
  3
C3
350
5F
  3
C4
350
60
  3
C5
350
61
  3
C6
350
62
  3
C7
350
63
  3
C8
350
64
  3
C9
350
65
  3
D0
350
66
  3
D1
350
67
  3
D2
350
68
  0
DICTIONARY
  5
2C3
102
{ACAD_REACTORS
330
C
102
}
330
C
100
AcDbDictionary
281
     1
  0
DICTIONARY
  5
69
102
{ACAD_REACTORS
330
C
102
}
330
C
100
AcDbDictionary
281
     1
  3
Standard
350
6A
  0
DICTIONARY
  5
2A
102
{ACAD_REACTORS
330
C
102
}
330
C
100
AcDbDictionary
281
     1
  3
2dWireframe
350
2F
  3
Basic
350
32
  3
Brighten
350
36
  3
ColorChange
350
3A
  3
Conceptual
350
34
  3
Dim
350
35
  3
EdgeColorOff
350
3D
  3
Facepattern
350
39
  3
Flat
350
2B
  3
FlatWithEdges
350
2C
  3
Gouraud
350
2D
  3
GouraudWithEdges
350
2E
  3
Hidden
350
31
  3
JitterOff
350
3B
  3
Linepattern
350
38
  3
OverhangOff
350
3C
  3
Realistic
350
33
  3
Shaded
350
42
  3
Shaded with edges
350
41
  3
Shades of Gray
350
3E
  3
Sketchy
350
3F
  3
Thicken
350
37
  3
Wireframe
350
30
  3
X-Ray
350
40
  0
XRECORD
  5
2BF
102
{ACAD_REACTORS
330
C
102
}
330
C
100
AcDbXrecord
280
     1
 90
        1
330
6A
  0
DICTIONARY
  5
288
102
{ACAD_REACTORS
330
C
102
}
330
C
100
AcDbDictionary
281
     1
  3
CANNOSCALE
350
289
  3
CENTEREXE
350
2C4
  3
CENTERLTYPEFILE
350
2C5
  3
CMLEADERSTYLE
350
2C1
  3
CTABLESTYLE
350
2C0
  3
XCLIPFRAME
350
28A
  0
IMAGEDEF
  5
284
102
{ACAD_REACTORS
330
283
330
286
102
}
330
283
100
AcDbRasterImageDef
 90
        0
  1
1-671-1x_IMAGE_PASTED_FROM_CLIPBOARD_INTO_SOLID_EDGE_2.bmp
 10
3430.0
 20
1416.0
 11
0.0002915451895043732
 21
0.0002915451895043732
280
     1
281
     5
  0
LAYOUT
  5
1E
102
{ACAD_REACTORS
330
1A
102
}
330
1A
100
AcDbPlotSettings
  1

  2
none_device
  4

  6

 40
0.0
 41
0.0
 42
0.0
 43
0.0
 44
0.0
 45
0.0
 46
0.0
 47
0.0
 48
0.0
 49
0.0
140
0.0
141
0.0
142
1.0
143
1.0
 70
   688
 72
     1
 73
     0
 74
     5
  7

 75
    16
 76
     0
 77
     2
 78
   300
147
1.0
148
0.0
149
0.0
100
AcDbLayout
  1
Layout1
 70
     1
 71
     1
 10
0.0
 20
0.0
 11
210.0
 21
297.0
 12
0.0
 22
0.0
 32
0.0
 14
0.0
 24
0.0
 34
0.0
 15
210.0
 25
297.0
 35
0.0
146
0.0
 13
0.0
 23
0.0
 33
0.0
 16
1.0
 26
0.0
 36
0.0
 17
0.0
 27
1.0
 37
0.0
 76
     0
330
1B
  0
LAYOUT
  5
22
102
{ACAD_REACTORS
330
1A
102
}
330
1A
100
AcDbPlotSettings
  1

  2
none_device
  4
Letter_(8.50_x_11.00_Inches)
  6

 40
6.35
 41
6.35
 42
6.35000508
 43
6.35000508
 44
215.9
 45
279.4
 46
0.0
 47
0.0
 48
0.0
 49
0.0
140
0.0
141
0.0
142
1.0
143
1.0
 70
  1712
 72
     1
 73
     0
 74
     0
  7

 75
     0
 76
     0
 77
     2
 78
   300
147
1.0
148
0.0
149
0.0
100
AcDbLayout
  1
Model
 70
     1
 71
     0
 10
0.0
 20
0.0
 11
210.0
 21
297.0
 12
0.0
 22
0.0
 32
0.0
 14
0.0
 24
0.0
 34
0.0
 15
210.0
 25
297.0
 35
0.0
146
0.0
 13
0.0
 23
0.0
 33
0.0
 16
1.0
 26
0.0
 36
0.0
 17
0.0
 27
1.0
 37
0.0
 76
     0
330
1F
331
29
  0
MATERIAL
  5
45
102
{ACAD_REACTORS
330
43
102
}
330
43
100
AcDbMaterial
  1
ByBlock
 72
     1
 94
      127
  0
MATERIAL
  5
44
102
{ACAD_REACTORS
330
43
102
}
330
43
100
AcDbMaterial
  1
ByLayer
 72
     1
 94
      127
  0
MATERIAL
  5
46
102
{ACAD_REACTORS
330
43
102
}
330
43
100
AcDbMaterial
  1
Global
 72
     1
 94
      127
  0
MLEADERSTYLE
  5
6C
102
{ACAD_REACTORS
330
6B
102
}
102
{ACAD_XDICTIONARY
360
2BD
102
}
330
6B
100
AcDbMLeaderStyle
170
     2
171
     1
172
     0
 90
        2
 40
0.0
 41
0.0
173
     1
 91
-1056964608
340
14
 92
       -2
290
     1
 42
2.0
291
     1
 43
8.0
  3
Standard
341
0
 44
4.0
300

342
11
174
     1
178
     6
175
     1
176
     0
 93
-1056964608
 45
4.0
292
     0
297
     0
 46
4.0
343
0
 94
-1056964608
 47
1.0
 49
1.0
140
1.0
293
     1
141
0.0
294
     1
177
     0
142
1.0
295
     0
296
     0
143
3.75
1001
ACAD_MLEADERVER
1070
     2
  0
MLINESTYLE
  5
18
102
{ACAD_REACTORS
330
17
102
}
330
17
100
AcDbMlineStyle
  2
Standard
 70
     0
  3

 62
   256
 51
90.0
 52
90.0
 71
     2
 49
0.5
 62
   256
  6
BYLAYER
 49
-0.5
 62
   256
  6
BYLAYER
  0
ACDBPLACEHOLDER
  5
F
102
{ACAD_REACTORS
330
E
102
}
330
E
  0
SCALE
  5
48
102
{ACAD_REACTORS
330
47
102
}
330
47
100
AcDbScale
 70
     0
300
1:1
140
1.0
141
1.0
290
     1
  0
SCALE
  5
49
102
{ACAD_REACTORS
330
47
102
}
330
47
100
AcDbScale
 70
     0
300
1:2
140
1.0
141
2.0
290
     0
  0
SCALE
  5
4A
102
{ACAD_REACTORS
330
47
102
}
330
47
100
AcDbScale
 70
     0
300
1:4
140
1.0
141
4.0
290
     0
  0
SCALE
  5
4B
102
{ACAD_REACTORS
330
47
102
}
330
47
100
AcDbScale
 70
     0
300
1:5
140
1.0
141
5.0
290
     0
  0
SCALE
  5
4C
102
{ACAD_REACTORS
330
47
102
}
330
47
100
AcDbScale
 70
     0
300
1:8
140
1.0
141
8.0
290
     0
  0
SCALE
  5
4D
102
{ACAD_REACTORS
330
47
102
}
330
47
100
AcDbScale
 70
     0
300
1:10
140
1.0
141
10.0
290
     0
  0
SCALE
  5
4E
102
{ACAD_REACTORS
330
47
102
}
330
47
100
AcDbScale
 70
     0
300
1:16
140
1.0
141
16.0
290
     0
  0
SCALE
  5
4F
102
{ACAD_REACTORS
330
47
102
}
330
47
100
AcDbScale
 70
     0
300
1:20
140
1.0
141
20.0
290
     0
  0
SCALE
  5
50
102
{ACAD_REACTORS
330
47
102
}
330
47
100
AcDbScale
 70
     0
300
1:30
140
1.0
141
30.0
290
     0
  0
SCALE
  5
51
102
{ACAD_REACTORS
330
47
102
}
330
47
100
AcDbScale
 70
     0
300
1:40
140
1.0
141
40.0
290
     0
  0
SCALE
  5
52
102
{ACAD_REACTORS
330
47
102
}
330
47
100
AcDbScale
 70
     0
300
1:50
140
1.0
141
50.0
290
     0
  0
SCALE
  5
53
102
{ACAD_REACTORS
330
47
102
}
330
47
100
AcDbScale
 70
     0
300
1:100
140
1.0
141
100.0
290
     0
  0
SCALE
  5
54
102
{ACAD_REACTORS
330
47
102
}
330
47
100
AcDbScale
 70
     0
300
2:1
140
2.0
141
1.0
290
     0
  0
SCALE
  5
55
102
{ACAD_REACTORS
330
47
102
}
330
47
100
AcDbScale
 70
     0
300
4:1
140
4.0
141
1.0
290
     0
  0
SCALE
  5
56
102
{ACAD_REACTORS
330
47
102
}
330
47
100
AcDbScale
 70
     0
300
8:1
140
8.0
141
1.0
290
     0
  0
SCALE
  5
57
102
{ACAD_REACTORS
330
47
102
}
330
47
100
AcDbScale
 70
     0
300
10:1
140
10.0
141
1.0
290
     0
  0
SCALE
  5
58
102
{ACAD_REACTORS
330
47
102
}
330
47
100
AcDbScale
 70
     0
300
100:1
140
100.0
141
1.0
290
     0
  0
SCALE
  5
59
102
{ACAD_REACTORS
330
47
102
}
330
47
100
AcDbScale
 70
     0
300
1/128" = 1'-0"
140
0.0078125
141
12.0
290
     0
  0
SCALE
  5
5A
102
{ACAD_REACTORS
330
47
102
}
330
47
100
AcDbScale
 70
     0
300
1/64" = 1'-0"
140
0.015625
141
12.0
290
     0
  0
SCALE
  5
5B
102
{ACAD_REACTORS
330
47
102
}
330
47
100
AcDbScale
 70
     0
300
1/32" = 1'-0"
140
0.03125
141
12.0
290
     0
  0
SCALE
  5
5C
102
{ACAD_REACTORS
330
47
102
}
330
47
100
AcDbScale
 70
     0
300
1/16" = 1'-0"
140
0.0625
141
12.0
290
     0
  0
SCALE
  5
5D
102
{ACAD_REACTORS
330
47
102
}
330
47
100
AcDbScale
 70
     0
300
3/32" = 1'-0"
140
0.09375
141
12.0
290
     0
  0
SCALE
  5
5E
102
{ACAD_REACTORS
330
47
102
}
330
47
100
AcDbScale
 70
     0
300
1/8" = 1'-0"
140
0.125
141
12.0
290
     0
  0
SCALE
  5
5F
102
{ACAD_REACTORS
330
47
102
}
330
47
100
AcDbScale
 70
     0
300
3/16" = 1'-0"
140
0.1875
141
12.0
290
     0
  0
SCALE
  5
60
102
{ACAD_REACTORS
330
47
102
}
330
47
100
AcDbScale
 70
     0
300
1/4" = 1'-0"
140
0.25
141
12.0
290
     0
  0
SCALE
  5
61
102
{ACAD_REACTORS
330
47
102
}
330
47
100
AcDbScale
 70
     0
300
3/8" = 1'-0"
140
0.375
141
12.0
290
     0
  0
SCALE
  5
62
102
{ACAD_REACTORS
330
47
102
}
330
47
100
AcDbScale
 70
     0
300
1/2" = 1'-0"
140
0.5
141
12.0
290
     0
  0
SCALE
  5
63
102
{ACAD_REACTORS
330
47
102
}
330
47
100
AcDbScale
 70
     0
300
3/4" = 1'-0"
140
0.75
141
12.0
290
     0
  0
SCALE
  5
64
102
{ACAD_REACTORS
330
47
102
}
330
47
100
AcDbScale
 70
     0
300
1" = 1'-0"
140
1.0
141
12.0
290
     0
  0
SCALE
  5
65
102
{ACAD_REACTORS
330
47
102
}
330
47
100
AcDbScale
 70
     0
300
1-1/2" = 1'-0"
140
1.5
141
12.0
290
     0
  0
SCALE
  5
66
102
{ACAD_REACTORS
330
47
102
}
330
47
100
AcDbScale
 70
     0
300
3" = 1'-0"
140
3.0
141
12.0
290
     0
  0
SCALE
  5
67
102
{ACAD_REACTORS
330
47
102
}
330
47
100
AcDbScale
 70
     0
300
6" = 1'-0"
140
6.0
141
12.0
290
     0
  0
SCALE
  5
68
102
{ACAD_REACTORS
330
47
102
}
330
47
100
AcDbScale
 70
     0
300
1'-0" = 1'-0"
140
12.0
141
12.0
290
     0
  0
TABLESTYLE
  5
6A
102
{ACAD_REACTORS
330
69
102
}
102
{ACAD_XDICTIONARY
360
2BB
102
}
330
69
100
AcDbTableStyle
  3
Standard
 70
     0
 71
     0
 40
0.06
 41
0.06
280
     0
281
     0
  7
Standard
140
4.5
170
     2
 62
     0
 63
   257
283
     0
 90
        4
 91
        0
  1

274
    -2
284
     1
 64
     0
275
    -2
285
     1
 65
     0
276
    -2
286
     1
 66
     0
277
    -2
287
     1
 67
     0
278
    -2
288
     1
 68
     0
279
    -2
289
     1
 69
     0
  7
Standard
140
6.0
170
     5
 62
     0
 63
   257
283
     0
 90
        4
 91
        0
  1

274
    -2
284
     1
 64
     0
275
    -2
285
     1
 65
     0
276
    -2
286
     1
 66
     0
277
    -2
287
     1
 67
     0
278
    -2
288
     1
 68
     0
279
    -2
289
     1
 69
     0
  7
Standard
140
4.5
170
     5
 62
     0
 63
   257
283
     0
 90
        4
 91
        0
  1

274
    -2
284
     1
 64
     0
275
    -2
285
     1
 65
     0
276
    -2
286
     1
 66
     0
277
    -2
287
     1
 67
     0
278
    -2
288
     1
 68
     0
279
    -2
289
     1
 69
     0
  0
VISUALSTYLE
  5
2F
102
{ACAD_REACTORS
330
2A
102
}
102
{ACAD_XDICTIONARY
360
293
102
}
330
2A
100
AcDbVisualStyle
  2
2dWireframe
 70
     4
 71
     0
 72
     2
 73
     0
 90
        0
 40
0.6
 41
30.0
 62
     5
 63
     7
421
 16777215
 74
     1
 91
        4
 64
     7
 65
   257
 75
     1
175
     1
 42
1.0
 92
        0
 66
   257
 43
1.0
 76
     1
 77
     6
 78
     2
 67
     7
 79
     5
170
     0
171
     0
290
     0
174
     0
 93
        1
 44
0.0
173
     0
291
     0
 45
0.0
  0
VISUALSTYLE
  5
32
102
{ACAD_REACTORS
330
2A
102
}
102
{ACAD_XDICTIONARY
360
299
102
}
330
2A
100
AcDbVisualStyle
  2
Basic
 70
     7
 71
     1
 72
     0
 73
     1
 90
        0
 40
0.6
 41
30.0
 62
     5
 63
     7
421
 16777215
 74
     0
 91
        4
 64
     7
 65
   257
 75
     1
175
     1
 42
1.0
 92
        8
 66
     7
 43
1.0
 76
     1
 77
     6
 78
     2
 67
     7
 79
     5
170
     0
171
     0
290
     0
174
     0
 93
        1
 44
0.0
173
     0
291
     1
 45
0.0
  0
VISUALSTYLE
  5
36
102
{ACAD_REACTORS
330
2A
102
}
102
{ACAD_XDICTIONARY
360
2A1
102
}
330
2A
100
AcDbVisualStyle
  2
Brighten
 70
    12
 71
     2
 72
     2
 73
     0
 90
        0
 40
0.6
 41
30.0
 62
     5
 63
     7
421
 16777215
 74
     1
 91
        4
 64
     7
 65
   257
 75
     1
175
     1
 42
1.0
 92
        8
 66
     7
 43
1.0
 76
     1
 77
     6
 78
     2
 67
     7
 79
     5
170
     0
171
     0
290
     0
174
     0
 93
        1
 44
50.0
173
     0
291
     1
 45
0.0
  0
VISUALSTYLE
  5
3A
102
{ACAD_REACTORS
330
2A
102
}
102
{ACAD_XDICTIONARY
360
2A9
102
}
330
2A
100
AcDbVisualStyle
  2
ColorChange
 70
    16
 71
     2
 72
     2
 73
     3
 90
        0
 40
0.6
 41
30.0
 62
     5
 63
     8
421
  8421504
 74
     1
 91
        4
 64
     7
 65
   257
 75
     1
175
     1
 42
1.0
 92
        8
 66
     8
424
  8421504
 43
1.0
 76
     1
 77
     6
 78
     2
 67
     7
 79
     5
170
     0
171
     0
290
     0
174
     0
 93
        1
 44
0.0
173
     0
291
     1
 45
0.0
  0
VISUALSTYLE
  5
34
102
{ACAD_REACTORS
330
2A
102
}
102
{ACAD_XDICTIONARY
360
29D
102
}
330
2A
100
AcDbVisualStyle
  2
Conceptual
 70
     9
 71
     3
 72
     2
 73
     0
 90
        0
 40
0.6
 41
30.0
 62
     5
 63
     7
421
 16777215
 74
     2
 91
        2
 64
     7
 65
   257
 75
     1
175
     1
 42
179.0
 92
        8
 66
     7
 43
1.0
 76
     1
 77
     6
 78
     2
 67
     7
 79
     3
170
     0
171
     0
290
     0
174
     0
 93
        1
 44
0.0
173
     0
291
     0
 45
0.0
  0
VISUALSTYLE
  5
35
102
{ACAD_REACTORS
330
2A
102
}
102
{ACAD_XDICTIONARY
360
29F
102
}
330
2A
100
AcDbVisualStyle
  2
Dim
 70
    11
 71
     2
 72
     2
 73
     0
 90
        0
 40
0.6
 41
30.0
 62
     5
 63
     7
421
 16777215
 74
     1
 91
        4
 64
     7
 65
   257
 75
     1
175
     1
 42
1.0
 92
        8
 66
     7
 43
1.0
 76
     1
 77
     6
 78
     2
 67
     7
 79
     5
170
     0
171
     0
290
     0
174
     0
 93
        1
 44
-50.0
173
     0
291
     1
 45
0.0
  0
VISUALSTYLE
  5
3D
102
{ACAD_REACTORS
330
2A
102
}
102
{ACAD_XDICTIONARY
360
2AF
102
}
330
2A
100
AcDbVisualStyle
  2
EdgeColorOff
 70
    22
 71
     2
 72
     2
 73
     0
 90
        0
 40
0.6
 41
30.0
 62
     5
 63
     7
421
 16777215
 74
     1
 91
        4
 64
     7
 65
   257
 75
     1
175
     1
 42
1.0
 92
        8
 66
     7
 43
1.0
 76
     1
 77
     6
 78
     2
 67
     7
 79
     5
170
     0
171
     0
290
     0
174
     0
 93
        1
 44
0.0
173
     0
291
     1
 45
0.0
  0
VISUALSTYLE
  5
39
102
{ACAD_REACTORS
330
2A
102
}
102
{ACAD_XDICTIONARY
360
2A7
102
}
330
2A
100
AcDbVisualStyle
  2
Facepattern
 70
    15
 71
     2
 72
     2
 73
     0
 90
        0
 40
0.6
 41
30.0
 62
     5
 63
     7
421
 16777215
 74
     1
 91
        4
 64
     7
 65
   257
 75
     1
175
     1
 42
1.0
 92
        8
 66
     7
 43
1.0
 76
     1
 77
     6
 78
     2
 67
     7
 79
     5
170
     0
171
     0
290
     0
174
     0
 93
        1
 44
0.0
173
     0
291
     1
 45
0.0
  0
VISUALSTYLE
  5
2B
102
{ACAD_REACTORS
330
2A
102
}
102
{ACAD_XDICTIONARY
360
28B
102
}
330
2A
100
AcDbVisualStyle
  2
Flat
 70
     0
 71
     2
 72
     1
 73
     1
 90
        2
 40
0.6
 41
30.0
 62
     5
 63
     7
421
 16777215
 74
     0
 91
        0
 64
     7
 65
   257
 75
     1
175
     1
 42
1.0
 92
        8
 66
     7
 43
1.0
 76
     1
 77
     6
 78
     2
 67
     7
 79
     5
170
     0
171
     0
290
     0
174
     0
 93
       13
 44
0.0
173
     0
291
     1
 45
0.0
  0
VISUALSTYLE
  5
2C
102
{ACAD_REACTORS
330
2A
102
}
102
{ACAD_XDICTIONARY
360
28D
102
}
330
2A
100
AcDbVisualStyle
  2
FlatWithEdges
 70
     1
 71
     2
 72
     1
 73
     1
 90
        2
 40
0.6
 41
30.0
 62
     5
 63
     7
421
 16777215
 74
     1
 91
        0
 64
     7
 65
   257
 75
     1
175
     1
 42
1.0
 92
        0
 66
   257
 43
1.0
 76
     1
 77
     6
 78
     2
 67
     7
 79
     5
170
     0
171
     0
290
     0
174
     0
 93
       13
 44
0.0
173
     0
291
     1
 45
0.0
  0
VISUALSTYLE
  5
2D
102
{ACAD_REACTORS
330
2A
102
}
102
{ACAD_XDICTIONARY
360
28F
102
}
330
2A
100
AcDbVisualStyle
  2
Gouraud
 70
     2
 71
     2
 72
     2
 73
     1
 90
        2
 40
0.6
 41
30.0
 62
     5
 63
     7
421
 16777215
 74
     0
 91
        0
 64
     7
 65
   257
 75
     1
175
     1
 42
1.0
 92
        0
 66
     7
 43
1.0
 76
     1
 77
     6
 78
     2
 67
     7
 79
     5
170
     0
171
     0
290
     0
174
     0
 93
       13
 44
0.0
173
     0
291
     1
 45
0.0
  0
VISUALSTYLE
  5
2E
102
{ACAD_REACTORS
330
2A
102
}
102
{ACAD_XDICTIONARY
360
291
102
}
330
2A
100
AcDbVisualStyle
  2
GouraudWithEdges
 70
     3
 71
     2
 72
     2
 73
     1
 90
        2
 40
0.6
 41
30.0
 62
     5
 63
     7
421
 16777215
 74
     1
 91
        0
 64
     7
 65
   257
 75
     1
175
     1
 42
1.0
 92
        0
 66
   257
 43
1.0
 76
     1
 77
     6
 78
     2
 67
     7
 79
     5
170
     0
171
     0
290
     0
174
     0
 93
       13
 44
0.0
173
     0
291
     1
 45
0.0
  0
VISUALSTYLE
  5
31
102
{ACAD_REACTORS
330
2A
102
}
102
{ACAD_XDICTIONARY
360
297
102
}
330
2A
100
AcDbVisualStyle
  2
Hidden
 70
     6
 71
     1
 72
     2
 73
     2
 90
        0
 40
0.6
 41
30.0
 62
     5
 63
     7
421
 16777215
 74
     2
 91
        2
 64
     7
 65
   257
 75
     2
175
     1
 42
40.0
 92
        0
 66
   257
 43
1.0
 76
     1
 77
     6
 78
     2
 67
     7
 79
     3
170
     0
171
     0
290
     0
174
     0
 93
        1
 44
0.0
173
     0
291
     0
 45
0.0
  0
VISUALSTYLE
  5
3B
102
{ACAD_REACTORS
330
2A
102
}
102
{ACAD_XDICTIONARY
360
2AB
102
}
330
2A
100
AcDbVisualStyle
  2
JitterOff
 70
    20
 71
     2
 72
     2
 73
     0
 90
        0
 40
0.6
 41
30.0
 62
     5
 63
     7
421
 16777215
 74
     1
 91
        4
 64
     7
 65
   257
 75
     1
175
     1
 42
1.0
 92
       10
 66
     7
 43
1.0
 76
     1
 77
     6
 78
     2
 67
     7
 79
     5
170
     0
171
     0
290
     0
174
     0
 93
        1
 44
0.0
173
     0
291
     1
 45
0.0
  0
VISUALSTYLE
  5
38
102
{ACAD_REACTORS
330
2A
102
}
102
{ACAD_XDICTIONARY
360
2A5
102
}
330
2A
100
AcDbVisualStyle
  2
Linepattern
 70
    14
 71
     2
 72
     2
 73
     0
 90
        0
 40
0.6
 41
30.0
 62
     5
 63
     7
421
 16777215
 74
     1
 91
        4
 64
     7
 65
   257
 75
     7
175
     7
 42
1.0
 92
        8
 66
     7
 43
1.0
 76
     1
 77
     6
 78
     2
 67
     7
 79
     5
170
     0
171
     0
290
     0
174
     0
 93
        1
 44
0.0
173
     0
291
     1
 45
0.0
  0
VISUALSTYLE
  5
3C
102
{ACAD_REACTORS
330
2A
102
}
102
{ACAD_XDICTIONARY
360
2AD
102
}
330
2A
100
AcDbVisualStyle
  2
OverhangOff
 70
    21
 71
     2
 72
     2
 73
     0
 90
        0
 40
0.6
 41
30.0
 62
     5
 63
     7
421
 16777215
 74
     1
 91
        4
 64
     7
 65
   257
 75
     1
175
     1
 42
1.0
 92
        9
 66
     7
 43
1.0
 76
     1
 77
     6
 78
     2
 67
     7
 79
     5
170
     0
171
     0
290
     0
174
     0
 93
        1
 44
0.0
173
     0
291
     1
 45
0.0
  0
VISUALSTYLE
  5
33
102
{ACAD_REACTORS
330
2A
102
}
102
{ACAD_XDICTIONARY
360
29B
102
}
330
2A
100
AcDbVisualStyle
  2
Realistic
 70
     8
 71
     2
 72
     3
 73
     0
 90
        2
 40
0.6
 41
30.0
 62
     5
 63
     7
421
 16777215
 74
     0
 91
        0
 64
     7
 65
   257
 75
     1
175
     1
 42
1.0
 92
        8
 66
   257
 43
1.0
 76
     1
 77
     6
 78
     2
 67
     7
 79
     3
170
     0
171
     0
290
     0
174
     0
 93
       13
 44
0.0
173
     0
291
     0
 45
0.0
  0
VISUALSTYLE
  5
42
102
{ACAD_REACTORS
330
2A
102
}
102
{ACAD_XDICTIONARY
360
2B9
102
}
330
2A
100
AcDbVisualStyle
  2
Shaded
 70
    27
 71
     2
 72
     2
 73
     1
 90
        2
 40
0.6
 41
30.0
 62
     5
 63
     7
421
 16777215
 74
     0
 91
        4
 64
     7
 65
   257
 75
     1
175
     1
 42
1.0
 92
        8
 66
   257
 43
1.0
 76
     1
 77
     6
 78
     2
 67
     8
425
  7895160
 79
     3
170
     0
171
     0
290
     0
174
     0
 93
        5
 44
0.0
173
     0
291
     0
 45
0.0
  0
VISUALSTYLE
  5
41
102
{ACAD_REACTORS
330
2A
102
}
102
{ACAD_XDICTIONARY
360
2B7
102
}
330
2A
100
AcDbVisualStyle
  2
Shaded with edges
 70
    26
 71
     2
 72
     2
 73
     1
 90
        2
 40
0.6
 41
30.0
 62
     5
 63
     7
421
 16777215
 74
     1
 91
       10
 64
     7
 65
   257
 75
     2
175
     1
 42
1.0
 92
        8
 66
   257
 43
1.0
 76
     1
 77
     6
 78
     2
 67
     7
 79
     3
170
     0
171
     0
290
     0
174
     0
 93
        5
 44
0.0
173
     0
291
     0
 45
0.0
  0
VISUALSTYLE
  5
3E
102
{ACAD_REACTORS
330
2A
102
}
102
{ACAD_XDICTIONARY
360
2B1
102
}
330
2A
100
AcDbVisualStyle
  2
Shades of Gray
 70
    23
 71
     2
 72
     2
 73
     3
 90
        0
 40
0.6
 41
30.0
 62
     5
 63
     7
421
 16777215
 74
     2
 91
        2
 64
     7
 65
     7
 75
     1
175
     1
 42
40.0
 92
        8
 66
     7
 43
1.0
 76
     1
 77
     6
 78
     2
 67
     7
 79
     3
170
     0
171
     0
290
     0
174
     0
 93
        1
 44
0.0
173
     0
291
     0
 45
0.0
  0
VISUALSTYLE
  5
3F
102
{ACAD_REACTORS
330
2A
102
}
102
{ACAD_XDICTIONARY
360
2B3
102
}
330
2A
100
AcDbVisualStyle
  2
Sketchy
 70
    24
 71
     1
 72
     2
 73
     2
 90
        0
 40
0.6
 41
30.0
 62
     5
 63
     7
421
 16777215
 74
     2
 91
        2
 64
     7
 65
     7
 75
     1
175
     1
 42
40.0
 92
       11
 66
     7
 43
1.0
 76
     1
 77
     6
 78
     2
 67
     7
 79
     6
170
     0
171
     0
290
     0
174
     0
 93
        1
 44
0.0
173
     0
291
     0
 45
0.0
  0
VISUALSTYLE
  5
37
102
{ACAD_REACTORS
330
2A
102
}
102
{ACAD_XDICTIONARY
360
2A3
102
}
330
2A
100
AcDbVisualStyle
  2
Thicken
 70
    13
 71
     2
 72
     2
 73
     0
 90
        0
 40
0.6
 41
30.0
 62
     5
 63
     7
421
 16777215
 74
     1
 91
        4
 64
     7
 65
   257
 75
     1
175
     1
 42
1.0
 92
       12
 66
     7
 43
1.0
 76
     1
 77
     6
 78
     2
 67
     7
 79
     5
170
     0
171
     0
290
     0
174
     0
 93
        1
 44
0.0
173
     0
291
     1
 45
0.0
  0
VISUALSTYLE
  5
30
102
{ACAD_REACTORS
330
2A
102
}
102
{ACAD_XDICTIONARY
360
295
102
}
330
2A
100
AcDbVisualStyle
  2
Wireframe
 70
     5
 71
     0
 72
     2
 73
     0
 90
        0
 40
0.6
 41
30.0
 62
     5
 63
     7
421
 16777215
 74
     1
 91
        4
 64
     7
 65
   257
 75
     1
175
     1
 42
1.0
 92
        0
 66
   257
 43
1.0
 76
     1
 77
     6
 78
     2
 67
     7
 79
     3
170
     0
171
     0
290
     0
174
     0
 93
        1
 44
0.0
173
     0
291
     0
 45
0.0
  0
VISUALSTYLE
  5
40
102
{ACAD_REACTORS
330
2A
102
}
102
{ACAD_XDICTIONARY
360
2B5
102
}
330
2A
100
AcDbVisualStyle
  2
X-Ray
 70
    25
 71
     2
 72
     2
 73
     1
 90
        1
 40
0.5
 41
30.0
 62
     5
 63
     7
421
 16777215
 74
     1
 91
        0
 64
     7
 65
   257
 75
     1
175
     1
 42
1.0
 92
        8
 66
     7
 43
1.0
 76
     1
 77
     6
 78
     2
 67
     7
 79
     3
170
     0
171
     0
290
     0
174
     0
 93
       13
 44
0.0
173
     0
291
     0
 45
0.0
  0
DICTIONARYVAR
  5
289
102
{ACAD_REACTORS
330
288
102
}
330
288
100
DictionaryVariables
280
     0
  1
1:1
  0
DICTIONARYVAR
  5
2C4
102
{ACAD_REACTORS
330
288
102
}
330
288
100
DictionaryVariables
280
     0
  1
3.500000
  0
DICTIONARYVAR
  5
2C5
102
{ACAD_REACTORS
330
288
102
}
330
288
100
DictionaryVariables
280
     0
  1
acadiso.lin
  0
DICTIONARYVAR
  5
2C1
102
{ACAD_REACTORS
330
288
102
}
330
288
100
DictionaryVariables
280
     0
  1
Standard
  0
DICTIONARYVAR
  5
2C0
102
{ACAD_REACTORS
330
288
102
}
330
288
100
DictionaryVariables
280
     0
  1
Standard
  0
DICTIONARYVAR
  5
28A
102
{ACAD_REACTORS
330
288
102
}
330
288
100
DictionaryVariables
280
     0
  1
2
  0
DICTIONARY
  5
2BD
330
6C
100
AcDbDictionary
280
     1
281
     1
  3
ACAD_XREC_ROUNDTRIP
360
2BE
  0
DICTIONARY
  5
2BB
330
6A
100
AcDbDictionary
280
     1
281
     1
  3
ACAD_ROUNDTRIP_2008_TABLESTYLE_CELLSTYLEMAP
360
2BC
  0
DICTIONARY
  5
293
330
2F
100
AcDbDictionary
280
     1
281
     1
  3
ACAD_XREC_ROUNDTRIP
360
294
  0
DICTIONARY
  5
299
330
32
100
AcDbDictionary
280
     1
281
     1
  3
ACAD_XREC_ROUNDTRIP
360
29A
  0
DICTIONARY
  5
2A1
330
36
100
AcDbDictionary
280
     1
281
     1
  3
ACAD_XREC_ROUNDTRIP
360
2A2
  0
DICTIONARY
  5
2A9
330
3A
100
AcDbDictionary
280
     1
281
     1
  3
ACAD_XREC_ROUNDTRIP
360
2AA
  0
DICTIONARY
  5
29D
330
34
100
AcDbDictionary
280
     1
281
     1
  3
ACAD_XREC_ROUNDTRIP
360
29E
  0
DICTIONARY
  5
29F
330
35
100
AcDbDictionary
280
     1
281
     1
  3
ACAD_XREC_ROUNDTRIP
360
2A0
  0
DICTIONARY
  5
2AF
330
3D
100
AcDbDictionary
280
     1
281
     1
  3
ACAD_XREC_ROUNDTRIP
360
2B0
  0
DICTIONARY
  5
2A7
330
39
100
AcDbDictionary
280
     1
281
     1
  3
ACAD_XREC_ROUNDTRIP
360
2A8
  0
DICTIONARY
  5
28B
330
2B
100
AcDbDictionary
280
     1
281
     1
  3
ACAD_XREC_ROUNDTRIP
360
28C
  0
DICTIONARY
  5
28D
330
2C
100
AcDbDictionary
280
     1
281
     1
  3
ACAD_XREC_ROUNDTRIP
360
28E
  0
DICTIONARY
  5
28F
330
2D
100
AcDbDictionary
280
     1
281
     1
  3
ACAD_XREC_ROUNDTRIP
360
290
  0
DICTIONARY
  5
291
330
2E
100
AcDbDictionary
280
     1
281
     1
  3
ACAD_XREC_ROUNDTRIP
360
292
  0
DICTIONARY
  5
297
330
31
100
AcDbDictionary
280
     1
281
     1
  3
ACAD_XREC_ROUNDTRIP
360
298
  0
DICTIONARY
  5
2AB
330
3B
100
AcDbDictionary
280
     1
281
     1
  3
ACAD_XREC_ROUNDTRIP
360
2AC
  0
DICTIONARY
  5
2A5
330
38
100
AcDbDictionary
280
     1
281
     1
  3
ACAD_XREC_ROUNDTRIP
360
2A6
  0
DICTIONARY
  5
2AD
330
3C
100
AcDbDictionary
280
     1
281
     1
  3
ACAD_XREC_ROUNDTRIP
360
2AE
  0
DICTIONARY
  5
29B
330
33
100
AcDbDictionary
280
     1
281
     1
  3
ACAD_XREC_ROUNDTRIP
360
29C
  0
DICTIONARY
  5
2B9
330
42
100
AcDbDictionary
280
     1
281
     1
  3
ACAD_XREC_ROUNDTRIP
360
2BA
  0
DICTIONARY
  5
2B7
330
41
100
AcDbDictionary
280
     1
281
     1
  3
ACAD_XREC_ROUNDTRIP
360
2B8
  0
DICTIONARY
  5
2B1
330
3E
100
AcDbDictionary
280
     1
281
     1
  3
ACAD_XREC_ROUNDTRIP
360
2B2
  0
DICTIONARY
  5
2B3
330
3F
100
AcDbDictionary
280
     1
281
     1
  3
ACAD_XREC_ROUNDTRIP
360
2B4
  0
DICTIONARY
  5
2A3
330
37
100
AcDbDictionary
280
     1
281
     1
  3
ACAD_XREC_ROUNDTRIP
360
2A4
  0
DICTIONARY
  5
295
330
30
100
AcDbDictionary
280
     1
281
     1
  3
ACAD_XREC_ROUNDTRIP
360
296
  0
DICTIONARY
  5
2B5
330
40
100
AcDbDictionary
280
     1
281
     1
  3
ACAD_XREC_ROUNDTRIP
360
2B6
  0
XRECORD
  5
2BE
102
{ACAD_REACTORS
330
2BD
102
}
330
2BD
100
AcDbXrecord
280
     1
102
ACAD_ROUNDTRIP_2010_MLEADER_STYLE
  0
CELLSTYLEMAP
  5
2BC
102
{ACAD_REACTORS
330
2BB
102
}
330
2BB
100
AcDbCellStyleMap
 90
        3
300
CELLSTYLE
  1
TABLEFORMAT_BEGIN
 90
        5
170
     1
 91
        0
 92
    32768
 62
   257
 93
        1
300
CONTENTFORMAT
  1
CONTENTFORMAT_BEGIN
 90
        0
 91
        0
 92
        4
 93
        0
300

 40
0.0
140
1.0
 94
        5
 62
     0
340
11
144
6.0
309
CONTENTFORMAT_END
171
     1
301
MARGIN
  1
CELLMARGIN_BEGIN
 40
1.5
 40
1.5
 40
1.5
 40
1.5
 40
1.5
 40
1.5
309
CELLMARGIN_END
 94
        6
 95
        1
302
GRIDFORMAT
  1
GRIDFORMAT_BEGIN
 90
        0
 91
        1
 62
     0
 92
       -2
340
14
 93
        0
 40
0.045
309
GRIDFORMAT_END
 95
        2
302
GRIDFORMAT
  1
GRIDFORMAT_BEGIN
 90
        0
 91
        1
 62
     0
 92
       -2
340
14
 93
        0
 40
0.045
309
GRIDFORMAT_END
 95
        4
302
GRIDFORMAT
  1
GRIDFORMAT_BEGIN
 90
        0
 91
        1
 62
     0
 92
       -2
340
14
 93
        0
 40
0.045
309
GRIDFORMAT_END
 95
        8
302
GRIDFORMAT
  1
GRIDFORMAT_BEGIN
 90
        0
 91
        1
 62
     0
 92
       -2
340
14
 93
        0
 40
0.045
309
GRIDFORMAT_END
 95
       16
302
GRIDFORMAT
  1
GRIDFORMAT_BEGIN
 90
        0
 91
        1
 62
     0
 92
       -2
340
14
 93
        0
 40
0.045
309
GRIDFORMAT_END
 95
       32
302
GRIDFORMAT
  1
GRIDFORMAT_BEGIN
 90
        0
 91
        1
 62
     0
 92
       -2
340
14
 93
        0
 40
0.045
309
GRIDFORMAT_END
309
TABLEFORMAT_END
  1
CELLSTYLE_BEGIN
 90
        1
 91
        1
300
_TITLE
309
CELLSTYLE_END
300
CELLSTYLE
  1
TABLEFORMAT_BEGIN
 90
        5
170
     1
 91
        0
 92
        0
 62
   257
 93
        1
300
CONTENTFORMAT
  1
CONTENTFORMAT_BEGIN
 90
        0
 91
        0
 92
        4
 93
        0
300

 40
0.0
140
1.0
 94
        5
 62
     0
340
11
144
4.5
309
CONTENTFORMAT_END
171
     1
301
MARGIN
  1
CELLMARGIN_BEGIN
 40
1.5
 40
1.5
 40
1.5
 40
1.5
 40
1.5
 40
1.5
309
CELLMARGIN_END
 94
        6
 95
        1
302
GRIDFORMAT
  1
GRIDFORMAT_BEGIN
 90
        0
 91
        1
 62
     0
 92
       -2
340
14
 93
        0
 40
0.045
309
GRIDFORMAT_END
 95
        2
302
GRIDFORMAT
  1
GRIDFORMAT_BEGIN
 90
        0
 91
        1
 62
     0
 92
       -2
340
14
 93
        0
 40
0.045
309
GRIDFORMAT_END
 95
        4
302
GRIDFORMAT
  1
GRIDFORMAT_BEGIN
 90
        0
 91
        1
 62
     0
 92
       -2
340
14
 93
        0
 40
0.045
309
GRIDFORMAT_END
 95
        8
302
GRIDFORMAT
  1
GRIDFORMAT_BEGIN
 90
        0
 91
        1
 62
     0
 92
       -2
340
14
 93
        0
 40
0.045
309
GRIDFORMAT_END
 95
       16
302
GRIDFORMAT
  1
GRIDFORMAT_BEGIN
 90
        0
 91
        1
 62
     0
 92
       -2
340
14
 93
        0
 40
0.045
309
GRIDFORMAT_END
 95
       32
302
GRIDFORMAT
  1
GRIDFORMAT_BEGIN
 90
        0
 91
        1
 62
     0
 92
       -2
340
14
 93
        0
 40
0.045
309
GRIDFORMAT_END
309
TABLEFORMAT_END
  1
CELLSTYLE_BEGIN
 90
        2
 91
        1
300
_HEADER
309
CELLSTYLE_END
300
CELLSTYLE
  1
TABLEFORMAT_BEGIN
 90
        5
170
     1
 91
        0
 92
        0
 62
   257
 93
        1
300
CONTENTFORMAT
  1
CONTENTFORMAT_BEGIN
 90
        0
 91
        0
 92
        4
 93
        0
300

 40
0.0
140
1.0
 94
        2
 62
     0
340
11
144
4.5
309
CONTENTFORMAT_END
171
     1
301
MARGIN
  1
CELLMARGIN_BEGIN
 40
1.5
 40
1.5
 40
1.5
 40
1.5
 40
1.5
 40
1.5
309
CELLMARGIN_END
 94
        6
 95
        1
302
GRIDFORMAT
  1
GRIDFORMAT_BEGIN
 90
        0
 91
        1
 62
     0
 92
       -2
340
14
 93
        0
 40
0.045
309
GRIDFORMAT_END
 95
        2
302
GRIDFORMAT
  1
GRIDFORMAT_BEGIN
 90
        0
 91
        1
 62
     0
 92
       -2
340
14
 93
        0
 40
0.045
309
GRIDFORMAT_END
 95
        4
302
GRIDFORMAT
  1
GRIDFORMAT_BEGIN
 90
        0
 91
        1
 62
     0
 92
       -2
340
14
 93
        0
 40
0.045
309
GRIDFORMAT_END
 95
        8
302
GRIDFORMAT
  1
GRIDFORMAT_BEGIN
 90
        0
 91
        1
 62
     0
 92
       -2
340
14
 93
        0
 40
0.045
309
GRIDFORMAT_END
 95
       16
302
GRIDFORMAT
  1
GRIDFORMAT_BEGIN
 90
        0
 91
        1
 62
     0
 92
       -2
340
14
 93
        0
 40
0.045
309
GRIDFORMAT_END
 95
       32
302
GRIDFORMAT
  1
GRIDFORMAT_BEGIN
 90
        0
 91
        1
 62
     0
 92
       -2
340
14
 93
        0
 40
0.045
309
GRIDFORMAT_END
309
TABLEFORMAT_END
  1
CELLSTYLE_BEGIN
 90
        3
 91
        2
300
_DATA
309
CELLSTYLE_END
  0
XRECORD
  5
294
102
{ACAD_REACTORS
330
293
102
}
330
293
100
AcDbXrecord
280
     1
102
RTVSPropertyOp0
 70
     1
102
RTVSPropertyOp1
 70
     1
102
RTVSPropertyOp2
 70
     1
102
RTVSPropertyOp3
 70
     1
102
RTVSPropertyOp4
 70
     1
102
RTVSPropertyOp5
 70
     1
102
RTVSPropertyOp6
 70
     1
102
RTVSPropertyOp7
 70
     1
102
RTVSPropertyOp8
 70
     1
102
RTVSPropertyOp9
 70
     1
102
RTVSPropertyOp10
 70
     1
102
RTVSPropertyOp11
 70
     1
102
RTVSPropertyOp12
 70
     1
102
RTVSPropertyOp13
 70
     1
102
RTVSPropertyOp14
 70
     1
102
RTVSPropertyOp15
 70
     1
102
RTVSPropertyOp16
 70
     1
102
RTVSPropertyOp17
 70
     1
102
RTVSPropertyOp18
 70
     1
102
RTVSPropertyOp19
 70
     1
102
RTVSPropertyOp20
 70
     1
102
RTVSPropertyOp21
 70
     1
102
RTVSPropertyOp22
 70
     1
102
RTVSPropertyOp23
 70
     1
102
RTVSPropertyOp24
 70
     1
102
RTVSPropertyOp25
 70
     1
102
RTVSPropertyOp26
 70
     1
102
RTVSPropertyOp27
 70
     1
102
RTVSPropertyOp28
 70
     1
102
RTVSPropertyOp29
 70
     1
102
RTVSPropertyOp30
 70
     1
102
RTVSPropertyOp31
 70
     1
102
RTVSPropertyOp32
 70
     1
102
RTVSPropertyOp33
 70
     1
102
RTVSPropertyOp34
 70
     1
102
RTVSPropertyOp35
 70
     1
102
RTVSPropertyOp36
 70
     1
102
RTVSPropertyOp37
 70
     1
102
RTVSPropertyOp38
 70
     1
102
RTVSPropertyOp39
 70
     1
102
RTVSPropertyOp40
 70
     1
102
RTVSPropertyOp41
 70
     1
102
RTVSPropertyOp42
 70
     1
102
RTVSPropertyOp43
 70
     1
102
RTVSPropertyOp44
 70
     1
102
RTVSPropertyOp45
 70
     1
102
RTVSPropertyOp46
 70
     1
102
RTVSPropertyOp47
 70
     1
102
RTVSPropertyOp48
 70
     1
102
RTVSPropertyOp49
 70
     1
102
RTVSPropertyOp50
 70
     1
102
RTVSPropertyOp51
 70
     0
102
RTVSPropertyOp52
 70
     0
102
RTVSPropertyOp53
 70
     1
102
RTVSPropertyOp54
 70
     1
102
RTVSPropertyOp55
 70
     1
102
RTVSPropertyOp56
 70
     1
102
RTVSPropertyOp57
 70
     1
102
RTVSPost2010Prop28
280
     1
102
RTVSPost2010PropOp28
 70
     1
102
RTVSPost2010Prop29
280
     1
102
RTVSPost2010PropOp29
 70
     1
102
RTVSPost2010Prop30
280
     0
102
RTVSPost2010PropOp30
 70
     1
102
RTVSPost2010Prop31
280
     0
102
RTVSPost2010PropOp31
 70
     1
102
RTVSPost2010Prop32
280
     0
102
RTVSPost2010PropOp32
 70
     1
102
RTVSPost2010Prop33
280
     0
102
RTVSPost2010PropOp33
 70
     1
102
RTVSPost2010Prop34
280
     0
102
RTVSPost2010PropOp34
 70
     1
102
RTVSPost2010Prop35
280
     0
102
RTVSPost2010PropOp35
 70
     1
102
RTVSPost2010Prop36
280
     0
102
RTVSPost2010PropOp36
 70
     1
102
RTVSPost2010Prop37
 90
       50
102
RTVSPost2010PropOp37
 70
     1
102
RTVSPost2010Prop38
140
0.0
102
RTVSPost2010PropOp38
 70
     1
102
RTVSPost2010Prop39
140
1.0
102
RTVSPost2010PropOp39
 70
     1
102
RTVSPost2010Prop40
 90
        0
102
RTVSPost2010PropOp40
 70
     1
102
RTVSPost2010Prop41ColorIndex
 90
       18
102
RTVSPost2010Prop41ColorRGB
 90
        0
102
RTVSPost2010PropOp41
 70
     1
102
RTVSPost2010Prop42
 90
       50
102
RTVSPost2010PropOp42
 70
     1
102
RTVSPost2010Prop43
 90
        3
102
RTVSPost2010PropOp43
 70
     1
102
RTVSPost2010Prop44ColorIndex
 90
        5
102
RTVSPost2010Prop44ColorRGB
 90
      255
102
RTVSPost2010PropOp44
 70
     1
102
RTVSPost2010Prop45
280
     0
102
RTVSPost2010PropOp45
 70
     1
102
RTVSPost2010Prop46
 90
       50
102
RTVSPost2010PropOp46
 70
     1
102
RTVSPost2010Prop47
 90
       50
102
RTVSPost2010PropOp47
 70
     1
102
RTVSPost2010Prop48
 90
       50
102
RTVSPost2010PropOp48
 70
     1
102
RTVSPost2010Prop49
280
     0
102
RTVSPost2010PropOp49
 70
     1
102
RTVSPost2010Prop50
 90
       50
102
RTVSPost2010PropOp50
 70
     1
102
RTVSPost2010Prop51ColorIndex
 90
      256
102
RTVSPost2010Prop51ColorRGB
 90
-16777216
102
RTVSPost2010PropOp51
 70
     0
102
RTVSPost2010Prop52
140
1.0
102
RTVSPost2010PropOp52
 70
     0
102
RTVSPost2010Prop53
 90
        2
102
RTVSPost2010PropOp53
 70
     1
102
RTVSPost2010Prop54
  1
strokes_ogs.tif
102
RTVSPost2010PropOp54
 70
     1
102
RTVSPost2010Prop55
280
     0
102
RTVSPost2010PropOp55
 70
     1
102
RTVSPost2010Prop56
140
1.0
102
RTVSPost2010PropOp56
 70
     1
102
RTVSPost2010Prop57
140
1.0
102
RTVSPost2010PropOp57
 70
     1
  0
XRECORD
  5
29A
102
{ACAD_REACTORS
330
299
102
}
330
299
100
AcDbXrecord
280
     1
102
RTVSPropertyOp0
 70
     1
102
RTVSPropertyOp1
 70
     1
102
RTVSPropertyOp2
 70
     1
102
RTVSPropertyOp3
 70
     1
102
RTVSPropertyOp4
 70
     1
102
RTVSPropertyOp5
 70
     1
102
RTVSPropertyOp6
 70
     1
102
RTVSPropertyOp7
 70
     1
102
RTVSPropertyOp8
 70
     1
102
RTVSPropertyOp9
 70
     1
102
RTVSPropertyOp10
 70
     1
102
RTVSPropertyOp11
 70
     1
102
RTVSPropertyOp12
 70
     1
102
RTVSPropertyOp13
 70
     1
102
RTVSPropertyOp14
 70
     1
102
RTVSPropertyOp15
 70
     1
102
RTVSPropertyOp16
 70
     1
102
RTVSPropertyOp17
 70
     1
102
RTVSPropertyOp18
 70
     1
102
RTVSPropertyOp19
 70
     1
102
RTVSPropertyOp20
 70
     1
102
RTVSPropertyOp21
 70
     1
102
RTVSPropertyOp22
 70
     1
102
RTVSPropertyOp23
 70
     1
102
RTVSPropertyOp24
 70
     1
102
RTVSPropertyOp25
 70
     1
102
RTVSPropertyOp26
 70
     1
102
RTVSPropertyOp27
 70
     1
102
RTVSPropertyOp28
 70
     1
102
RTVSPropertyOp29
 70
     1
102
RTVSPropertyOp30
 70
     1
102
RTVSPropertyOp31
 70
     1
102
RTVSPropertyOp32
 70
     1
102
RTVSPropertyOp33
 70
     1
102
RTVSPropertyOp34
 70
     1
102
RTVSPropertyOp35
 70
     1
102
RTVSPropertyOp36
 70
     1
102
RTVSPropertyOp37
 70
     1
102
RTVSPropertyOp38
 70
     1
102
RTVSPropertyOp39
 70
     1
102
RTVSPropertyOp40
 70
     1
102
RTVSPropertyOp41
 70
     1
102
RTVSPropertyOp42
 70
     1
102
RTVSPropertyOp43
 70
     1
102
RTVSPropertyOp44
 70
     1
102
RTVSPropertyOp45
 70
     1
102
RTVSPropertyOp46
 70
     1
102
RTVSPropertyOp47
 70
     1
102
RTVSPropertyOp48
 70
     1
102
RTVSPropertyOp49
 70
     1
102
RTVSPropertyOp50
 70
     1
102
RTVSPropertyOp51
 70
     0
102
RTVSPropertyOp52
 70
     0
102
RTVSPropertyOp53
 70
     1
102
RTVSPropertyOp54
 70
     1
102
RTVSPropertyOp55
 70
     1
102
RTVSPropertyOp56
 70
     1
102
RTVSPropertyOp57
 70
     1
102
RTVSPost2010Prop28
280
     0
102
RTVSPost2010PropOp28
 70
     1
102
RTVSPost2010Prop29
280
     1
102
RTVSPost2010PropOp29
 70
     1
102
RTVSPost2010Prop30
280
     1
102
RTVSPost2010PropOp30
 70
     1
102
RTVSPost2010Prop31
280
     0
102
RTVSPost2010PropOp31
 70
     1
102
RTVSPost2010Prop32
280
     0
102
RTVSPost2010PropOp32
 70
     1
102
RTVSPost2010Prop33
280
     0
102
RTVSPost2010PropOp33
 70
     1
102
RTVSPost2010Prop34
280
     0
102
RTVSPost2010PropOp34
 70
     1
102
RTVSPost2010Prop35
280
     0
102
RTVSPost2010PropOp35
 70
     1
102
RTVSPost2010Prop36
280
     0
102
RTVSPost2010PropOp36
 70
     1
102
RTVSPost2010Prop37
 90
       50
102
RTVSPost2010PropOp37
 70
     1
102
RTVSPost2010Prop38
140
0.0
102
RTVSPost2010PropOp38
 70
     1
102
RTVSPost2010Prop39
140
1.0
102
RTVSPost2010PropOp39
 70
     1
102
RTVSPost2010Prop40
 90
        0
102
RTVSPost2010PropOp40
 70
     1
102
RTVSPost2010Prop41ColorIndex
 90
       18
102
RTVSPost2010Prop41ColorRGB
 90
        0
102
RTVSPost2010PropOp41
 70
     1
102
RTVSPost2010Prop42
 90
       50
102
RTVSPost2010PropOp42
 70
     1
102
RTVSPost2010Prop43
 90
        3
102
RTVSPost2010PropOp43
 70
     1
102
RTVSPost2010Prop44ColorIndex
 90
        5
102
RTVSPost2010Prop44ColorRGB
 90
      255
102
RTVSPost2010PropOp44
 70
     1
102
RTVSPost2010Prop45
280
     0
102
RTVSPost2010PropOp45
 70
     1
102
RTVSPost2010Prop46
 90
       50
102
RTVSPost2010PropOp46
 70
     1
102
RTVSPost2010Prop47
 90
       50
102
RTVSPost2010PropOp47
 70
     1
102
RTVSPost2010Prop48
 90
       50
102
RTVSPost2010PropOp48
 70
     1
102
RTVSPost2010Prop49
280
     0
102
RTVSPost2010PropOp49
 70
     1
102
RTVSPost2010Prop50
 90
       50
102
RTVSPost2010PropOp50
 70
     1
102
RTVSPost2010Prop51ColorIndex
 90
      256
102
RTVSPost2010Prop51ColorRGB
 90
-16777216
102
RTVSPost2010PropOp51
 70
     0
102
RTVSPost2010Prop52
140
1.0
102
RTVSPost2010PropOp52
 70
     0
102
RTVSPost2010Prop53
 90
        2
102
RTVSPost2010PropOp53
 70
     1
102
RTVSPost2010Prop54
  1
strokes_ogs.tif
102
RTVSPost2010PropOp54
 70
     1
102
RTVSPost2010Prop55
280
     0
102
RTVSPost2010PropOp55
 70
     1
102
RTVSPost2010Prop56
140
1.0
102
RTVSPost2010PropOp56
 70
     1
102
RTVSPost2010Prop57
140
1.0
102
RTVSPost2010PropOp57
 70
     1
  0
XRECORD
  5
2A2
102
{ACAD_REACTORS
330
2A1
102
}
330
2A1
100
AcDbXrecord
280
     1
102
RTVSPropertyOp0
 70
     1
102
RTVSPropertyOp1
 70
     1
102
RTVSPropertyOp2
 70
     1
102
RTVSPropertyOp3
 70
     1
102
RTVSPropertyOp4
 70
     1
102
RTVSPropertyOp5
 70
     1
102
RTVSPropertyOp6
 70
     1
102
RTVSPropertyOp7
 70
     1
102
RTVSPropertyOp8
 70
     1
102
RTVSPropertyOp9
 70
     1
102
RTVSPropertyOp10
 70
     1
102
RTVSPropertyOp11
 70
     1
102
RTVSPropertyOp12
 70
     1
102
RTVSPropertyOp13
 70
     1
102
RTVSPropertyOp14
 70
     1
102
RTVSPropertyOp15
 70
     1
102
RTVSPropertyOp16
 70
     1
102
RTVSPropertyOp17
 70
     1
102
RTVSPropertyOp18
 70
     1
102
RTVSPropertyOp19
 70
     1
102
RTVSPropertyOp20
 70
     1
102
RTVSPropertyOp21
 70
     1
102
RTVSPropertyOp22
 70
     1
102
RTVSPropertyOp23
 70
     1
102
RTVSPropertyOp24
 70
     1
102
RTVSPropertyOp25
 70
     1
102
RTVSPropertyOp26
 70
     1
102
RTVSPropertyOp27
 70
     1
102
RTVSPropertyOp28
 70
     1
102
RTVSPropertyOp29
 70
     1
102
RTVSPropertyOp30
 70
     1
102
RTVSPropertyOp31
 70
     1
102
RTVSPropertyOp32
 70
     1
102
RTVSPropertyOp33
 70
     1
102
RTVSPropertyOp34
 70
     1
102
RTVSPropertyOp35
 70
     1
102
RTVSPropertyOp36
 70
     1
102
RTVSPropertyOp37
 70
     1
102
RTVSPropertyOp38
 70
     1
102
RTVSPropertyOp39
 70
     1
102
RTVSPropertyOp40
 70
     1
102
RTVSPropertyOp41
 70
     1
102
RTVSPropertyOp42
 70
     1
102
RTVSPropertyOp43
 70
     1
102
RTVSPropertyOp44
 70
     1
102
RTVSPropertyOp45
 70
     1
102
RTVSPropertyOp46
 70
     1
102
RTVSPropertyOp47
 70
     1
102
RTVSPropertyOp48
 70
     1
102
RTVSPropertyOp49
 70
     1
102
RTVSPropertyOp50
 70
     1
102
RTVSPropertyOp51
 70
     0
102
RTVSPropertyOp52
 70
     0
102
RTVSPropertyOp53
 70
     1
102
RTVSPropertyOp54
 70
     1
102
RTVSPropertyOp55
 70
     1
102
RTVSPropertyOp56
 70
     1
102
RTVSPropertyOp57
 70
     1
102
RTVSPost2010Prop28
280
     0
102
RTVSPost2010PropOp28
 70
     1
102
RTVSPost2010Prop29
280
     1
102
RTVSPost2010PropOp29
 70
     1
102
RTVSPost2010Prop30
280
     1
102
RTVSPost2010PropOp30
 70
     1
102
RTVSPost2010Prop31
280
     0
102
RTVSPost2010PropOp31
 70
     1
102
RTVSPost2010Prop32
280
     0
102
RTVSPost2010PropOp32
 70
     1
102
RTVSPost2010Prop33
280
     0
102
RTVSPost2010PropOp33
 70
     1
102
RTVSPost2010Prop34
280
     0
102
RTVSPost2010PropOp34
 70
     1
102
RTVSPost2010Prop35
280
     0
102
RTVSPost2010PropOp35
 70
     1
102
RTVSPost2010Prop36
280
     0
102
RTVSPost2010PropOp36
 70
     1
102
RTVSPost2010Prop37
 90
       50
102
RTVSPost2010PropOp37
 70
     1
102
RTVSPost2010Prop38
140
0.0
102
RTVSPost2010PropOp38
 70
     1
102
RTVSPost2010Prop39
140
1.0
102
RTVSPost2010PropOp39
 70
     1
102
RTVSPost2010Prop40
 90
        0
102
RTVSPost2010PropOp40
 70
     1
102
RTVSPost2010Prop41ColorIndex
 90
       18
102
RTVSPost2010Prop41ColorRGB
 90
        0
102
RTVSPost2010PropOp41
 70
     1
102
RTVSPost2010Prop42
 90
       50
102
RTVSPost2010PropOp42
 70
     1
102
RTVSPost2010Prop43
 90
        3
102
RTVSPost2010PropOp43
 70
     1
102
RTVSPost2010Prop44ColorIndex
 90
        5
102
RTVSPost2010Prop44ColorRGB
 90
      255
102
RTVSPost2010PropOp44
 70
     1
102
RTVSPost2010Prop45
280
     0
102
RTVSPost2010PropOp45
 70
     1
102
RTVSPost2010Prop46
 90
       50
102
RTVSPost2010PropOp46
 70
     1
102
RTVSPost2010Prop47
 90
       50
102
RTVSPost2010PropOp47
 70
     1
102
RTVSPost2010Prop48
 90
       50
102
RTVSPost2010PropOp48
 70
     1
102
RTVSPost2010Prop49
280
     0
102
RTVSPost2010PropOp49
 70
     1
102
RTVSPost2010Prop50
 90
       50
102
RTVSPost2010PropOp50
 70
     1
102
RTVSPost2010Prop51ColorIndex
 90
      256
102
RTVSPost2010Prop51ColorRGB
 90
-16777216
102
RTVSPost2010PropOp51
 70
     0
102
RTVSPost2010Prop52
140
1.0
102
RTVSPost2010PropOp52
 70
     0
102
RTVSPost2010Prop53
 90
        2
102
RTVSPost2010PropOp53
 70
     1
102
RTVSPost2010Prop54
  1
strokes_ogs.tif
102
RTVSPost2010PropOp54
 70
     1
102
RTVSPost2010Prop55
280
     0
102
RTVSPost2010PropOp55
 70
     1
102
RTVSPost2010Prop56
140
1.0
102
RTVSPost2010PropOp56
 70
     1
102
RTVSPost2010Prop57
140
1.0
102
RTVSPost2010PropOp57
 70
     1
  0
XRECORD
  5
2AA
102
{ACAD_REACTORS
330
2A9
102
}
330
2A9
100
AcDbXrecord
280
     1
102
RTVSPropertyOp0
 70
     1
102
RTVSPropertyOp1
 70
     1
102
RTVSPropertyOp2
 70
     1
102
RTVSPropertyOp3
 70
     1
102
RTVSPropertyOp4
 70
     1
102
RTVSPropertyOp5
 70
     1
102
RTVSPropertyOp6
 70
     1
102
RTVSPropertyOp7
 70
     1
102
RTVSPropertyOp8
 70
     1
102
RTVSPropertyOp9
 70
     1
102
RTVSPropertyOp10
 70
     1
102
RTVSPropertyOp11
 70
     1
102
RTVSPropertyOp12
 70
     1
102
RTVSPropertyOp13
 70
     1
102
RTVSPropertyOp14
 70
     1
102
RTVSPropertyOp15
 70
     1
102
RTVSPropertyOp16
 70
     1
102
RTVSPropertyOp17
 70
     1
102
RTVSPropertyOp18
 70
     1
102
RTVSPropertyOp19
 70
     1
102
RTVSPropertyOp20
 70
     1
102
RTVSPropertyOp21
 70
     1
102
RTVSPropertyOp22
 70
     1
102
RTVSPropertyOp23
 70
     1
102
RTVSPropertyOp24
 70
     1
102
RTVSPropertyOp25
 70
     1
102
RTVSPropertyOp26
 70
     1
102
RTVSPropertyOp27
 70
     1
102
RTVSPropertyOp28
 70
     1
102
RTVSPropertyOp29
 70
     1
102
RTVSPropertyOp30
 70
     1
102
RTVSPropertyOp31
 70
     1
102
RTVSPropertyOp32
 70
     1
102
RTVSPropertyOp33
 70
     1
102
RTVSPropertyOp34
 70
     1
102
RTVSPropertyOp35
 70
     1
102
RTVSPropertyOp36
 70
     1
102
RTVSPropertyOp37
 70
     1
102
RTVSPropertyOp38
 70
     1
102
RTVSPropertyOp39
 70
     1
102
RTVSPropertyOp40
 70
     1
102
RTVSPropertyOp41
 70
     1
102
RTVSPropertyOp42
 70
     1
102
RTVSPropertyOp43
 70
     1
102
RTVSPropertyOp44
 70
     1
102
RTVSPropertyOp45
 70
     1
102
RTVSPropertyOp46
 70
     1
102
RTVSPropertyOp47
 70
     1
102
RTVSPropertyOp48
 70
     1
102
RTVSPropertyOp49
 70
     1
102
RTVSPropertyOp50
 70
     1
102
RTVSPropertyOp51
 70
     0
102
RTVSPropertyOp52
 70
     0
102
RTVSPropertyOp53
 70
     1
102
RTVSPropertyOp54
 70
     1
102
RTVSPropertyOp55
 70
     1
102
RTVSPropertyOp56
 70
     1
102
RTVSPropertyOp57
 70
     1
102
RTVSPost2010Prop28
280
     0
102
RTVSPost2010PropOp28
 70
     1
102
RTVSPost2010Prop29
280
     1
102
RTVSPost2010PropOp29
 70
     1
102
RTVSPost2010Prop30
280
     1
102
RTVSPost2010PropOp30
 70
     1
102
RTVSPost2010Prop31
280
     0
102
RTVSPost2010PropOp31
 70
     1
102
RTVSPost2010Prop32
280
     0
102
RTVSPost2010PropOp32
 70
     1
102
RTVSPost2010Prop33
280
     0
102
RTVSPost2010PropOp33
 70
     1
102
RTVSPost2010Prop34
280
     0
102
RTVSPost2010PropOp34
 70
     1
102
RTVSPost2010Prop35
280
     0
102
RTVSPost2010PropOp35
 70
     1
102
RTVSPost2010Prop36
280
     0
102
RTVSPost2010PropOp36
 70
     1
102
RTVSPost2010Prop37
 90
       50
102
RTVSPost2010PropOp37
 70
     1
102
RTVSPost2010Prop38
140
0.0
102
RTVSPost2010PropOp38
 70
     1
102
RTVSPost2010Prop39
140
1.0
102
RTVSPost2010PropOp39
 70
     1
102
RTVSPost2010Prop40
 90
        0
102
RTVSPost2010PropOp40
 70
     1
102
RTVSPost2010Prop41ColorIndex
 90
       18
102
RTVSPost2010Prop41ColorRGB
 90
        0
102
RTVSPost2010PropOp41
 70
     1
102
RTVSPost2010Prop42
 90
       50
102
RTVSPost2010PropOp42
 70
     1
102
RTVSPost2010Prop43
 90
        3
102
RTVSPost2010PropOp43
 70
     1
102
RTVSPost2010Prop44ColorIndex
 90
        5
102
RTVSPost2010Prop44ColorRGB
 90
      255
102
RTVSPost2010PropOp44
 70
     1
102
RTVSPost2010Prop45
280
     0
102
RTVSPost2010PropOp45
 70
     1
102
RTVSPost2010Prop46
 90
       50
102
RTVSPost2010PropOp46
 70
     1
102
RTVSPost2010Prop47
 90
       50
102
RTVSPost2010PropOp47
 70
     1
102
RTVSPost2010Prop48
 90
       50
102
RTVSPost2010PropOp48
 70
     1
102
RTVSPost2010Prop49
280
     0
102
RTVSPost2010PropOp49
 70
     1
102
RTVSPost2010Prop50
 90
       50
102
RTVSPost2010PropOp50
 70
     1
102
RTVSPost2010Prop51ColorIndex
 90
      256
102
RTVSPost2010Prop51ColorRGB
 90
-16777216
102
RTVSPost2010PropOp51
 70
     0
102
RTVSPost2010Prop52
140
1.0
102
RTVSPost2010PropOp52
 70
     0
102
RTVSPost2010Prop53
 90
        2
102
RTVSPost2010PropOp53
 70
     1
102
RTVSPost2010Prop54
  1
strokes_ogs.tif
102
RTVSPost2010PropOp54
 70
     1
102
RTVSPost2010Prop55
280
     0
102
RTVSPost2010PropOp55
 70
     1
102
RTVSPost2010Prop56
140
1.0
102
RTVSPost2010PropOp56
 70
     1
102
RTVSPost2010Prop57
140
1.0
102
RTVSPost2010PropOp57
 70
     1
  0
XRECORD
  5
29E
102
{ACAD_REACTORS
330
29D
102
}
330
29D
100
AcDbXrecord
280
     1
102
RTVSPropertyOp0
 70
     1
102
RTVSPropertyOp1
 70
     1
102
RTVSPropertyOp2
 70
     1
102
RTVSPropertyOp3
 70
     1
102
RTVSPropertyOp4
 70
     1
102
RTVSPropertyOp5
 70
     1
102
RTVSPropertyOp6
 70
     1
102
RTVSPropertyOp7
 70
     1
102
RTVSPropertyOp8
 70
     1
102
RTVSPropertyOp9
 70
     1
102
RTVSPropertyOp10
 70
     1
102
RTVSPropertyOp11
 70
     1
102
RTVSPropertyOp12
 70
     1
102
RTVSPropertyOp13
 70
     1
102
RTVSPropertyOp14
 70
     1
102
RTVSPropertyOp15
 70
     1
102
RTVSPropertyOp16
 70
     1
102
RTVSPropertyOp17
 70
     1
102
RTVSPropertyOp18
 70
     1
102
RTVSPropertyOp19
 70
     1
102
RTVSPropertyOp20
 70
     1
102
RTVSPropertyOp21
 70
     1
102
RTVSPropertyOp22
 70
     1
102
RTVSPropertyOp23
 70
     1
102
RTVSPropertyOp24
 70
     1
102
RTVSPropertyOp25
 70
     1
102
RTVSPropertyOp26
 70
     1
102
RTVSPropertyOp27
 70
     1
102
RTVSPropertyOp28
 70
     1
102
RTVSPropertyOp29
 70
     1
102
RTVSPropertyOp30
 70
     1
102
RTVSPropertyOp31
 70
     1
102
RTVSPropertyOp32
 70
     1
102
RTVSPropertyOp33
 70
     1
102
RTVSPropertyOp34
 70
     1
102
RTVSPropertyOp35
 70
     1
102
RTVSPropertyOp36
 70
     1
102
RTVSPropertyOp37
 70
     1
102
RTVSPropertyOp38
 70
     1
102
RTVSPropertyOp39
 70
     1
102
RTVSPropertyOp40
 70
     1
102
RTVSPropertyOp41
 70
     1
102
RTVSPropertyOp42
 70
     1
102
RTVSPropertyOp43
 70
     1
102
RTVSPropertyOp44
 70
     1
102
RTVSPropertyOp45
 70
     1
102
RTVSPropertyOp46
 70
     1
102
RTVSPropertyOp47
 70
     1
102
RTVSPropertyOp48
 70
     1
102
RTVSPropertyOp49
 70
     1
102
RTVSPropertyOp50
 70
     1
102
RTVSPropertyOp51
 70
     0
102
RTVSPropertyOp52
 70
     0
102
RTVSPropertyOp53
 70
     1
102
RTVSPropertyOp54
 70
     1
102
RTVSPropertyOp55
 70
     1
102
RTVSPropertyOp56
 70
     1
102
RTVSPropertyOp57
 70
     1
102
RTVSPost2010Prop28
280
     0
102
RTVSPost2010PropOp28
 70
     1
102
RTVSPost2010Prop29
280
     1
102
RTVSPost2010PropOp29
 70
     1
102
RTVSPost2010Prop30
280
     1
102
RTVSPost2010PropOp30
 70
     1
102
RTVSPost2010Prop31
280
     0
102
RTVSPost2010PropOp31
 70
     1
102
RTVSPost2010Prop32
280
     0
102
RTVSPost2010PropOp32
 70
     1
102
RTVSPost2010Prop33
280
     0
102
RTVSPost2010PropOp33
 70
     1
102
RTVSPost2010Prop34
280
     0
102
RTVSPost2010PropOp34
 70
     1
102
RTVSPost2010Prop35
280
     0
102
RTVSPost2010PropOp35
 70
     1
102
RTVSPost2010Prop36
280
     0
102
RTVSPost2010PropOp36
 70
     1
102
RTVSPost2010Prop37
 90
       50
102
RTVSPost2010PropOp37
 70
     1
102
RTVSPost2010Prop38
140
0.0
102
RTVSPost2010PropOp38
 70
     1
102
RTVSPost2010Prop39
140
1.0
102
RTVSPost2010PropOp39
 70
     1
102
RTVSPost2010Prop40
 90
        0
102
RTVSPost2010PropOp40
 70
     1
102
RTVSPost2010Prop41ColorIndex
 90
       18
102
RTVSPost2010Prop41ColorRGB
 90
        0
102
RTVSPost2010PropOp41
 70
     1
102
RTVSPost2010Prop42
 90
       50
102
RTVSPost2010PropOp42
 70
     1
102
RTVSPost2010Prop43
 90
        3
102
RTVSPost2010PropOp43
 70
     1
102
RTVSPost2010Prop44ColorIndex
 90
        5
102
RTVSPost2010Prop44ColorRGB
 90
      255
102
RTVSPost2010PropOp44
 70
     1
102
RTVSPost2010Prop45
280
     0
102
RTVSPost2010PropOp45
 70
     1
102
RTVSPost2010Prop46
 90
       50
102
RTVSPost2010PropOp46
 70
     1
102
RTVSPost2010Prop47
 90
       50
102
RTVSPost2010PropOp47
 70
     1
102
RTVSPost2010Prop48
 90
       50
102
RTVSPost2010PropOp48
 70
     1
102
RTVSPost2010Prop49
280
     0
102
RTVSPost2010PropOp49
 70
     1
102
RTVSPost2010Prop50
 90
       50
102
RTVSPost2010PropOp50
 70
     1
102
RTVSPost2010Prop51ColorIndex
 90
      256
102
RTVSPost2010Prop51ColorRGB
 90
-16777216
102
RTVSPost2010PropOp51
 70
     0
102
RTVSPost2010Prop52
140
1.0
102
RTVSPost2010PropOp52
 70
     0
102
RTVSPost2010Prop53
 90
        2
102
RTVSPost2010PropOp53
 70
     1
102
RTVSPost2010Prop54
  1
strokes_ogs.tif
102
RTVSPost2010PropOp54
 70
     1
102
RTVSPost2010Prop55
280
     0
102
RTVSPost2010PropOp55
 70
     1
102
RTVSPost2010Prop56
140
1.0
102
RTVSPost2010PropOp56
 70
     1
102
RTVSPost2010Prop57
140
1.0
102
RTVSPost2010PropOp57
 70
     1
  0
XRECORD
  5
2A0
102
{ACAD_REACTORS
330
29F
102
}
330
29F
100
AcDbXrecord
280
     1
102
RTVSPropertyOp0
 70
     1
102
RTVSPropertyOp1
 70
     1
102
RTVSPropertyOp2
 70
     1
102
RTVSPropertyOp3
 70
     1
102
RTVSPropertyOp4
 70
     1
102
RTVSPropertyOp5
 70
     1
102
RTVSPropertyOp6
 70
     1
102
RTVSPropertyOp7
 70
     1
102
RTVSPropertyOp8
 70
     1
102
RTVSPropertyOp9
 70
     1
102
RTVSPropertyOp10
 70
     1
102
RTVSPropertyOp11
 70
     1
102
RTVSPropertyOp12
 70
     1
102
RTVSPropertyOp13
 70
     1
102
RTVSPropertyOp14
 70
     1
102
RTVSPropertyOp15
 70
     1
102
RTVSPropertyOp16
 70
     1
102
RTVSPropertyOp17
 70
     1
102
RTVSPropertyOp18
 70
     1
102
RTVSPropertyOp19
 70
     1
102
RTVSPropertyOp20
 70
     1
102
RTVSPropertyOp21
 70
     1
102
RTVSPropertyOp22
 70
     1
102
RTVSPropertyOp23
 70
     1
102
RTVSPropertyOp24
 70
     1
102
RTVSPropertyOp25
 70
     1
102
RTVSPropertyOp26
 70
     1
102
RTVSPropertyOp27
 70
     1
102
RTVSPropertyOp28
 70
     1
102
RTVSPropertyOp29
 70
     1
102
RTVSPropertyOp30
 70
     1
102
RTVSPropertyOp31
 70
     1
102
RTVSPropertyOp32
 70
     1
102
RTVSPropertyOp33
 70
     1
102
RTVSPropertyOp34
 70
     1
102
RTVSPropertyOp35
 70
     1
102
RTVSPropertyOp36
 70
     1
102
RTVSPropertyOp37
 70
     1
102
RTVSPropertyOp38
 70
     1
102
RTVSPropertyOp39
 70
     1
102
RTVSPropertyOp40
 70
     1
102
RTVSPropertyOp41
 70
     1
102
RTVSPropertyOp42
 70
     1
102
RTVSPropertyOp43
 70
     1
102
RTVSPropertyOp44
 70
     1
102
RTVSPropertyOp45
 70
     1
102
RTVSPropertyOp46
 70
     1
102
RTVSPropertyOp47
 70
     1
102
RTVSPropertyOp48
 70
     1
102
RTVSPropertyOp49
 70
     1
102
RTVSPropertyOp50
 70
     1
102
RTVSPropertyOp51
 70
     0
102
RTVSPropertyOp52
 70
     0
102
RTVSPropertyOp53
 70
     1
102
RTVSPropertyOp54
 70
     1
102
RTVSPropertyOp55
 70
     1
102
RTVSPropertyOp56
 70
     1
102
RTVSPropertyOp57
 70
     1
102
RTVSPost2010Prop28
280
     0
102
RTVSPost2010PropOp28
 70
     1
102
RTVSPost2010Prop29
280
     1
102
RTVSPost2010PropOp29
 70
     1
102
RTVSPost2010Prop30
280
     1
102
RTVSPost2010PropOp30
 70
     1
102
RTVSPost2010Prop31
280
     0
102
RTVSPost2010PropOp31
 70
     1
102
RTVSPost2010Prop32
280
     0
102
RTVSPost2010PropOp32
 70
     1
102
RTVSPost2010Prop33
280
     0
102
RTVSPost2010PropOp33
 70
     1
102
RTVSPost2010Prop34
280
     0
102
RTVSPost2010PropOp34
 70
     1
102
RTVSPost2010Prop35
280
     0
102
RTVSPost2010PropOp35
 70
     1
102
RTVSPost2010Prop36
280
     0
102
RTVSPost2010PropOp36
 70
     1
102
RTVSPost2010Prop37
 90
       50
102
RTVSPost2010PropOp37
 70
     1
102
RTVSPost2010Prop38
140
0.0
102
RTVSPost2010PropOp38
 70
     1
102
RTVSPost2010Prop39
140
1.0
102
RTVSPost2010PropOp39
 70
     1
102
RTVSPost2010Prop40
 90
        0
102
RTVSPost2010PropOp40
 70
     1
102
RTVSPost2010Prop41ColorIndex
 90
       18
102
RTVSPost2010Prop41ColorRGB
 90
        0
102
RTVSPost2010PropOp41
 70
     1
102
RTVSPost2010Prop42
 90
       50
102
RTVSPost2010PropOp42
 70
     1
102
RTVSPost2010Prop43
 90
        3
102
RTVSPost2010PropOp43
 70
     1
102
RTVSPost2010Prop44ColorIndex
 90
        5
102
RTVSPost2010Prop44ColorRGB
 90
      255
102
RTVSPost2010PropOp44
 70
     1
102
RTVSPost2010Prop45
280
     0
102
RTVSPost2010PropOp45
 70
     1
102
RTVSPost2010Prop46
 90
       50
102
RTVSPost2010PropOp46
 70
     1
102
RTVSPost2010Prop47
 90
       50
102
RTVSPost2010PropOp47
 70
     1
102
RTVSPost2010Prop48
 90
       50
102
RTVSPost2010PropOp48
 70
     1
102
RTVSPost2010Prop49
280
     0
102
RTVSPost2010PropOp49
 70
     1
102
RTVSPost2010Prop50
 90
       50
102
RTVSPost2010PropOp50
 70
     1
102
RTVSPost2010Prop51ColorIndex
 90
      256
102
RTVSPost2010Prop51ColorRGB
 90
-16777216
102
RTVSPost2010PropOp51
 70
     0
102
RTVSPost2010Prop52
140
1.0
102
RTVSPost2010PropOp52
 70
     0
102
RTVSPost2010Prop53
 90
        2
102
RTVSPost2010PropOp53
 70
     1
102
RTVSPost2010Prop54
  1
strokes_ogs.tif
102
RTVSPost2010PropOp54
 70
     1
102
RTVSPost2010Prop55
280
     0
102
RTVSPost2010PropOp55
 70
     1
102
RTVSPost2010Prop56
140
1.0
102
RTVSPost2010PropOp56
 70
     1
102
RTVSPost2010Prop57
140
1.0
102
RTVSPost2010PropOp57
 70
     1
  0
XRECORD
  5
2B0
102
{ACAD_REACTORS
330
2AF
102
}
330
2AF
100
AcDbXrecord
280
     1
102
RTVSPropertyOp0
 70
     0
102
RTVSPropertyOp1
 70
     0
102
RTVSPropertyOp2
 70
     0
102
RTVSPropertyOp3
 70
     0
102
RTVSPropertyOp4
 70
     0
102
RTVSPropertyOp5
 70
     0
102
RTVSPropertyOp6
 70
     0
102
RTVSPropertyOp7
 70
     0
102
RTVSPropertyOp8
 70
     0
102
RTVSPropertyOp9
 70
     0
102
RTVSPropertyOp10
 70
     0
102
RTVSPropertyOp11
 70
     0
102
RTVSPropertyOp12
 70
     0
102
RTVSPropertyOp13
 70
     0
102
RTVSPropertyOp14
 70
     2
102
RTVSPropertyOp15
 70
     0
102
RTVSPropertyOp16
 70
     0
102
RTVSPropertyOp17
 70
     0
102
RTVSPropertyOp18
 70
     0
102
RTVSPropertyOp19
 70
     0
102
RTVSPropertyOp20
 70
     0
102
RTVSPropertyOp21
 70
     0
102
RTVSPropertyOp22
 70
     0
102
RTVSPropertyOp23
 70
     0
102
RTVSPropertyOp24
 70
     0
102
RTVSPropertyOp25
 70
     0
102
RTVSPropertyOp26
 70
     0
102
RTVSPropertyOp27
 70
     0
102
RTVSPropertyOp28
 70
     0
102
RTVSPropertyOp29
 70
     0
102
RTVSPropertyOp30
 70
     0
102
RTVSPropertyOp31
 70
     0
102
RTVSPropertyOp32
 70
     0
102
RTVSPropertyOp33
 70
     0
102
RTVSPropertyOp34
 70
     0
102
RTVSPropertyOp35
 70
     0
102
RTVSPropertyOp36
 70
     0
102
RTVSPropertyOp37
 70
     0
102
RTVSPropertyOp38
 70
     0
102
RTVSPropertyOp39
 70
     0
102
RTVSPropertyOp40
 70
     0
102
RTVSPropertyOp41
 70
     0
102
RTVSPropertyOp42
 70
     0
102
RTVSPropertyOp43
 70
     0
102
RTVSPropertyOp44
 70
     0
102
RTVSPropertyOp45
 70
     0
102
RTVSPropertyOp46
 70
     0
102
RTVSPropertyOp47
 70
     0
102
RTVSPropertyOp48
 70
     0
102
RTVSPropertyOp49
 70
     0
102
RTVSPropertyOp50
 70
     0
102
RTVSPropertyOp51
 70
     0
102
RTVSPropertyOp52
 70
     0
102
RTVSPropertyOp53
 70
     0
102
RTVSPropertyOp54
 70
     0
102
RTVSPropertyOp55
 70
     0
102
RTVSPropertyOp56
 70
     0
102
RTVSPropertyOp57
 70
     0
102
RTVSPost2010Prop28
280
     0
102
RTVSPost2010PropOp28
 70
     0
102
RTVSPost2010Prop29
280
     1
102
RTVSPost2010PropOp29
 70
     0
102
RTVSPost2010Prop30
280
     1
102
RTVSPost2010PropOp30
 70
     0
102
RTVSPost2010Prop31
280
     0
102
RTVSPost2010PropOp31
 70
     0
102
RTVSPost2010Prop32
280
     0
102
RTVSPost2010PropOp32
 70
     0
102
RTVSPost2010Prop33
280
     0
102
RTVSPost2010PropOp33
 70
     0
102
RTVSPost2010Prop34
280
     0
102
RTVSPost2010PropOp34
 70
     0
102
RTVSPost2010Prop35
280
     0
102
RTVSPost2010PropOp35
 70
     0
102
RTVSPost2010Prop36
280
     0
102
RTVSPost2010PropOp36
 70
     0
102
RTVSPost2010Prop37
 90
       50
102
RTVSPost2010PropOp37
 70
     0
102
RTVSPost2010Prop38
140
0.0
102
RTVSPost2010PropOp38
 70
     0
102
RTVSPost2010Prop39
140
1.0
102
RTVSPost2010PropOp39
 70
     0
102
RTVSPost2010Prop40
 90
        0
102
RTVSPost2010PropOp40
 70
     0
102
RTVSPost2010Prop41ColorIndex
 90
       18
102
RTVSPost2010Prop41ColorRGB
 90
        0
102
RTVSPost2010PropOp41
 70
     0
102
RTVSPost2010Prop42
 90
       50
102
RTVSPost2010PropOp42
 70
     0
102
RTVSPost2010Prop43
 90
        3
102
RTVSPost2010PropOp43
 70
     0
102
RTVSPost2010Prop44ColorIndex
 90
        5
102
RTVSPost2010Prop44ColorRGB
 90
      255
102
RTVSPost2010PropOp44
 70
     0
102
RTVSPost2010Prop45
280
     0
102
RTVSPost2010PropOp45
 70
     0
102
RTVSPost2010Prop46
 90
       50
102
RTVSPost2010PropOp46
 70
     0
102
RTVSPost2010Prop47
 90
       50
102
RTVSPost2010PropOp47
 70
     0
102
RTVSPost2010Prop48
 90
       50
102
RTVSPost2010PropOp48
 70
     0
102
RTVSPost2010Prop49
280
     0
102
RTVSPost2010PropOp49
 70
     0
102
RTVSPost2010Prop50
 90
       50
102
RTVSPost2010PropOp50
 70
     0
102
RTVSPost2010Prop51ColorIndex
 90
      256
102
RTVSPost2010Prop51ColorRGB
 90
-16777216
102
RTVSPost2010PropOp51
 70
     0
102
RTVSPost2010Prop52
140
1.0
102
RTVSPost2010PropOp52
 70
     0
102
RTVSPost2010Prop53
 90
        2
102
RTVSPost2010PropOp53
 70
     0
102
RTVSPost2010Prop54
  1
strokes_ogs.tif
102
RTVSPost2010PropOp54
 70
     0
102
RTVSPost2010Prop55
280
     0
102
RTVSPost2010PropOp55
 70
     0
102
RTVSPost2010Prop56
140
1.0
102
RTVSPost2010PropOp56
 70
     0
102
RTVSPost2010Prop57
140
1.0
102
RTVSPost2010PropOp57
 70
     0
  0
XRECORD
  5
2A8
102
{ACAD_REACTORS
330
2A7
102
}
330
2A7
100
AcDbXrecord
280
     1
102
RTVSPropertyOp0
 70
     1
102
RTVSPropertyOp1
 70
     1
102
RTVSPropertyOp2
 70
     1
102
RTVSPropertyOp3
 70
     1
102
RTVSPropertyOp4
 70
     1
102
RTVSPropertyOp5
 70
     1
102
RTVSPropertyOp6
 70
     1
102
RTVSPropertyOp7
 70
     1
102
RTVSPropertyOp8
 70
     1
102
RTVSPropertyOp9
 70
     1
102
RTVSPropertyOp10
 70
     1
102
RTVSPropertyOp11
 70
     1
102
RTVSPropertyOp12
 70
     1
102
RTVSPropertyOp13
 70
     1
102
RTVSPropertyOp14
 70
     1
102
RTVSPropertyOp15
 70
     1
102
RTVSPropertyOp16
 70
     1
102
RTVSPropertyOp17
 70
     1
102
RTVSPropertyOp18
 70
     1
102
RTVSPropertyOp19
 70
     1
102
RTVSPropertyOp20
 70
     1
102
RTVSPropertyOp21
 70
     1
102
RTVSPropertyOp22
 70
     1
102
RTVSPropertyOp23
 70
     1
102
RTVSPropertyOp24
 70
     1
102
RTVSPropertyOp25
 70
     1
102
RTVSPropertyOp26
 70
     1
102
RTVSPropertyOp27
 70
     1
102
RTVSPropertyOp28
 70
     1
102
RTVSPropertyOp29
 70
     1
102
RTVSPropertyOp30
 70
     1
102
RTVSPropertyOp31
 70
     1
102
RTVSPropertyOp32
 70
     1
102
RTVSPropertyOp33
 70
     1
102
RTVSPropertyOp34
 70
     1
102
RTVSPropertyOp35
 70
     1
102
RTVSPropertyOp36
 70
     1
102
RTVSPropertyOp37
 70
     1
102
RTVSPropertyOp38
 70
     1
102
RTVSPropertyOp39
 70
     1
102
RTVSPropertyOp40
 70
     1
102
RTVSPropertyOp41
 70
     1
102
RTVSPropertyOp42
 70
     1
102
RTVSPropertyOp43
 70
     1
102
RTVSPropertyOp44
 70
     1
102
RTVSPropertyOp45
 70
     1
102
RTVSPropertyOp46
 70
     1
102
RTVSPropertyOp47
 70
     1
102
RTVSPropertyOp48
 70
     1
102
RTVSPropertyOp49
 70
     1
102
RTVSPropertyOp50
 70
     1
102
RTVSPropertyOp51
 70
     0
102
RTVSPropertyOp52
 70
     0
102
RTVSPropertyOp53
 70
     1
102
RTVSPropertyOp54
 70
     1
102
RTVSPropertyOp55
 70
     1
102
RTVSPropertyOp56
 70
     1
102
RTVSPropertyOp57
 70
     1
102
RTVSPost2010Prop28
280
     0
102
RTVSPost2010PropOp28
 70
     1
102
RTVSPost2010Prop29
280
     1
102
RTVSPost2010PropOp29
 70
     1
102
RTVSPost2010Prop30
280
     1
102
RTVSPost2010PropOp30
 70
     1
102
RTVSPost2010Prop31
280
     0
102
RTVSPost2010PropOp31
 70
     1
102
RTVSPost2010Prop32
280
     0
102
RTVSPost2010PropOp32
 70
     1
102
RTVSPost2010Prop33
280
     0
102
RTVSPost2010PropOp33
 70
     1
102
RTVSPost2010Prop34
280
     0
102
RTVSPost2010PropOp34
 70
     1
102
RTVSPost2010Prop35
280
     0
102
RTVSPost2010PropOp35
 70
     1
102
RTVSPost2010Prop36
280
     0
102
RTVSPost2010PropOp36
 70
     1
102
RTVSPost2010Prop37
 90
       50
102
RTVSPost2010PropOp37
 70
     1
102
RTVSPost2010Prop38
140
0.0
102
RTVSPost2010PropOp38
 70
     1
102
RTVSPost2010Prop39
140
1.0
102
RTVSPost2010PropOp39
 70
     1
102
RTVSPost2010Prop40
 90
        0
102
RTVSPost2010PropOp40
 70
     1
102
RTVSPost2010Prop41ColorIndex
 90
       18
102
RTVSPost2010Prop41ColorRGB
 90
        0
102
RTVSPost2010PropOp41
 70
     1
102
RTVSPost2010Prop42
 90
       50
102
RTVSPost2010PropOp42
 70
     1
102
RTVSPost2010Prop43
 90
        3
102
RTVSPost2010PropOp43
 70
     1
102
RTVSPost2010Prop44ColorIndex
 90
        5
102
RTVSPost2010Prop44ColorRGB
 90
      255
102
RTVSPost2010PropOp44
 70
     1
102
RTVSPost2010Prop45
280
     0
102
RTVSPost2010PropOp45
 70
     1
102
RTVSPost2010Prop46
 90
       50
102
RTVSPost2010PropOp46
 70
     1
102
RTVSPost2010Prop47
 90
       50
102
RTVSPost2010PropOp47
 70
     1
102
RTVSPost2010Prop48
 90
       50
102
RTVSPost2010PropOp48
 70
     1
102
RTVSPost2010Prop49
280
     0
102
RTVSPost2010PropOp49
 70
     1
102
RTVSPost2010Prop50
 90
       50
102
RTVSPost2010PropOp50
 70
     1
102
RTVSPost2010Prop51ColorIndex
 90
      256
102
RTVSPost2010Prop51ColorRGB
 90
-16777216
102
RTVSPost2010PropOp51
 70
     0
102
RTVSPost2010Prop52
140
1.0
102
RTVSPost2010PropOp52
 70
     0
102
RTVSPost2010Prop53
 90
        2
102
RTVSPost2010PropOp53
 70
     1
102
RTVSPost2010Prop54
  1
strokes_ogs.tif
102
RTVSPost2010PropOp54
 70
     1
102
RTVSPost2010Prop55
280
     0
102
RTVSPost2010PropOp55
 70
     1
102
RTVSPost2010Prop56
140
1.0
102
RTVSPost2010PropOp56
 70
     1
102
RTVSPost2010Prop57
140
1.0
102
RTVSPost2010PropOp57
 70
     1
  0
XRECORD
  5
28C
102
{ACAD_REACTORS
330
28B
102
}
330
28B
100
AcDbXrecord
280
     1
102
RTVSPropertyOp0
 70
     1
102
RTVSPropertyOp1
 70
     1
102
RTVSPropertyOp2
 70
     1
102
RTVSPropertyOp3
 70
     1
102
RTVSPropertyOp4
 70
     1
102
RTVSPropertyOp5
 70
     1
102
RTVSPropertyOp6
 70
     1
102
RTVSPropertyOp7
 70
     1
102
RTVSPropertyOp8
 70
     1
102
RTVSPropertyOp9
 70
     1
102
RTVSPropertyOp10
 70
     1
102
RTVSPropertyOp11
 70
     1
102
RTVSPropertyOp12
 70
     1
102
RTVSPropertyOp13
 70
     1
102
RTVSPropertyOp14
 70
     1
102
RTVSPropertyOp15
 70
     1
102
RTVSPropertyOp16
 70
     1
102
RTVSPropertyOp17
 70
     1
102
RTVSPropertyOp18
 70
     1
102
RTVSPropertyOp19
 70
     1
102
RTVSPropertyOp20
 70
     1
102
RTVSPropertyOp21
 70
     1
102
RTVSPropertyOp22
 70
     1
102
RTVSPropertyOp23
 70
     1
102
RTVSPropertyOp24
 70
     1
102
RTVSPropertyOp25
 70
     1
102
RTVSPropertyOp26
 70
     1
102
RTVSPropertyOp27
 70
     1
102
RTVSPropertyOp28
 70
     1
102
RTVSPropertyOp29
 70
     1
102
RTVSPropertyOp30
 70
     1
102
RTVSPropertyOp31
 70
     1
102
RTVSPropertyOp32
 70
     1
102
RTVSPropertyOp33
 70
     1
102
RTVSPropertyOp34
 70
     1
102
RTVSPropertyOp35
 70
     1
102
RTVSPropertyOp36
 70
     1
102
RTVSPropertyOp37
 70
     1
102
RTVSPropertyOp38
 70
     1
102
RTVSPropertyOp39
 70
     1
102
RTVSPropertyOp40
 70
     1
102
RTVSPropertyOp41
 70
     1
102
RTVSPropertyOp42
 70
     1
102
RTVSPropertyOp43
 70
     1
102
RTVSPropertyOp44
 70
     1
102
RTVSPropertyOp45
 70
     1
102
RTVSPropertyOp46
 70
     1
102
RTVSPropertyOp47
 70
     1
102
RTVSPropertyOp48
 70
     1
102
RTVSPropertyOp49
 70
     1
102
RTVSPropertyOp50
 70
     1
102
RTVSPropertyOp51
 70
     0
102
RTVSPropertyOp52
 70
     0
102
RTVSPropertyOp53
 70
     1
102
RTVSPropertyOp54
 70
     1
102
RTVSPropertyOp55
 70
     1
102
RTVSPropertyOp56
 70
     1
102
RTVSPropertyOp57
 70
     1
102
RTVSPost2010Prop28
280
     0
102
RTVSPost2010PropOp28
 70
     1
102
RTVSPost2010Prop29
280
     1
102
RTVSPost2010PropOp29
 70
     1
102
RTVSPost2010Prop30
280
     1
102
RTVSPost2010PropOp30
 70
     1
102
RTVSPost2010Prop31
280
     0
102
RTVSPost2010PropOp31
 70
     1
102
RTVSPost2010Prop32
280
     0
102
RTVSPost2010PropOp32
 70
     1
102
RTVSPost2010Prop33
280
     0
102
RTVSPost2010PropOp33
 70
     1
102
RTVSPost2010Prop34
280
     0
102
RTVSPost2010PropOp34
 70
     1
102
RTVSPost2010Prop35
280
     0
102
RTVSPost2010PropOp35
 70
     1
102
RTVSPost2010Prop36
280
     0
102
RTVSPost2010PropOp36
 70
     1
102
RTVSPost2010Prop37
 90
       50
102
RTVSPost2010PropOp37
 70
     1
102
RTVSPost2010Prop38
140
0.0
102
RTVSPost2010PropOp38
 70
     1
102
RTVSPost2010Prop39
140
1.0
102
RTVSPost2010PropOp39
 70
     1
102
RTVSPost2010Prop40
 90
        0
102
RTVSPost2010PropOp40
 70
     1
102
RTVSPost2010Prop41ColorIndex
 90
       18
102
RTVSPost2010Prop41ColorRGB
 90
        0
102
RTVSPost2010PropOp41
 70
     1
102
RTVSPost2010Prop42
 90
       50
102
RTVSPost2010PropOp42
 70
     1
102
RTVSPost2010Prop43
 90
        3
102
RTVSPost2010PropOp43
 70
     1
102
RTVSPost2010Prop44ColorIndex
 90
        5
102
RTVSPost2010Prop44ColorRGB
 90
      255
102
RTVSPost2010PropOp44
 70
     1
102
RTVSPost2010Prop45
280
     0
102
RTVSPost2010PropOp45
 70
     1
102
RTVSPost2010Prop46
 90
       50
102
RTVSPost2010PropOp46
 70
     1
102
RTVSPost2010Prop47
 90
       50
102
RTVSPost2010PropOp47
 70
     1
102
RTVSPost2010Prop48
 90
       50
102
RTVSPost2010PropOp48
 70
     1
102
RTVSPost2010Prop49
280
     0
102
RTVSPost2010PropOp49
 70
     1
102
RTVSPost2010Prop50
 90
       50
102
RTVSPost2010PropOp50
 70
     1
102
RTVSPost2010Prop51ColorIndex
 90
      256
102
RTVSPost2010Prop51ColorRGB
 90
-16777216
102
RTVSPost2010PropOp51
 70
     0
102
RTVSPost2010Prop52
140
1.0
102
RTVSPost2010PropOp52
 70
     0
102
RTVSPost2010Prop53
 90
        2
102
RTVSPost2010PropOp53
 70
     1
102
RTVSPost2010Prop54
  1
strokes_ogs.tif
102
RTVSPost2010PropOp54
 70
     1
102
RTVSPost2010Prop55
280
     0
102
RTVSPost2010PropOp55
 70
     1
102
RTVSPost2010Prop56
140
1.0
102
RTVSPost2010PropOp56
 70
     1
102
RTVSPost2010Prop57
140
1.0
102
RTVSPost2010PropOp57
 70
     1
  0
XRECORD
  5
28E
102
{ACAD_REACTORS
330
28D
102
}
330
28D
100
AcDbXrecord
280
     1
102
RTVSPropertyOp0
 70
     1
102
RTVSPropertyOp1
 70
     1
102
RTVSPropertyOp2
 70
     1
102
RTVSPropertyOp3
 70
     1
102
RTVSPropertyOp4
 70
     1
102
RTVSPropertyOp5
 70
     1
102
RTVSPropertyOp6
 70
     1
102
RTVSPropertyOp7
 70
     1
102
RTVSPropertyOp8
 70
     1
102
RTVSPropertyOp9
 70
     1
102
RTVSPropertyOp10
 70
     1
102
RTVSPropertyOp11
 70
     1
102
RTVSPropertyOp12
 70
     1
102
RTVSPropertyOp13
 70
     1
102
RTVSPropertyOp14
 70
     1
102
RTVSPropertyOp15
 70
     1
102
RTVSPropertyOp16
 70
     1
102
RTVSPropertyOp17
 70
     1
102
RTVSPropertyOp18
 70
     1
102
RTVSPropertyOp19
 70
     1
102
RTVSPropertyOp20
 70
     1
102
RTVSPropertyOp21
 70
     1
102
RTVSPropertyOp22
 70
     1
102
RTVSPropertyOp23
 70
     1
102
RTVSPropertyOp24
 70
     1
102
RTVSPropertyOp25
 70
     1
102
RTVSPropertyOp26
 70
     1
102
RTVSPropertyOp27
 70
     1
102
RTVSPropertyOp28
 70
     1
102
RTVSPropertyOp29
 70
     1
102
RTVSPropertyOp30
 70
     1
102
RTVSPropertyOp31
 70
     1
102
RTVSPropertyOp32
 70
     1
102
RTVSPropertyOp33
 70
     1
102
RTVSPropertyOp34
 70
     1
102
RTVSPropertyOp35
 70
     1
102
RTVSPropertyOp36
 70
     1
102
RTVSPropertyOp37
 70
     1
102
RTVSPropertyOp38
 70
     1
102
RTVSPropertyOp39
 70
     1
102
RTVSPropertyOp40
 70
     1
102
RTVSPropertyOp41
 70
     1
102
RTVSPropertyOp42
 70
     1
102
RTVSPropertyOp43
 70
     1
102
RTVSPropertyOp44
 70
     1
102
RTVSPropertyOp45
 70
     1
102
RTVSPropertyOp46
 70
     1
102
RTVSPropertyOp47
 70
     1
102
RTVSPropertyOp48
 70
     1
102
RTVSPropertyOp49
 70
     1
102
RTVSPropertyOp50
 70
     1
102
RTVSPropertyOp51
 70
     0
102
RTVSPropertyOp52
 70
     0
102
RTVSPropertyOp53
 70
     1
102
RTVSPropertyOp54
 70
     1
102
RTVSPropertyOp55
 70
     1
102
RTVSPropertyOp56
 70
     1
102
RTVSPropertyOp57
 70
     1
102
RTVSPost2010Prop28
280
     0
102
RTVSPost2010PropOp28
 70
     1
102
RTVSPost2010Prop29
280
     1
102
RTVSPost2010PropOp29
 70
     1
102
RTVSPost2010Prop30
280
     1
102
RTVSPost2010PropOp30
 70
     1
102
RTVSPost2010Prop31
280
     0
102
RTVSPost2010PropOp31
 70
     1
102
RTVSPost2010Prop32
280
     0
102
RTVSPost2010PropOp32
 70
     1
102
RTVSPost2010Prop33
280
     0
102
RTVSPost2010PropOp33
 70
     1
102
RTVSPost2010Prop34
280
     0
102
RTVSPost2010PropOp34
 70
     1
102
RTVSPost2010Prop35
280
     0
102
RTVSPost2010PropOp35
 70
     1
102
RTVSPost2010Prop36
280
     0
102
RTVSPost2010PropOp36
 70
     1
102
RTVSPost2010Prop37
 90
       50
102
RTVSPost2010PropOp37
 70
     1
102
RTVSPost2010Prop38
140
0.0
102
RTVSPost2010PropOp38
 70
     1
102
RTVSPost2010Prop39
140
1.0
102
RTVSPost2010PropOp39
 70
     1
102
RTVSPost2010Prop40
 90
        0
102
RTVSPost2010PropOp40
 70
     1
102
RTVSPost2010Prop41ColorIndex
 90
       18
102
RTVSPost2010Prop41ColorRGB
 90
        0
102
RTVSPost2010PropOp41
 70
     1
102
RTVSPost2010Prop42
 90
       50
102
RTVSPost2010PropOp42
 70
     1
102
RTVSPost2010Prop43
 90
        3
102
RTVSPost2010PropOp43
 70
     1
102
RTVSPost2010Prop44ColorIndex
 90
        5
102
RTVSPost2010Prop44ColorRGB
 90
      255
102
RTVSPost2010PropOp44
 70
     1
102
RTVSPost2010Prop45
280
     0
102
RTVSPost2010PropOp45
 70
     1
102
RTVSPost2010Prop46
 90
       50
102
RTVSPost2010PropOp46
 70
     1
102
RTVSPost2010Prop47
 90
       50
102
RTVSPost2010PropOp47
 70
     1
102
RTVSPost2010Prop48
 90
       50
102
RTVSPost2010PropOp48
 70
     1
102
RTVSPost2010Prop49
280
     0
102
RTVSPost2010PropOp49
 70
     1
102
RTVSPost2010Prop50
 90
       50
102
RTVSPost2010PropOp50
 70
     1
102
RTVSPost2010Prop51ColorIndex
 90
      256
102
RTVSPost2010Prop51ColorRGB
 90
-16777216
102
RTVSPost2010PropOp51
 70
     0
102
RTVSPost2010Prop52
140
1.0
102
RTVSPost2010PropOp52
 70
     0
102
RTVSPost2010Prop53
 90
        2
102
RTVSPost2010PropOp53
 70
     1
102
RTVSPost2010Prop54
  1
strokes_ogs.tif
102
RTVSPost2010PropOp54
 70
     1
102
RTVSPost2010Prop55
280
     0
102
RTVSPost2010PropOp55
 70
     1
102
RTVSPost2010Prop56
140
1.0
102
RTVSPost2010PropOp56
 70
     1
102
RTVSPost2010Prop57
140
1.0
102
RTVSPost2010PropOp57
 70
     1
  0
XRECORD
  5
290
102
{ACAD_REACTORS
330
28F
102
}
330
28F
100
AcDbXrecord
280
     1
102
RTVSPropertyOp0
 70
     1
102
RTVSPropertyOp1
 70
     1
102
RTVSPropertyOp2
 70
     1
102
RTVSPropertyOp3
 70
     1
102
RTVSPropertyOp4
 70
     1
102
RTVSPropertyOp5
 70
     1
102
RTVSPropertyOp6
 70
     1
102
RTVSPropertyOp7
 70
     1
102
RTVSPropertyOp8
 70
     1
102
RTVSPropertyOp9
 70
     1
102
RTVSPropertyOp10
 70
     1
102
RTVSPropertyOp11
 70
     1
102
RTVSPropertyOp12
 70
     1
102
RTVSPropertyOp13
 70
     1
102
RTVSPropertyOp14
 70
     1
102
RTVSPropertyOp15
 70
     1
102
RTVSPropertyOp16
 70
     1
102
RTVSPropertyOp17
 70
     1
102
RTVSPropertyOp18
 70
     1
102
RTVSPropertyOp19
 70
     1
102
RTVSPropertyOp20
 70
     1
102
RTVSPropertyOp21
 70
     1
102
RTVSPropertyOp22
 70
     1
102
RTVSPropertyOp23
 70
     1
102
RTVSPropertyOp24
 70
     1
102
RTVSPropertyOp25
 70
     1
102
RTVSPropertyOp26
 70
     1
102
RTVSPropertyOp27
 70
     1
102
RTVSPropertyOp28
 70
     1
102
RTVSPropertyOp29
 70
     1
102
RTVSPropertyOp30
 70
     1
102
RTVSPropertyOp31
 70
     1
102
RTVSPropertyOp32
 70
     1
102
RTVSPropertyOp33
 70
     1
102
RTVSPropertyOp34
 70
     1
102
RTVSPropertyOp35
 70
     1
102
RTVSPropertyOp36
 70
     1
102
RTVSPropertyOp37
 70
     1
102
RTVSPropertyOp38
 70
     1
102
RTVSPropertyOp39
 70
     1
102
RTVSPropertyOp40
 70
     1
102
RTVSPropertyOp41
 70
     1
102
RTVSPropertyOp42
 70
     1
102
RTVSPropertyOp43
 70
     1
102
RTVSPropertyOp44
 70
     1
102
RTVSPropertyOp45
 70
     1
102
RTVSPropertyOp46
 70
     1
102
RTVSPropertyOp47
 70
     1
102
RTVSPropertyOp48
 70
     1
102
RTVSPropertyOp49
 70
     1
102
RTVSPropertyOp50
 70
     1
102
RTVSPropertyOp51
 70
     0
102
RTVSPropertyOp52
 70
     0
102
RTVSPropertyOp53
 70
     1
102
RTVSPropertyOp54
 70
     1
102
RTVSPropertyOp55
 70
     1
102
RTVSPropertyOp56
 70
     1
102
RTVSPropertyOp57
 70
     1
102
RTVSPost2010Prop28
280
     0
102
RTVSPost2010PropOp28
 70
     1
102
RTVSPost2010Prop29
280
     1
102
RTVSPost2010PropOp29
 70
     1
102
RTVSPost2010Prop30
280
     1
102
RTVSPost2010PropOp30
 70
     1
102
RTVSPost2010Prop31
280
     0
102
RTVSPost2010PropOp31
 70
     1
102
RTVSPost2010Prop32
280
     0
102
RTVSPost2010PropOp32
 70
     1
102
RTVSPost2010Prop33
280
     0
102
RTVSPost2010PropOp33
 70
     1
102
RTVSPost2010Prop34
280
     0
102
RTVSPost2010PropOp34
 70
     1
102
RTVSPost2010Prop35
280
     0
102
RTVSPost2010PropOp35
 70
     1
102
RTVSPost2010Prop36
280
     0
102
RTVSPost2010PropOp36
 70
     1
102
RTVSPost2010Prop37
 90
       50
102
RTVSPost2010PropOp37
 70
     1
102
RTVSPost2010Prop38
140
0.0
102
RTVSPost2010PropOp38
 70
     1
102
RTVSPost2010Prop39
140
1.0
102
RTVSPost2010PropOp39
 70
     1
102
RTVSPost2010Prop40
 90
        0
102
RTVSPost2010PropOp40
 70
     1
102
RTVSPost2010Prop41ColorIndex
 90
       18
102
RTVSPost2010Prop41ColorRGB
 90
        0
102
RTVSPost2010PropOp41
 70
     1
102
RTVSPost2010Prop42
 90
       50
102
RTVSPost2010PropOp42
 70
     1
102
RTVSPost2010Prop43
 90
        3
102
RTVSPost2010PropOp43
 70
     1
102
RTVSPost2010Prop44ColorIndex
 90
        5
102
RTVSPost2010Prop44ColorRGB
 90
      255
102
RTVSPost2010PropOp44
 70
     1
102
RTVSPost2010Prop45
280
     0
102
RTVSPost2010PropOp45
 70
     1
102
RTVSPost2010Prop46
 90
       50
102
RTVSPost2010PropOp46
 70
     1
102
RTVSPost2010Prop47
 90
       50
102
RTVSPost2010PropOp47
 70
     1
102
RTVSPost2010Prop48
 90
       50
102
RTVSPost2010PropOp48
 70
     1
102
RTVSPost2010Prop49
280
     0
102
RTVSPost2010PropOp49
 70
     1
102
RTVSPost2010Prop50
 90
       50
102
RTVSPost2010PropOp50
 70
     1
102
RTVSPost2010Prop51ColorIndex
 90
      256
102
RTVSPost2010Prop51ColorRGB
 90
-16777216
102
RTVSPost2010PropOp51
 70
     0
102
RTVSPost2010Prop52
140
1.0
102
RTVSPost2010PropOp52
 70
     0
102
RTVSPost2010Prop53
 90
        2
102
RTVSPost2010PropOp53
 70
     1
102
RTVSPost2010Prop54
  1
strokes_ogs.tif
102
RTVSPost2010PropOp54
 70
     1
102
RTVSPost2010Prop55
280
     0
102
RTVSPost2010PropOp55
 70
     1
102
RTVSPost2010Prop56
140
1.0
102
RTVSPost2010PropOp56
 70
     1
102
RTVSPost2010Prop57
140
1.0
102
RTVSPost2010PropOp57
 70
     1
  0
XRECORD
  5
292
102
{ACAD_REACTORS
330
291
102
}
330
291
100
AcDbXrecord
280
     1
102
RTVSPropertyOp0
 70
     1
102
RTVSPropertyOp1
 70
     1
102
RTVSPropertyOp2
 70
     1
102
RTVSPropertyOp3
 70
     1
102
RTVSPropertyOp4
 70
     1
102
RTVSPropertyOp5
 70
     1
102
RTVSPropertyOp6
 70
     1
102
RTVSPropertyOp7
 70
     1
102
RTVSPropertyOp8
 70
     1
102
RTVSPropertyOp9
 70
     1
102
RTVSPropertyOp10
 70
     1
102
RTVSPropertyOp11
 70
     1
102
RTVSPropertyOp12
 70
     1
102
RTVSPropertyOp13
 70
     1
102
RTVSPropertyOp14
 70
     1
102
RTVSPropertyOp15
 70
     1
102
RTVSPropertyOp16
 70
     1
102
RTVSPropertyOp17
 70
     1
102
RTVSPropertyOp18
 70
     1
102
RTVSPropertyOp19
 70
     1
102
RTVSPropertyOp20
 70
     1
102
RTVSPropertyOp21
 70
     1
102
RTVSPropertyOp22
 70
     1
102
RTVSPropertyOp23
 70
     1
102
RTVSPropertyOp24
 70
     1
102
RTVSPropertyOp25
 70
     1
102
RTVSPropertyOp26
 70
     1
102
RTVSPropertyOp27
 70
     1
102
RTVSPropertyOp28
 70
     1
102
RTVSPropertyOp29
 70
     1
102
RTVSPropertyOp30
 70
     1
102
RTVSPropertyOp31
 70
     1
102
RTVSPropertyOp32
 70
     1
102
RTVSPropertyOp33
 70
     1
102
RTVSPropertyOp34
 70
     1
102
RTVSPropertyOp35
 70
     1
102
RTVSPropertyOp36
 70
     1
102
RTVSPropertyOp37
 70
     1
102
RTVSPropertyOp38
 70
     1
102
RTVSPropertyOp39
 70
     1
102
RTVSPropertyOp40
 70
     1
102
RTVSPropertyOp41
 70
     1
102
RTVSPropertyOp42
 70
     1
102
RTVSPropertyOp43
 70
     1
102
RTVSPropertyOp44
 70
     1
102
RTVSPropertyOp45
 70
     1
102
RTVSPropertyOp46
 70
     1
102
RTVSPropertyOp47
 70
     1
102
RTVSPropertyOp48
 70
     1
102
RTVSPropertyOp49
 70
     1
102
RTVSPropertyOp50
 70
     1
102
RTVSPropertyOp51
 70
     0
102
RTVSPropertyOp52
 70
     0
102
RTVSPropertyOp53
 70
     1
102
RTVSPropertyOp54
 70
     1
102
RTVSPropertyOp55
 70
     1
102
RTVSPropertyOp56
 70
     1
102
RTVSPropertyOp57
 70
     1
102
RTVSPost2010Prop28
280
     0
102
RTVSPost2010PropOp28
 70
     1
102
RTVSPost2010Prop29
280
     1
102
RTVSPost2010PropOp29
 70
     1
102
RTVSPost2010Prop30
280
     1
102
RTVSPost2010PropOp30
 70
     1
102
RTVSPost2010Prop31
280
     0
102
RTVSPost2010PropOp31
 70
     1
102
RTVSPost2010Prop32
280
     0
102
RTVSPost2010PropOp32
 70
     1
102
RTVSPost2010Prop33
280
     0
102
RTVSPost2010PropOp33
 70
     1
102
RTVSPost2010Prop34
280
     0
102
RTVSPost2010PropOp34
 70
     1
102
RTVSPost2010Prop35
280
     0
102
RTVSPost2010PropOp35
 70
     1
102
RTVSPost2010Prop36
280
     0
102
RTVSPost2010PropOp36
 70
     1
102
RTVSPost2010Prop37
 90
       50
102
RTVSPost2010PropOp37
 70
     1
102
RTVSPost2010Prop38
140
0.0
102
RTVSPost2010PropOp38
 70
     1
102
RTVSPost2010Prop39
140
1.0
102
RTVSPost2010PropOp39
 70
     1
102
RTVSPost2010Prop40
 90
        0
102
RTVSPost2010PropOp40
 70
     1
102
RTVSPost2010Prop41ColorIndex
 90
       18
102
RTVSPost2010Prop41ColorRGB
 90
        0
102
RTVSPost2010PropOp41
 70
     1
102
RTVSPost2010Prop42
 90
       50
102
RTVSPost2010PropOp42
 70
     1
102
RTVSPost2010Prop43
 90
        3
102
RTVSPost2010PropOp43
 70
     1
102
RTVSPost2010Prop44ColorIndex
 90
        5
102
RTVSPost2010Prop44ColorRGB
 90
      255
102
RTVSPost2010PropOp44
 70
     1
102
RTVSPost2010Prop45
280
     0
102
RTVSPost2010PropOp45
 70
     1
102
RTVSPost2010Prop46
 90
       50
102
RTVSPost2010PropOp46
 70
     1
102
RTVSPost2010Prop47
 90
       50
102
RTVSPost2010PropOp47
 70
     1
102
RTVSPost2010Prop48
 90
       50
102
RTVSPost2010PropOp48
 70
     1
102
RTVSPost2010Prop49
280
     0
102
RTVSPost2010PropOp49
 70
     1
102
RTVSPost2010Prop50
 90
       50
102
RTVSPost2010PropOp50
 70
     1
102
RTVSPost2010Prop51ColorIndex
 90
      256
102
RTVSPost2010Prop51ColorRGB
 90
-16777216
102
RTVSPost2010PropOp51
 70
     0
102
RTVSPost2010Prop52
140
1.0
102
RTVSPost2010PropOp52
 70
     0
102
RTVSPost2010Prop53
 90
        2
102
RTVSPost2010PropOp53
 70
     1
102
RTVSPost2010Prop54
  1
strokes_ogs.tif
102
RTVSPost2010PropOp54
 70
     1
102
RTVSPost2010Prop55
280
     0
102
RTVSPost2010PropOp55
 70
     1
102
RTVSPost2010Prop56
140
1.0
102
RTVSPost2010PropOp56
 70
     1
102
RTVSPost2010Prop57
140
1.0
102
RTVSPost2010PropOp57
 70
     1
  0
XRECORD
  5
298
102
{ACAD_REACTORS
330
297
102
}
330
297
100
AcDbXrecord
280
     1
102
RTVSPropertyOp0
 70
     1
102
RTVSPropertyOp1
 70
     1
102
RTVSPropertyOp2
 70
     1
102
RTVSPropertyOp3
 70
     1
102
RTVSPropertyOp4
 70
     1
102
RTVSPropertyOp5
 70
     1
102
RTVSPropertyOp6
 70
     1
102
RTVSPropertyOp7
 70
     1
102
RTVSPropertyOp8
 70
     1
102
RTVSPropertyOp9
 70
     1
102
RTVSPropertyOp10
 70
     1
102
RTVSPropertyOp11
 70
     1
102
RTVSPropertyOp12
 70
     1
102
RTVSPropertyOp13
 70
     1
102
RTVSPropertyOp14
 70
     1
102
RTVSPropertyOp15
 70
     1
102
RTVSPropertyOp16
 70
     1
102
RTVSPropertyOp17
 70
     1
102
RTVSPropertyOp18
 70
     1
102
RTVSPropertyOp19
 70
     1
102
RTVSPropertyOp20
 70
     1
102
RTVSPropertyOp21
 70
     1
102
RTVSPropertyOp22
 70
     1
102
RTVSPropertyOp23
 70
     1
102
RTVSPropertyOp24
 70
     1
102
RTVSPropertyOp25
 70
     1
102
RTVSPropertyOp26
 70
     1
102
RTVSPropertyOp27
 70
     1
102
RTVSPropertyOp28
 70
     1
102
RTVSPropertyOp29
 70
     1
102
RTVSPropertyOp30
 70
     1
102
RTVSPropertyOp31
 70
     1
102
RTVSPropertyOp32
 70
     1
102
RTVSPropertyOp33
 70
     1
102
RTVSPropertyOp34
 70
     1
102
RTVSPropertyOp35
 70
     1
102
RTVSPropertyOp36
 70
     1
102
RTVSPropertyOp37
 70
     1
102
RTVSPropertyOp38
 70
     1
102
RTVSPropertyOp39
 70
     1
102
RTVSPropertyOp40
 70
     1
102
RTVSPropertyOp41
 70
     1
102
RTVSPropertyOp42
 70
     1
102
RTVSPropertyOp43
 70
     1
102
RTVSPropertyOp44
 70
     1
102
RTVSPropertyOp45
 70
     1
102
RTVSPropertyOp46
 70
     1
102
RTVSPropertyOp47
 70
     1
102
RTVSPropertyOp48
 70
     1
102
RTVSPropertyOp49
 70
     1
102
RTVSPropertyOp50
 70
     1
102
RTVSPropertyOp51
 70
     0
102
RTVSPropertyOp52
 70
     0
102
RTVSPropertyOp53
 70
     1
102
RTVSPropertyOp54
 70
     1
102
RTVSPropertyOp55
 70
     1
102
RTVSPropertyOp56
 70
     1
102
RTVSPropertyOp57
 70
     1
102
RTVSPost2010Prop28
280
     0
102
RTVSPost2010PropOp28
 70
     1
102
RTVSPost2010Prop29
280
     1
102
RTVSPost2010PropOp29
 70
     1
102
RTVSPost2010Prop30
280
     1
102
RTVSPost2010PropOp30
 70
     1
102
RTVSPost2010Prop31
280
     0
102
RTVSPost2010PropOp31
 70
     1
102
RTVSPost2010Prop32
280
     0
102
RTVSPost2010PropOp32
 70
     1
102
RTVSPost2010Prop33
280
     0
102
RTVSPost2010PropOp33
 70
     1
102
RTVSPost2010Prop34
280
     0
102
RTVSPost2010PropOp34
 70
     1
102
RTVSPost2010Prop35
280
     0
102
RTVSPost2010PropOp35
 70
     1
102
RTVSPost2010Prop36
280
     0
102
RTVSPost2010PropOp36
 70
     1
102
RTVSPost2010Prop37
 90
       50
102
RTVSPost2010PropOp37
 70
     1
102
RTVSPost2010Prop38
140
0.0
102
RTVSPost2010PropOp38
 70
     1
102
RTVSPost2010Prop39
140
1.0
102
RTVSPost2010PropOp39
 70
     1
102
RTVSPost2010Prop40
 90
        0
102
RTVSPost2010PropOp40
 70
     1
102
RTVSPost2010Prop41ColorIndex
 90
       18
102
RTVSPost2010Prop41ColorRGB
 90
        0
102
RTVSPost2010PropOp41
 70
     1
102
RTVSPost2010Prop42
 90
       50
102
RTVSPost2010PropOp42
 70
     1
102
RTVSPost2010Prop43
 90
        3
102
RTVSPost2010PropOp43
 70
     1
102
RTVSPost2010Prop44ColorIndex
 90
        5
102
RTVSPost2010Prop44ColorRGB
 90
      255
102
RTVSPost2010PropOp44
 70
     1
102
RTVSPost2010Prop45
280
     0
102
RTVSPost2010PropOp45
 70
     1
102
RTVSPost2010Prop46
 90
       50
102
RTVSPost2010PropOp46
 70
     1
102
RTVSPost2010Prop47
 90
       50
102
RTVSPost2010PropOp47
 70
     1
102
RTVSPost2010Prop48
 90
       50
102
RTVSPost2010PropOp48
 70
     1
102
RTVSPost2010Prop49
280
     0
102
RTVSPost2010PropOp49
 70
     1
102
RTVSPost2010Prop50
 90
       50
102
RTVSPost2010PropOp50
 70
     1
102
RTVSPost2010Prop51ColorIndex
 90
      256
102
RTVSPost2010Prop51ColorRGB
 90
-16777216
102
RTVSPost2010PropOp51
 70
     0
102
RTVSPost2010Prop52
140
1.0
102
RTVSPost2010PropOp52
 70
     0
102
RTVSPost2010Prop53
 90
        2
102
RTVSPost2010PropOp53
 70
     1
102
RTVSPost2010Prop54
  1
strokes_ogs.tif
102
RTVSPost2010PropOp54
 70
     1
102
RTVSPost2010Prop55
280
     0
102
RTVSPost2010PropOp55
 70
     1
102
RTVSPost2010Prop56
140
1.0
102
RTVSPost2010PropOp56
 70
     1
102
RTVSPost2010Prop57
140
1.0
102
RTVSPost2010PropOp57
 70
     1
  0
XRECORD
  5
2AC
102
{ACAD_REACTORS
330
2AB
102
}
330
2AB
100
AcDbXrecord
280
     1
102
RTVSPropertyOp0
 70
     0
102
RTVSPropertyOp1
 70
     0
102
RTVSPropertyOp2
 70
     0
102
RTVSPropertyOp3
 70
     0
102
RTVSPropertyOp4
 70
     0
102
RTVSPropertyOp5
 70
     0
102
RTVSPropertyOp6
 70
     0
102
RTVSPropertyOp7
 70
     0
102
RTVSPropertyOp8
 70
     0
102
RTVSPropertyOp9
 70
     0
102
RTVSPropertyOp10
 70
     0
102
RTVSPropertyOp11
 70
     0
102
RTVSPropertyOp12
 70
     0
102
RTVSPropertyOp13
 70
     0
102
RTVSPropertyOp14
 70
     2
102
RTVSPropertyOp15
 70
     0
102
RTVSPropertyOp16
 70
     0
102
RTVSPropertyOp17
 70
     0
102
RTVSPropertyOp18
 70
     0
102
RTVSPropertyOp19
 70
     0
102
RTVSPropertyOp20
 70
     0
102
RTVSPropertyOp21
 70
     0
102
RTVSPropertyOp22
 70
     0
102
RTVSPropertyOp23
 70
     0
102
RTVSPropertyOp24
 70
     0
102
RTVSPropertyOp25
 70
     0
102
RTVSPropertyOp26
 70
     0
102
RTVSPropertyOp27
 70
     0
102
RTVSPropertyOp28
 70
     0
102
RTVSPropertyOp29
 70
     0
102
RTVSPropertyOp30
 70
     0
102
RTVSPropertyOp31
 70
     0
102
RTVSPropertyOp32
 70
     0
102
RTVSPropertyOp33
 70
     0
102
RTVSPropertyOp34
 70
     0
102
RTVSPropertyOp35
 70
     0
102
RTVSPropertyOp36
 70
     0
102
RTVSPropertyOp37
 70
     0
102
RTVSPropertyOp38
 70
     0
102
RTVSPropertyOp39
 70
     0
102
RTVSPropertyOp40
 70
     0
102
RTVSPropertyOp41
 70
     0
102
RTVSPropertyOp42
 70
     0
102
RTVSPropertyOp43
 70
     0
102
RTVSPropertyOp44
 70
     0
102
RTVSPropertyOp45
 70
     0
102
RTVSPropertyOp46
 70
     0
102
RTVSPropertyOp47
 70
     0
102
RTVSPropertyOp48
 70
     0
102
RTVSPropertyOp49
 70
     0
102
RTVSPropertyOp50
 70
     0
102
RTVSPropertyOp51
 70
     0
102
RTVSPropertyOp52
 70
     0
102
RTVSPropertyOp53
 70
     0
102
RTVSPropertyOp54
 70
     0
102
RTVSPropertyOp55
 70
     0
102
RTVSPropertyOp56
 70
     0
102
RTVSPropertyOp57
 70
     0
102
RTVSPost2010Prop28
280
     0
102
RTVSPost2010PropOp28
 70
     0
102
RTVSPost2010Prop29
280
     1
102
RTVSPost2010PropOp29
 70
     0
102
RTVSPost2010Prop30
280
     1
102
RTVSPost2010PropOp30
 70
     0
102
RTVSPost2010Prop31
280
     0
102
RTVSPost2010PropOp31
 70
     0
102
RTVSPost2010Prop32
280
     0
102
RTVSPost2010PropOp32
 70
     0
102
RTVSPost2010Prop33
280
     0
102
RTVSPost2010PropOp33
 70
     0
102
RTVSPost2010Prop34
280
     0
102
RTVSPost2010PropOp34
 70
     0
102
RTVSPost2010Prop35
280
     0
102
RTVSPost2010PropOp35
 70
     0
102
RTVSPost2010Prop36
280
     0
102
RTVSPost2010PropOp36
 70
     0
102
RTVSPost2010Prop37
 90
       50
102
RTVSPost2010PropOp37
 70
     0
102
RTVSPost2010Prop38
140
0.0
102
RTVSPost2010PropOp38
 70
     0
102
RTVSPost2010Prop39
140
1.0
102
RTVSPost2010PropOp39
 70
     0
102
RTVSPost2010Prop40
 90
        0
102
RTVSPost2010PropOp40
 70
     0
102
RTVSPost2010Prop41ColorIndex
 90
       18
102
RTVSPost2010Prop41ColorRGB
 90
        0
102
RTVSPost2010PropOp41
 70
     0
102
RTVSPost2010Prop42
 90
       50
102
RTVSPost2010PropOp42
 70
     0
102
RTVSPost2010Prop43
 90
        3
102
RTVSPost2010PropOp43
 70
     0
102
RTVSPost2010Prop44ColorIndex
 90
        5
102
RTVSPost2010Prop44ColorRGB
 90
      255
102
RTVSPost2010PropOp44
 70
     0
102
RTVSPost2010Prop45
280
     0
102
RTVSPost2010PropOp45
 70
     0
102
RTVSPost2010Prop46
 90
       50
102
RTVSPost2010PropOp46
 70
     0
102
RTVSPost2010Prop47
 90
       50
102
RTVSPost2010PropOp47
 70
     0
102
RTVSPost2010Prop48
 90
       50
102
RTVSPost2010PropOp48
 70
     0
102
RTVSPost2010Prop49
280
     0
102
RTVSPost2010PropOp49
 70
     0
102
RTVSPost2010Prop50
 90
       50
102
RTVSPost2010PropOp50
 70
     0
102
RTVSPost2010Prop51ColorIndex
 90
      256
102
RTVSPost2010Prop51ColorRGB
 90
-16777216
102
RTVSPost2010PropOp51
 70
     0
102
RTVSPost2010Prop52
140
1.0
102
RTVSPost2010PropOp52
 70
     0
102
RTVSPost2010Prop53
 90
        2
102
RTVSPost2010PropOp53
 70
     0
102
RTVSPost2010Prop54
  1
strokes_ogs.tif
102
RTVSPost2010PropOp54
 70
     0
102
RTVSPost2010Prop55
280
     0
102
RTVSPost2010PropOp55
 70
     0
102
RTVSPost2010Prop56
140
1.0
102
RTVSPost2010PropOp56
 70
     0
102
RTVSPost2010Prop57
140
1.0
102
RTVSPost2010PropOp57
 70
     0
  0
XRECORD
  5
2A6
102
{ACAD_REACTORS
330
2A5
102
}
330
2A5
100
AcDbXrecord
280
     1
102
RTVSPropertyOp0
 70
     1
102
RTVSPropertyOp1
 70
     1
102
RTVSPropertyOp2
 70
     1
102
RTVSPropertyOp3
 70
     1
102
RTVSPropertyOp4
 70
     1
102
RTVSPropertyOp5
 70
     1
102
RTVSPropertyOp6
 70
     1
102
RTVSPropertyOp7
 70
     1
102
RTVSPropertyOp8
 70
     1
102
RTVSPropertyOp9
 70
     1
102
RTVSPropertyOp10
 70
     1
102
RTVSPropertyOp11
 70
     1
102
RTVSPropertyOp12
 70
     1
102
RTVSPropertyOp13
 70
     1
102
RTVSPropertyOp14
 70
     1
102
RTVSPropertyOp15
 70
     1
102
RTVSPropertyOp16
 70
     1
102
RTVSPropertyOp17
 70
     1
102
RTVSPropertyOp18
 70
     1
102
RTVSPropertyOp19
 70
     1
102
RTVSPropertyOp20
 70
     1
102
RTVSPropertyOp21
 70
     1
102
RTVSPropertyOp22
 70
     1
102
RTVSPropertyOp23
 70
     1
102
RTVSPropertyOp24
 70
     1
102
RTVSPropertyOp25
 70
     1
102
RTVSPropertyOp26
 70
     1
102
RTVSPropertyOp27
 70
     1
102
RTVSPropertyOp28
 70
     1
102
RTVSPropertyOp29
 70
     1
102
RTVSPropertyOp30
 70
     1
102
RTVSPropertyOp31
 70
     1
102
RTVSPropertyOp32
 70
     1
102
RTVSPropertyOp33
 70
     1
102
RTVSPropertyOp34
 70
     1
102
RTVSPropertyOp35
 70
     1
102
RTVSPropertyOp36
 70
     1
102
RTVSPropertyOp37
 70
     1
102
RTVSPropertyOp38
 70
     1
102
RTVSPropertyOp39
 70
     1
102
RTVSPropertyOp40
 70
     1
102
RTVSPropertyOp41
 70
     1
102
RTVSPropertyOp42
 70
     1
102
RTVSPropertyOp43
 70
     1
102
RTVSPropertyOp44
 70
     1
102
RTVSPropertyOp45
 70
     1
102
RTVSPropertyOp46
 70
     1
102
RTVSPropertyOp47
 70
     1
102
RTVSPropertyOp48
 70
     1
102
RTVSPropertyOp49
 70
     1
102
RTVSPropertyOp50
 70
     1
102
RTVSPropertyOp51
 70
     0
102
RTVSPropertyOp52
 70
     0
102
RTVSPropertyOp53
 70
     1
102
RTVSPropertyOp54
 70
     1
102
RTVSPropertyOp55
 70
     1
102
RTVSPropertyOp56
 70
     1
102
RTVSPropertyOp57
 70
     1
102
RTVSPost2010Prop28
280
     0
102
RTVSPost2010PropOp28
 70
     1
102
RTVSPost2010Prop29
280
     1
102
RTVSPost2010PropOp29
 70
     1
102
RTVSPost2010Prop30
280
     1
102
RTVSPost2010PropOp30
 70
     1
102
RTVSPost2010Prop31
280
     0
102
RTVSPost2010PropOp31
 70
     1
102
RTVSPost2010Prop32
280
     0
102
RTVSPost2010PropOp32
 70
     1
102
RTVSPost2010Prop33
280
     0
102
RTVSPost2010PropOp33
 70
     1
102
RTVSPost2010Prop34
280
     0
102
RTVSPost2010PropOp34
 70
     1
102
RTVSPost2010Prop35
280
     0
102
RTVSPost2010PropOp35
 70
     1
102
RTVSPost2010Prop36
280
     0
102
RTVSPost2010PropOp36
 70
     1
102
RTVSPost2010Prop37
 90
       50
102
RTVSPost2010PropOp37
 70
     1
102
RTVSPost2010Prop38
140
0.0
102
RTVSPost2010PropOp38
 70
     1
102
RTVSPost2010Prop39
140
1.0
102
RTVSPost2010PropOp39
 70
     1
102
RTVSPost2010Prop40
 90
        0
102
RTVSPost2010PropOp40
 70
     1
102
RTVSPost2010Prop41ColorIndex
 90
       18
102
RTVSPost2010Prop41ColorRGB
 90
        0
102
RTVSPost2010PropOp41
 70
     1
102
RTVSPost2010Prop42
 90
       50
102
RTVSPost2010PropOp42
 70
     1
102
RTVSPost2010Prop43
 90
        3
102
RTVSPost2010PropOp43
 70
     1
102
RTVSPost2010Prop44ColorIndex
 90
        5
102
RTVSPost2010Prop44ColorRGB
 90
      255
102
RTVSPost2010PropOp44
 70
     1
102
RTVSPost2010Prop45
280
     0
102
RTVSPost2010PropOp45
 70
     1
102
RTVSPost2010Prop46
 90
       50
102
RTVSPost2010PropOp46
 70
     1
102
RTVSPost2010Prop47
 90
       50
102
RTVSPost2010PropOp47
 70
     1
102
RTVSPost2010Prop48
 90
       50
102
RTVSPost2010PropOp48
 70
     1
102
RTVSPost2010Prop49
280
     0
102
RTVSPost2010PropOp49
 70
     1
102
RTVSPost2010Prop50
 90
       50
102
RTVSPost2010PropOp50
 70
     1
102
RTVSPost2010Prop51ColorIndex
 90
      256
102
RTVSPost2010Prop51ColorRGB
 90
-16777216
102
RTVSPost2010PropOp51
 70
     0
102
RTVSPost2010Prop52
140
1.0
102
RTVSPost2010PropOp52
 70
     0
102
RTVSPost2010Prop53
 90
        2
102
RTVSPost2010PropOp53
 70
     1
102
RTVSPost2010Prop54
  1
strokes_ogs.tif
102
RTVSPost2010PropOp54
 70
     1
102
RTVSPost2010Prop55
280
     0
102
RTVSPost2010PropOp55
 70
     1
102
RTVSPost2010Prop56
140
1.0
102
RTVSPost2010PropOp56
 70
     1
102
RTVSPost2010Prop57
140
1.0
102
RTVSPost2010PropOp57
 70
     1
  0
XRECORD
  5
2AE
102
{ACAD_REACTORS
330
2AD
102
}
330
2AD
100
AcDbXrecord
280
     1
102
RTVSPropertyOp0
 70
     0
102
RTVSPropertyOp1
 70
     0
102
RTVSPropertyOp2
 70
     0
102
RTVSPropertyOp3
 70
     0
102
RTVSPropertyOp4
 70
     0
102
RTVSPropertyOp5
 70
     0
102
RTVSPropertyOp6
 70
     0
102
RTVSPropertyOp7
 70
     0
102
RTVSPropertyOp8
 70
     0
102
RTVSPropertyOp9
 70
     0
102
RTVSPropertyOp10
 70
     0
102
RTVSPropertyOp11
 70
     0
102
RTVSPropertyOp12
 70
     0
102
RTVSPropertyOp13
 70
     0
102
RTVSPropertyOp14
 70
     2
102
RTVSPropertyOp15
 70
     0
102
RTVSPropertyOp16
 70
     0
102
RTVSPropertyOp17
 70
     0
102
RTVSPropertyOp18
 70
     0
102
RTVSPropertyOp19
 70
     0
102
RTVSPropertyOp20
 70
     0
102
RTVSPropertyOp21
 70
     0
102
RTVSPropertyOp22
 70
     0
102
RTVSPropertyOp23
 70
     0
102
RTVSPropertyOp24
 70
     0
102
RTVSPropertyOp25
 70
     0
102
RTVSPropertyOp26
 70
     0
102
RTVSPropertyOp27
 70
     0
102
RTVSPropertyOp28
 70
     0
102
RTVSPropertyOp29
 70
     0
102
RTVSPropertyOp30
 70
     0
102
RTVSPropertyOp31
 70
     0
102
RTVSPropertyOp32
 70
     0
102
RTVSPropertyOp33
 70
     0
102
RTVSPropertyOp34
 70
     0
102
RTVSPropertyOp35
 70
     0
102
RTVSPropertyOp36
 70
     0
102
RTVSPropertyOp37
 70
     0
102
RTVSPropertyOp38
 70
     0
102
RTVSPropertyOp39
 70
     0
102
RTVSPropertyOp40
 70
     0
102
RTVSPropertyOp41
 70
     0
102
RTVSPropertyOp42
 70
     0
102
RTVSPropertyOp43
 70
     0
102
RTVSPropertyOp44
 70
     0
102
RTVSPropertyOp45
 70
     0
102
RTVSPropertyOp46
 70
     0
102
RTVSPropertyOp47
 70
     0
102
RTVSPropertyOp48
 70
     0
102
RTVSPropertyOp49
 70
     0
102
RTVSPropertyOp50
 70
     0
102
RTVSPropertyOp51
 70
     0
102
RTVSPropertyOp52
 70
     0
102
RTVSPropertyOp53
 70
     0
102
RTVSPropertyOp54
 70
     0
102
RTVSPropertyOp55
 70
     0
102
RTVSPropertyOp56
 70
     0
102
RTVSPropertyOp57
 70
     0
102
RTVSPost2010Prop28
280
     0
102
RTVSPost2010PropOp28
 70
     0
102
RTVSPost2010Prop29
280
     1
102
RTVSPost2010PropOp29
 70
     0
102
RTVSPost2010Prop30
280
     1
102
RTVSPost2010PropOp30
 70
     0
102
RTVSPost2010Prop31
280
     0
102
RTVSPost2010PropOp31
 70
     0
102
RTVSPost2010Prop32
280
     0
102
RTVSPost2010PropOp32
 70
     0
102
RTVSPost2010Prop33
280
     0
102
RTVSPost2010PropOp33
 70
     0
102
RTVSPost2010Prop34
280
     0
102
RTVSPost2010PropOp34
 70
     0
102
RTVSPost2010Prop35
280
     0
102
RTVSPost2010PropOp35
 70
     0
102
RTVSPost2010Prop36
280
     0
102
RTVSPost2010PropOp36
 70
     0
102
RTVSPost2010Prop37
 90
       50
102
RTVSPost2010PropOp37
 70
     0
102
RTVSPost2010Prop38
140
0.0
102
RTVSPost2010PropOp38
 70
     0
102
RTVSPost2010Prop39
140
1.0
102
RTVSPost2010PropOp39
 70
     0
102
RTVSPost2010Prop40
 90
        0
102
RTVSPost2010PropOp40
 70
     0
102
RTVSPost2010Prop41ColorIndex
 90
       18
102
RTVSPost2010Prop41ColorRGB
 90
        0
102
RTVSPost2010PropOp41
 70
     0
102
RTVSPost2010Prop42
 90
       50
102
RTVSPost2010PropOp42
 70
     0
102
RTVSPost2010Prop43
 90
        3
102
RTVSPost2010PropOp43
 70
     0
102
RTVSPost2010Prop44ColorIndex
 90
        5
102
RTVSPost2010Prop44ColorRGB
 90
      255
102
RTVSPost2010PropOp44
 70
     0
102
RTVSPost2010Prop45
280
     0
102
RTVSPost2010PropOp45
 70
     0
102
RTVSPost2010Prop46
 90
       50
102
RTVSPost2010PropOp46
 70
     0
102
RTVSPost2010Prop47
 90
       50
102
RTVSPost2010PropOp47
 70
     0
102
RTVSPost2010Prop48
 90
       50
102
RTVSPost2010PropOp48
 70
     0
102
RTVSPost2010Prop49
280
     0
102
RTVSPost2010PropOp49
 70
     0
102
RTVSPost2010Prop50
 90
       50
102
RTVSPost2010PropOp50
 70
     0
102
RTVSPost2010Prop51ColorIndex
 90
      256
102
RTVSPost2010Prop51ColorRGB
 90
-16777216
102
RTVSPost2010PropOp51
 70
     0
102
RTVSPost2010Prop52
140
1.0
102
RTVSPost2010PropOp52
 70
     0
102
RTVSPost2010Prop53
 90
        2
102
RTVSPost2010PropOp53
 70
     0
102
RTVSPost2010Prop54
  1
strokes_ogs.tif
102
RTVSPost2010PropOp54
 70
     0
102
RTVSPost2010Prop55
280
     0
102
RTVSPost2010PropOp55
 70
     0
102
RTVSPost2010Prop56
140
1.0
102
RTVSPost2010PropOp56
 70
     0
102
RTVSPost2010Prop57
140
1.0
102
RTVSPost2010PropOp57
 70
     0
  0
XRECORD
  5
29C
102
{ACAD_REACTORS
330
29B
102
}
330
29B
100
AcDbXrecord
280
     1
102
RTVSPropertyOp0
 70
     1
102
RTVSPropertyOp1
 70
     1
102
RTVSPropertyOp2
 70
     1
102
RTVSPropertyOp3
 70
     1
102
RTVSPropertyOp4
 70
     1
102
RTVSPropertyOp5
 70
     1
102
RTVSPropertyOp6
 70
     1
102
RTVSPropertyOp7
 70
     1
102
RTVSPropertyOp8
 70
     1
102
RTVSPropertyOp9
 70
     1
102
RTVSPropertyOp10
 70
     1
102
RTVSPropertyOp11
 70
     1
102
RTVSPropertyOp12
 70
     1
102
RTVSPropertyOp13
 70
     1
102
RTVSPropertyOp14
 70
     1
102
RTVSPropertyOp15
 70
     1
102
RTVSPropertyOp16
 70
     1
102
RTVSPropertyOp17
 70
     1
102
RTVSPropertyOp18
 70
     1
102
RTVSPropertyOp19
 70
     1
102
RTVSPropertyOp20
 70
     1
102
RTVSPropertyOp21
 70
     1
102
RTVSPropertyOp22
 70
     1
102
RTVSPropertyOp23
 70
     1
102
RTVSPropertyOp24
 70
     1
102
RTVSPropertyOp25
 70
     1
102
RTVSPropertyOp26
 70
     1
102
RTVSPropertyOp27
 70
     1
102
RTVSPropertyOp28
 70
     1
102
RTVSPropertyOp29
 70
     1
102
RTVSPropertyOp30
 70
     1
102
RTVSPropertyOp31
 70
     1
102
RTVSPropertyOp32
 70
     1
102
RTVSPropertyOp33
 70
     1
102
RTVSPropertyOp34
 70
     1
102
RTVSPropertyOp35
 70
     1
102
RTVSPropertyOp36
 70
     1
102
RTVSPropertyOp37
 70
     1
102
RTVSPropertyOp38
 70
     1
102
RTVSPropertyOp39
 70
     1
102
RTVSPropertyOp40
 70
     1
102
RTVSPropertyOp41
 70
     1
102
RTVSPropertyOp42
 70
     1
102
RTVSPropertyOp43
 70
     1
102
RTVSPropertyOp44
 70
     1
102
RTVSPropertyOp45
 70
     1
102
RTVSPropertyOp46
 70
     1
102
RTVSPropertyOp47
 70
     1
102
RTVSPropertyOp48
 70
     1
102
RTVSPropertyOp49
 70
     1
102
RTVSPropertyOp50
 70
     1
102
RTVSPropertyOp51
 70
     0
102
RTVSPropertyOp52
 70
     0
102
RTVSPropertyOp53
 70
     1
102
RTVSPropertyOp54
 70
     1
102
RTVSPropertyOp55
 70
     1
102
RTVSPropertyOp56
 70
     1
102
RTVSPropertyOp57
 70
     1
102
RTVSPost2010Prop28
280
     0
102
RTVSPost2010PropOp28
 70
     1
102
RTVSPost2010Prop29
280
     1
102
RTVSPost2010PropOp29
 70
     1
102
RTVSPost2010Prop30
280
     1
102
RTVSPost2010PropOp30
 70
     1
102
RTVSPost2010Prop31
280
     0
102
RTVSPost2010PropOp31
 70
     1
102
RTVSPost2010Prop32
280
     0
102
RTVSPost2010PropOp32
 70
     1
102
RTVSPost2010Prop33
280
     0
102
RTVSPost2010PropOp33
 70
     1
102
RTVSPost2010Prop34
280
     0
102
RTVSPost2010PropOp34
 70
     1
102
RTVSPost2010Prop35
280
     0
102
RTVSPost2010PropOp35
 70
     1
102
RTVSPost2010Prop36
280
     0
102
RTVSPost2010PropOp36
 70
     1
102
RTVSPost2010Prop37
 90
       50
102
RTVSPost2010PropOp37
 70
     1
102
RTVSPost2010Prop38
140
0.0
102
RTVSPost2010PropOp38
 70
     1
102
RTVSPost2010Prop39
140
1.0
102
RTVSPost2010PropOp39
 70
     1
102
RTVSPost2010Prop40
 90
        0
102
RTVSPost2010PropOp40
 70
     1
102
RTVSPost2010Prop41ColorIndex
 90
       18
102
RTVSPost2010Prop41ColorRGB
 90
        0
102
RTVSPost2010PropOp41
 70
     1
102
RTVSPost2010Prop42
 90
       50
102
RTVSPost2010PropOp42
 70
     1
102
RTVSPost2010Prop43
 90
        3
102
RTVSPost2010PropOp43
 70
     1
102
RTVSPost2010Prop44ColorIndex
 90
        5
102
RTVSPost2010Prop44ColorRGB
 90
      255
102
RTVSPost2010PropOp44
 70
     1
102
RTVSPost2010Prop45
280
     0
102
RTVSPost2010PropOp45
 70
     1
102
RTVSPost2010Prop46
 90
       50
102
RTVSPost2010PropOp46
 70
     1
102
RTVSPost2010Prop47
 90
       50
102
RTVSPost2010PropOp47
 70
     1
102
RTVSPost2010Prop48
 90
       50
102
RTVSPost2010PropOp48
 70
     1
102
RTVSPost2010Prop49
280
     0
102
RTVSPost2010PropOp49
 70
     1
102
RTVSPost2010Prop50
 90
       50
102
RTVSPost2010PropOp50
 70
     1
102
RTVSPost2010Prop51ColorIndex
 90
      256
102
RTVSPost2010Prop51ColorRGB
 90
-16777216
102
RTVSPost2010PropOp51
 70
     0
102
RTVSPost2010Prop52
140
1.0
102
RTVSPost2010PropOp52
 70
     0
102
RTVSPost2010Prop53
 90
        2
102
RTVSPost2010PropOp53
 70
     1
102
RTVSPost2010Prop54
  1
strokes_ogs.tif
102
RTVSPost2010PropOp54
 70
     1
102
RTVSPost2010Prop55
280
     0
102
RTVSPost2010PropOp55
 70
     1
102
RTVSPost2010Prop56
140
1.0
102
RTVSPost2010PropOp56
 70
     1
102
RTVSPost2010Prop57
140
1.0
102
RTVSPost2010PropOp57
 70
     1
  0
XRECORD
  5
2BA
102
{ACAD_REACTORS
330
2B9
102
}
330
2B9
100
AcDbXrecord
280
     1
102
RTVSPropertyOp0
 70
     1
102
RTVSPropertyOp1
 70
     1
102
RTVSPropertyOp2
 70
     1
102
RTVSPropertyOp3
 70
     1
102
RTVSPropertyOp4
 70
     1
102
RTVSPropertyOp5
 70
     1
102
RTVSPropertyOp6
 70
     1
102
RTVSPropertyOp7
 70
     1
102
RTVSPropertyOp8
 70
     1
102
RTVSPropertyOp9
 70
     1
102
RTVSPropertyOp10
 70
     1
102
RTVSPropertyOp11
 70
     1
102
RTVSPropertyOp12
 70
     1
102
RTVSPropertyOp13
 70
     1
102
RTVSPropertyOp14
 70
     1
102
RTVSPropertyOp15
 70
     1
102
RTVSPropertyOp16
 70
     1
102
RTVSPropertyOp17
 70
     1
102
RTVSPropertyOp18
 70
     1
102
RTVSPropertyOp19
 70
     1
102
RTVSPropertyOp20
 70
     1
102
RTVSPropertyOp21
 70
     1
102
RTVSPropertyOp22
 70
     1
102
RTVSPropertyOp23
 70
     1
102
RTVSPropertyOp24
 70
     1
102
RTVSPropertyOp25
 70
     1
102
RTVSPropertyOp26
 70
     1
102
RTVSPropertyOp27
 70
     1
102
RTVSPropertyOp28
 70
     1
102
RTVSPropertyOp29
 70
     1
102
RTVSPropertyOp30
 70
     1
102
RTVSPropertyOp31
 70
     1
102
RTVSPropertyOp32
 70
     1
102
RTVSPropertyOp33
 70
     1
102
RTVSPropertyOp34
 70
     1
102
RTVSPropertyOp35
 70
     1
102
RTVSPropertyOp36
 70
     1
102
RTVSPropertyOp37
 70
     1
102
RTVSPropertyOp38
 70
     1
102
RTVSPropertyOp39
 70
     1
102
RTVSPropertyOp40
 70
     1
102
RTVSPropertyOp41
 70
     1
102
RTVSPropertyOp42
 70
     1
102
RTVSPropertyOp43
 70
     1
102
RTVSPropertyOp44
 70
     1
102
RTVSPropertyOp45
 70
     1
102
RTVSPropertyOp46
 70
     1
102
RTVSPropertyOp47
 70
     1
102
RTVSPropertyOp48
 70
     1
102
RTVSPropertyOp49
 70
     1
102
RTVSPropertyOp50
 70
     1
102
RTVSPropertyOp51
 70
     0
102
RTVSPropertyOp52
 70
     0
102
RTVSPropertyOp53
 70
     1
102
RTVSPropertyOp54
 70
     1
102
RTVSPropertyOp55
 70
     1
102
RTVSPropertyOp56
 70
     1
102
RTVSPropertyOp57
 70
     1
102
RTVSPost2010Prop28
280
     0
102
RTVSPost2010PropOp28
 70
     1
102
RTVSPost2010Prop29
280
     1
102
RTVSPost2010PropOp29
 70
     1
102
RTVSPost2010Prop30
280
     1
102
RTVSPost2010PropOp30
 70
     1
102
RTVSPost2010Prop31
280
     0
102
RTVSPost2010PropOp31
 70
     1
102
RTVSPost2010Prop32
280
     0
102
RTVSPost2010PropOp32
 70
     1
102
RTVSPost2010Prop33
280
     0
102
RTVSPost2010PropOp33
 70
     1
102
RTVSPost2010Prop34
280
     0
102
RTVSPost2010PropOp34
 70
     1
102
RTVSPost2010Prop35
280
     0
102
RTVSPost2010PropOp35
 70
     1
102
RTVSPost2010Prop36
280
     0
102
RTVSPost2010PropOp36
 70
     1
102
RTVSPost2010Prop37
 90
       50
102
RTVSPost2010PropOp37
 70
     1
102
RTVSPost2010Prop38
140
0.0
102
RTVSPost2010PropOp38
 70
     1
102
RTVSPost2010Prop39
140
1.0
102
RTVSPost2010PropOp39
 70
     1
102
RTVSPost2010Prop40
 90
        0
102
RTVSPost2010PropOp40
 70
     1
102
RTVSPost2010Prop41ColorIndex
 90
       18
102
RTVSPost2010Prop41ColorRGB
 90
        0
102
RTVSPost2010PropOp41
 70
     1
102
RTVSPost2010Prop42
 90
       50
102
RTVSPost2010PropOp42
 70
     1
102
RTVSPost2010Prop43
 90
        3
102
RTVSPost2010PropOp43
 70
     1
102
RTVSPost2010Prop44ColorIndex
 90
        5
102
RTVSPost2010Prop44ColorRGB
 90
      255
102
RTVSPost2010PropOp44
 70
     1
102
RTVSPost2010Prop45
280
     0
102
RTVSPost2010PropOp45
 70
     1
102
RTVSPost2010Prop46
 90
       50
102
RTVSPost2010PropOp46
 70
     1
102
RTVSPost2010Prop47
 90
       50
102
RTVSPost2010PropOp47
 70
     1
102
RTVSPost2010Prop48
 90
       50
102
RTVSPost2010PropOp48
 70
     1
102
RTVSPost2010Prop49
280
     0
102
RTVSPost2010PropOp49
 70
     1
102
RTVSPost2010Prop50
 90
       50
102
RTVSPost2010PropOp50
 70
     1
102
RTVSPost2010Prop51ColorIndex
 90
      256
102
RTVSPost2010Prop51ColorRGB
 90
-16777216
102
RTVSPost2010PropOp51
 70
     0
102
RTVSPost2010Prop52
140
1.0
102
RTVSPost2010PropOp52
 70
     0
102
RTVSPost2010Prop53
 90
        2
102
RTVSPost2010PropOp53
 70
     1
102
RTVSPost2010Prop54
  1
strokes_ogs.tif
102
RTVSPost2010PropOp54
 70
     1
102
RTVSPost2010Prop55
280
     0
102
RTVSPost2010PropOp55
 70
     1
102
RTVSPost2010Prop56
140
1.0
102
RTVSPost2010PropOp56
 70
     1
102
RTVSPost2010Prop57
140
1.0
102
RTVSPost2010PropOp57
 70
     1
  0
XRECORD
  5
2B8
102
{ACAD_REACTORS
330
2B7
102
}
330
2B7
100
AcDbXrecord
280
     1
102
RTVSPropertyOp0
 70
     1
102
RTVSPropertyOp1
 70
     1
102
RTVSPropertyOp2
 70
     1
102
RTVSPropertyOp3
 70
     1
102
RTVSPropertyOp4
 70
     1
102
RTVSPropertyOp5
 70
     1
102
RTVSPropertyOp6
 70
     1
102
RTVSPropertyOp7
 70
     1
102
RTVSPropertyOp8
 70
     1
102
RTVSPropertyOp9
 70
     1
102
RTVSPropertyOp10
 70
     1
102
RTVSPropertyOp11
 70
     1
102
RTVSPropertyOp12
 70
     1
102
RTVSPropertyOp13
 70
     1
102
RTVSPropertyOp14
 70
     1
102
RTVSPropertyOp15
 70
     1
102
RTVSPropertyOp16
 70
     1
102
RTVSPropertyOp17
 70
     1
102
RTVSPropertyOp18
 70
     1
102
RTVSPropertyOp19
 70
     1
102
RTVSPropertyOp20
 70
     1
102
RTVSPropertyOp21
 70
     1
102
RTVSPropertyOp22
 70
     1
102
RTVSPropertyOp23
 70
     1
102
RTVSPropertyOp24
 70
     1
102
RTVSPropertyOp25
 70
     1
102
RTVSPropertyOp26
 70
     1
102
RTVSPropertyOp27
 70
     1
102
RTVSPropertyOp28
 70
     1
102
RTVSPropertyOp29
 70
     1
102
RTVSPropertyOp30
 70
     1
102
RTVSPropertyOp31
 70
     1
102
RTVSPropertyOp32
 70
     1
102
RTVSPropertyOp33
 70
     1
102
RTVSPropertyOp34
 70
     1
102
RTVSPropertyOp35
 70
     1
102
RTVSPropertyOp36
 70
     1
102
RTVSPropertyOp37
 70
     1
102
RTVSPropertyOp38
 70
     1
102
RTVSPropertyOp39
 70
     1
102
RTVSPropertyOp40
 70
     1
102
RTVSPropertyOp41
 70
     1
102
RTVSPropertyOp42
 70
     1
102
RTVSPropertyOp43
 70
     1
102
RTVSPropertyOp44
 70
     1
102
RTVSPropertyOp45
 70
     1
102
RTVSPropertyOp46
 70
     1
102
RTVSPropertyOp47
 70
     1
102
RTVSPropertyOp48
 70
     1
102
RTVSPropertyOp49
 70
     1
102
RTVSPropertyOp50
 70
     1
102
RTVSPropertyOp51
 70
     0
102
RTVSPropertyOp52
 70
     0
102
RTVSPropertyOp53
 70
     1
102
RTVSPropertyOp54
 70
     1
102
RTVSPropertyOp55
 70
     1
102
RTVSPropertyOp56
 70
     1
102
RTVSPropertyOp57
 70
     1
102
RTVSPost2010Prop28
280
     0
102
RTVSPost2010PropOp28
 70
     1
102
RTVSPost2010Prop29
280
     1
102
RTVSPost2010PropOp29
 70
     1
102
RTVSPost2010Prop30
280
     1
102
RTVSPost2010PropOp30
 70
     1
102
RTVSPost2010Prop31
280
     0
102
RTVSPost2010PropOp31
 70
     1
102
RTVSPost2010Prop32
280
     0
102
RTVSPost2010PropOp32
 70
     1
102
RTVSPost2010Prop33
280
     0
102
RTVSPost2010PropOp33
 70
     1
102
RTVSPost2010Prop34
280
     0
102
RTVSPost2010PropOp34
 70
     1
102
RTVSPost2010Prop35
280
     0
102
RTVSPost2010PropOp35
 70
     1
102
RTVSPost2010Prop36
280
     0
102
RTVSPost2010PropOp36
 70
     1
102
RTVSPost2010Prop37
 90
       50
102
RTVSPost2010PropOp37
 70
     1
102
RTVSPost2010Prop38
140
0.0
102
RTVSPost2010PropOp38
 70
     1
102
RTVSPost2010Prop39
140
1.0
102
RTVSPost2010PropOp39
 70
     1
102
RTVSPost2010Prop40
 90
        0
102
RTVSPost2010PropOp40
 70
     1
102
RTVSPost2010Prop41ColorIndex
 90
       18
102
RTVSPost2010Prop41ColorRGB
 90
        0
102
RTVSPost2010PropOp41
 70
     1
102
RTVSPost2010Prop42
 90
       50
102
RTVSPost2010PropOp42
 70
     1
102
RTVSPost2010Prop43
 90
        3
102
RTVSPost2010PropOp43
 70
     1
102
RTVSPost2010Prop44ColorIndex
 90
        5
102
RTVSPost2010Prop44ColorRGB
 90
      255
102
RTVSPost2010PropOp44
 70
     1
102
RTVSPost2010Prop45
280
     0
102
RTVSPost2010PropOp45
 70
     1
102
RTVSPost2010Prop46
 90
       50
102
RTVSPost2010PropOp46
 70
     1
102
RTVSPost2010Prop47
 90
       50
102
RTVSPost2010PropOp47
 70
     1
102
RTVSPost2010Prop48
 90
       50
102
RTVSPost2010PropOp48
 70
     1
102
RTVSPost2010Prop49
280
     0
102
RTVSPost2010PropOp49
 70
     1
102
RTVSPost2010Prop50
 90
       50
102
RTVSPost2010PropOp50
 70
     1
102
RTVSPost2010Prop51ColorIndex
 90
      256
102
RTVSPost2010Prop51ColorRGB
 90
-16777216
102
RTVSPost2010PropOp51
 70
     0
102
RTVSPost2010Prop52
140
1.0
102
RTVSPost2010PropOp52
 70
     0
102
RTVSPost2010Prop53
 90
        2
102
RTVSPost2010PropOp53
 70
     1
102
RTVSPost2010Prop54
  1
strokes_ogs.tif
102
RTVSPost2010PropOp54
 70
     1
102
RTVSPost2010Prop55
280
     0
102
RTVSPost2010PropOp55
 70
     1
102
RTVSPost2010Prop56
140
1.0
102
RTVSPost2010PropOp56
 70
     1
102
RTVSPost2010Prop57
140
1.0
102
RTVSPost2010PropOp57
 70
     1
  0
XRECORD
  5
2B2
102
{ACAD_REACTORS
330
2B1
102
}
330
2B1
100
AcDbXrecord
280
     1
102
RTVSPropertyOp0
 70
     1
102
RTVSPropertyOp1
 70
     1
102
RTVSPropertyOp2
 70
     1
102
RTVSPropertyOp3
 70
     1
102
RTVSPropertyOp4
 70
     1
102
RTVSPropertyOp5
 70
     1
102
RTVSPropertyOp6
 70
     1
102
RTVSPropertyOp7
 70
     1
102
RTVSPropertyOp8
 70
     1
102
RTVSPropertyOp9
 70
     1
102
RTVSPropertyOp10
 70
     1
102
RTVSPropertyOp11
 70
     1
102
RTVSPropertyOp12
 70
     1
102
RTVSPropertyOp13
 70
     1
102
RTVSPropertyOp14
 70
     1
102
RTVSPropertyOp15
 70
     1
102
RTVSPropertyOp16
 70
     1
102
RTVSPropertyOp17
 70
     1
102
RTVSPropertyOp18
 70
     1
102
RTVSPropertyOp19
 70
     1
102
RTVSPropertyOp20
 70
     1
102
RTVSPropertyOp21
 70
     1
102
RTVSPropertyOp22
 70
     1
102
RTVSPropertyOp23
 70
     1
102
RTVSPropertyOp24
 70
     1
102
RTVSPropertyOp25
 70
     1
102
RTVSPropertyOp26
 70
     1
102
RTVSPropertyOp27
 70
     1
102
RTVSPropertyOp28
 70
     1
102
RTVSPropertyOp29
 70
     1
102
RTVSPropertyOp30
 70
     1
102
RTVSPropertyOp31
 70
     1
102
RTVSPropertyOp32
 70
     1
102
RTVSPropertyOp33
 70
     1
102
RTVSPropertyOp34
 70
     1
102
RTVSPropertyOp35
 70
     1
102
RTVSPropertyOp36
 70
     1
102
RTVSPropertyOp37
 70
     1
102
RTVSPropertyOp38
 70
     1
102
RTVSPropertyOp39
 70
     1
102
RTVSPropertyOp40
 70
     1
102
RTVSPropertyOp41
 70
     1
102
RTVSPropertyOp42
 70
     1
102
RTVSPropertyOp43
 70
     1
102
RTVSPropertyOp44
 70
     1
102
RTVSPropertyOp45
 70
     1
102
RTVSPropertyOp46
 70
     1
102
RTVSPropertyOp47
 70
     1
102
RTVSPropertyOp48
 70
     1
102
RTVSPropertyOp49
 70
     1
102
RTVSPropertyOp50
 70
     1
102
RTVSPropertyOp51
 70
     0
102
RTVSPropertyOp52
 70
     0
102
RTVSPropertyOp53
 70
     1
102
RTVSPropertyOp54
 70
     1
102
RTVSPropertyOp55
 70
     1
102
RTVSPropertyOp56
 70
     1
102
RTVSPropertyOp57
 70
     1
102
RTVSPost2010Prop28
280
     0
102
RTVSPost2010PropOp28
 70
     1
102
RTVSPost2010Prop29
280
     1
102
RTVSPost2010PropOp29
 70
     1
102
RTVSPost2010Prop30
280
     1
102
RTVSPost2010PropOp30
 70
     1
102
RTVSPost2010Prop31
280
     0
102
RTVSPost2010PropOp31
 70
     1
102
RTVSPost2010Prop32
280
     0
102
RTVSPost2010PropOp32
 70
     1
102
RTVSPost2010Prop33
280
     0
102
RTVSPost2010PropOp33
 70
     1
102
RTVSPost2010Prop34
280
     0
102
RTVSPost2010PropOp34
 70
     1
102
RTVSPost2010Prop35
280
     0
102
RTVSPost2010PropOp35
 70
     1
102
RTVSPost2010Prop36
280
     0
102
RTVSPost2010PropOp36
 70
     1
102
RTVSPost2010Prop37
 90
       50
102
RTVSPost2010PropOp37
 70
     1
102
RTVSPost2010Prop38
140
0.0
102
RTVSPost2010PropOp38
 70
     1
102
RTVSPost2010Prop39
140
1.0
102
RTVSPost2010PropOp39
 70
     1
102
RTVSPost2010Prop40
 90
        0
102
RTVSPost2010PropOp40
 70
     1
102
RTVSPost2010Prop41ColorIndex
 90
       18
102
RTVSPost2010Prop41ColorRGB
 90
        0
102
RTVSPost2010PropOp41
 70
     1
102
RTVSPost2010Prop42
 90
       50
102
RTVSPost2010PropOp42
 70
     1
102
RTVSPost2010Prop43
 90
        3
102
RTVSPost2010PropOp43
 70
     1
102
RTVSPost2010Prop44ColorIndex
 90
        5
102
RTVSPost2010Prop44ColorRGB
 90
      255
102
RTVSPost2010PropOp44
 70
     1
102
RTVSPost2010Prop45
280
     0
102
RTVSPost2010PropOp45
 70
     1
102
RTVSPost2010Prop46
 90
       50
102
RTVSPost2010PropOp46
 70
     1
102
RTVSPost2010Prop47
 90
       50
102
RTVSPost2010PropOp47
 70
     1
102
RTVSPost2010Prop48
 90
       50
102
RTVSPost2010PropOp48
 70
     1
102
RTVSPost2010Prop49
280
     0
102
RTVSPost2010PropOp49
 70
     1
102
RTVSPost2010Prop50
 90
       50
102
RTVSPost2010PropOp50
 70
     1
102
RTVSPost2010Prop51ColorIndex
 90
      256
102
RTVSPost2010Prop51ColorRGB
 90
-16777216
102
RTVSPost2010PropOp51
 70
     0
102
RTVSPost2010Prop52
140
1.0
102
RTVSPost2010PropOp52
 70
     0
102
RTVSPost2010Prop53
 90
        2
102
RTVSPost2010PropOp53
 70
     1
102
RTVSPost2010Prop54
  1
strokes_ogs.tif
102
RTVSPost2010PropOp54
 70
     1
102
RTVSPost2010Prop55
280
     0
102
RTVSPost2010PropOp55
 70
     1
102
RTVSPost2010Prop56
140
1.0
102
RTVSPost2010PropOp56
 70
     1
102
RTVSPost2010Prop57
140
1.0
102
RTVSPost2010PropOp57
 70
     1
  0
XRECORD
  5
2B4
102
{ACAD_REACTORS
330
2B3
102
}
330
2B3
100
AcDbXrecord
280
     1
102
RTVSPropertyOp0
 70
     1
102
RTVSPropertyOp1
 70
     1
102
RTVSPropertyOp2
 70
     1
102
RTVSPropertyOp3
 70
     1
102
RTVSPropertyOp4
 70
     1
102
RTVSPropertyOp5
 70
     1
102
RTVSPropertyOp6
 70
     1
102
RTVSPropertyOp7
 70
     1
102
RTVSPropertyOp8
 70
     1
102
RTVSPropertyOp9
 70
     1
102
RTVSPropertyOp10
 70
     1
102
RTVSPropertyOp11
 70
     1
102
RTVSPropertyOp12
 70
     1
102
RTVSPropertyOp13
 70
     1
102
RTVSPropertyOp14
 70
     1
102
RTVSPropertyOp15
 70
     1
102
RTVSPropertyOp16
 70
     1
102
RTVSPropertyOp17
 70
     1
102
RTVSPropertyOp18
 70
     1
102
RTVSPropertyOp19
 70
     1
102
RTVSPropertyOp20
 70
     1
102
RTVSPropertyOp21
 70
     1
102
RTVSPropertyOp22
 70
     1
102
RTVSPropertyOp23
 70
     1
102
RTVSPropertyOp24
 70
     1
102
RTVSPropertyOp25
 70
     1
102
RTVSPropertyOp26
 70
     1
102
RTVSPropertyOp27
 70
     1
102
RTVSPropertyOp28
 70
     1
102
RTVSPropertyOp29
 70
     1
102
RTVSPropertyOp30
 70
     1
102
RTVSPropertyOp31
 70
     1
102
RTVSPropertyOp32
 70
     1
102
RTVSPropertyOp33
 70
     1
102
RTVSPropertyOp34
 70
     1
102
RTVSPropertyOp35
 70
     1
102
RTVSPropertyOp36
 70
     1
102
RTVSPropertyOp37
 70
     1
102
RTVSPropertyOp38
 70
     1
102
RTVSPropertyOp39
 70
     1
102
RTVSPropertyOp40
 70
     1
102
RTVSPropertyOp41
 70
     1
102
RTVSPropertyOp42
 70
     1
102
RTVSPropertyOp43
 70
     1
102
RTVSPropertyOp44
 70
     1
102
RTVSPropertyOp45
 70
     1
102
RTVSPropertyOp46
 70
     1
102
RTVSPropertyOp47
 70
     1
102
RTVSPropertyOp48
 70
     1
102
RTVSPropertyOp49
 70
     1
102
RTVSPropertyOp50
 70
     1
102
RTVSPropertyOp51
 70
     0
102
RTVSPropertyOp52
 70
     0
102
RTVSPropertyOp53
 70
     1
102
RTVSPropertyOp54
 70
     1
102
RTVSPropertyOp55
 70
     1
102
RTVSPropertyOp56
 70
     1
102
RTVSPropertyOp57
 70
     1
102
RTVSPost2010Prop28
280
     0
102
RTVSPost2010PropOp28
 70
     1
102
RTVSPost2010Prop29
280
     1
102
RTVSPost2010PropOp29
 70
     1
102
RTVSPost2010Prop30
280
     1
102
RTVSPost2010PropOp30
 70
     1
102
RTVSPost2010Prop31
280
     0
102
RTVSPost2010PropOp31
 70
     1
102
RTVSPost2010Prop32
280
     0
102
RTVSPost2010PropOp32
 70
     1
102
RTVSPost2010Prop33
280
     0
102
RTVSPost2010PropOp33
 70
     1
102
RTVSPost2010Prop34
280
     0
102
RTVSPost2010PropOp34
 70
     1
102
RTVSPost2010Prop35
280
     0
102
RTVSPost2010PropOp35
 70
     1
102
RTVSPost2010Prop36
280
     0
102
RTVSPost2010PropOp36
 70
     1
102
RTVSPost2010Prop37
 90
       50
102
RTVSPost2010PropOp37
 70
     1
102
RTVSPost2010Prop38
140
0.0
102
RTVSPost2010PropOp38
 70
     1
102
RTVSPost2010Prop39
140
1.0
102
RTVSPost2010PropOp39
 70
     1
102
RTVSPost2010Prop40
 90
        0
102
RTVSPost2010PropOp40
 70
     1
102
RTVSPost2010Prop41ColorIndex
 90
       18
102
RTVSPost2010Prop41ColorRGB
 90
        0
102
RTVSPost2010PropOp41
 70
     1
102
RTVSPost2010Prop42
 90
       50
102
RTVSPost2010PropOp42
 70
     1
102
RTVSPost2010Prop43
 90
        3
102
RTVSPost2010PropOp43
 70
     1
102
RTVSPost2010Prop44ColorIndex
 90
        5
102
RTVSPost2010Prop44ColorRGB
 90
      255
102
RTVSPost2010PropOp44
 70
     1
102
RTVSPost2010Prop45
280
     0
102
RTVSPost2010PropOp45
 70
     1
102
RTVSPost2010Prop46
 90
       50
102
RTVSPost2010PropOp46
 70
     1
102
RTVSPost2010Prop47
 90
       50
102
RTVSPost2010PropOp47
 70
     1
102
RTVSPost2010Prop48
 90
       50
102
RTVSPost2010PropOp48
 70
     1
102
RTVSPost2010Prop49
280
     0
102
RTVSPost2010PropOp49
 70
     1
102
RTVSPost2010Prop50
 90
       50
102
RTVSPost2010PropOp50
 70
     1
102
RTVSPost2010Prop51ColorIndex
 90
      256
102
RTVSPost2010Prop51ColorRGB
 90
-16777216
102
RTVSPost2010PropOp51
 70
     0
102
RTVSPost2010Prop52
140
1.0
102
RTVSPost2010PropOp52
 70
     0
102
RTVSPost2010Prop53
 90
        2
102
RTVSPost2010PropOp53
 70
     1
102
RTVSPost2010Prop54
  1
strokes_ogs.tif
102
RTVSPost2010PropOp54
 70
     1
102
RTVSPost2010Prop55
280
     0
102
RTVSPost2010PropOp55
 70
     1
102
RTVSPost2010Prop56
140
1.0
102
RTVSPost2010PropOp56
 70
     1
102
RTVSPost2010Prop57
140
1.0
102
RTVSPost2010PropOp57
 70
     1
  0
XRECORD
  5
2A4
102
{ACAD_REACTORS
330
2A3
102
}
330
2A3
100
AcDbXrecord
280
     1
102
RTVSPropertyOp0
 70
     1
102
RTVSPropertyOp1
 70
     1
102
RTVSPropertyOp2
 70
     1
102
RTVSPropertyOp3
 70
     1
102
RTVSPropertyOp4
 70
     1
102
RTVSPropertyOp5
 70
     1
102
RTVSPropertyOp6
 70
     1
102
RTVSPropertyOp7
 70
     1
102
RTVSPropertyOp8
 70
     1
102
RTVSPropertyOp9
 70
     1
102
RTVSPropertyOp10
 70
     1
102
RTVSPropertyOp11
 70
     1
102
RTVSPropertyOp12
 70
     1
102
RTVSPropertyOp13
 70
     1
102
RTVSPropertyOp14
 70
     1
102
RTVSPropertyOp15
 70
     1
102
RTVSPropertyOp16
 70
     1
102
RTVSPropertyOp17
 70
     1
102
RTVSPropertyOp18
 70
     1
102
RTVSPropertyOp19
 70
     1
102
RTVSPropertyOp20
 70
     1
102
RTVSPropertyOp21
 70
     1
102
RTVSPropertyOp22
 70
     1
102
RTVSPropertyOp23
 70
     1
102
RTVSPropertyOp24
 70
     1
102
RTVSPropertyOp25
 70
     1
102
RTVSPropertyOp26
 70
     1
102
RTVSPropertyOp27
 70
     1
102
RTVSPropertyOp28
 70
     1
102
RTVSPropertyOp29
 70
     1
102
RTVSPropertyOp30
 70
     1
102
RTVSPropertyOp31
 70
     1
102
RTVSPropertyOp32
 70
     1
102
RTVSPropertyOp33
 70
     1
102
RTVSPropertyOp34
 70
     1
102
RTVSPropertyOp35
 70
     1
102
RTVSPropertyOp36
 70
     1
102
RTVSPropertyOp37
 70
     1
102
RTVSPropertyOp38
 70
     1
102
RTVSPropertyOp39
 70
     1
102
RTVSPropertyOp40
 70
     1
102
RTVSPropertyOp41
 70
     1
102
RTVSPropertyOp42
 70
     1
102
RTVSPropertyOp43
 70
     1
102
RTVSPropertyOp44
 70
     1
102
RTVSPropertyOp45
 70
     1
102
RTVSPropertyOp46
 70
     1
102
RTVSPropertyOp47
 70
     1
102
RTVSPropertyOp48
 70
     1
102
RTVSPropertyOp49
 70
     1
102
RTVSPropertyOp50
 70
     1
102
RTVSPropertyOp51
 70
     0
102
RTVSPropertyOp52
 70
     0
102
RTVSPropertyOp53
 70
     1
102
RTVSPropertyOp54
 70
     1
102
RTVSPropertyOp55
 70
     1
102
RTVSPropertyOp56
 70
     1
102
RTVSPropertyOp57
 70
     1
102
RTVSPost2010Prop28
280
     0
102
RTVSPost2010PropOp28
 70
     1
102
RTVSPost2010Prop29
280
     1
102
RTVSPost2010PropOp29
 70
     1
102
RTVSPost2010Prop30
280
     1
102
RTVSPost2010PropOp30
 70
     1
102
RTVSPost2010Prop31
280
     0
102
RTVSPost2010PropOp31
 70
     1
102
RTVSPost2010Prop32
280
     0
102
RTVSPost2010PropOp32
 70
     1
102
RTVSPost2010Prop33
280
     0
102
RTVSPost2010PropOp33
 70
     1
102
RTVSPost2010Prop34
280
     0
102
RTVSPost2010PropOp34
 70
     1
102
RTVSPost2010Prop35
280
     0
102
RTVSPost2010PropOp35
 70
     1
102
RTVSPost2010Prop36
280
     0
102
RTVSPost2010PropOp36
 70
     1
102
RTVSPost2010Prop37
 90
       50
102
RTVSPost2010PropOp37
 70
     1
102
RTVSPost2010Prop38
140
0.0
102
RTVSPost2010PropOp38
 70
     1
102
RTVSPost2010Prop39
140
1.0
102
RTVSPost2010PropOp39
 70
     1
102
RTVSPost2010Prop40
 90
        0
102
RTVSPost2010PropOp40
 70
     1
102
RTVSPost2010Prop41ColorIndex
 90
       18
102
RTVSPost2010Prop41ColorRGB
 90
        0
102
RTVSPost2010PropOp41
 70
     1
102
RTVSPost2010Prop42
 90
       50
102
RTVSPost2010PropOp42
 70
     1
102
RTVSPost2010Prop43
 90
        3
102
RTVSPost2010PropOp43
 70
     1
102
RTVSPost2010Prop44ColorIndex
 90
        5
102
RTVSPost2010Prop44ColorRGB
 90
      255
102
RTVSPost2010PropOp44
 70
     1
102
RTVSPost2010Prop45
280
     0
102
RTVSPost2010PropOp45
 70
     1
102
RTVSPost2010Prop46
 90
       50
102
RTVSPost2010PropOp46
 70
     1
102
RTVSPost2010Prop47
 90
       50
102
RTVSPost2010PropOp47
 70
     1
102
RTVSPost2010Prop48
 90
       50
102
RTVSPost2010PropOp48
 70
     1
102
RTVSPost2010Prop49
280
     0
102
RTVSPost2010PropOp49
 70
     1
102
RTVSPost2010Prop50
 90
       50
102
RTVSPost2010PropOp50
 70
     1
102
RTVSPost2010Prop51ColorIndex
 90
      256
102
RTVSPost2010Prop51ColorRGB
 90
-16777216
102
RTVSPost2010PropOp51
 70
     0
102
RTVSPost2010Prop52
140
1.0
102
RTVSPost2010PropOp52
 70
     0
102
RTVSPost2010Prop53
 90
        2
102
RTVSPost2010PropOp53
 70
     1
102
RTVSPost2010Prop54
  1
strokes_ogs.tif
102
RTVSPost2010PropOp54
 70
     1
102
RTVSPost2010Prop55
280
     0
102
RTVSPost2010PropOp55
 70
     1
102
RTVSPost2010Prop56
140
1.0
102
RTVSPost2010PropOp56
 70
     1
102
RTVSPost2010Prop57
140
1.0
102
RTVSPost2010PropOp57
 70
     1
  0
XRECORD
  5
296
102
{ACAD_REACTORS
330
295
102
}
330
295
100
AcDbXrecord
280
     1
102
RTVSPropertyOp0
 70
     1
102
RTVSPropertyOp1
 70
     1
102
RTVSPropertyOp2
 70
     1
102
RTVSPropertyOp3
 70
     1
102
RTVSPropertyOp4
 70
     1
102
RTVSPropertyOp5
 70
     1
102
RTVSPropertyOp6
 70
     1
102
RTVSPropertyOp7
 70
     1
102
RTVSPropertyOp8
 70
     1
102
RTVSPropertyOp9
 70
     1
102
RTVSPropertyOp10
 70
     1
102
RTVSPropertyOp11
 70
     1
102
RTVSPropertyOp12
 70
     1
102
RTVSPropertyOp13
 70
     1
102
RTVSPropertyOp14
 70
     1
102
RTVSPropertyOp15
 70
     1
102
RTVSPropertyOp16
 70
     1
102
RTVSPropertyOp17
 70
     1
102
RTVSPropertyOp18
 70
     1
102
RTVSPropertyOp19
 70
     1
102
RTVSPropertyOp20
 70
     1
102
RTVSPropertyOp21
 70
     1
102
RTVSPropertyOp22
 70
     1
102
RTVSPropertyOp23
 70
     1
102
RTVSPropertyOp24
 70
     1
102
RTVSPropertyOp25
 70
     1
102
RTVSPropertyOp26
 70
     1
102
RTVSPropertyOp27
 70
     1
102
RTVSPropertyOp28
 70
     1
102
RTVSPropertyOp29
 70
     1
102
RTVSPropertyOp30
 70
     1
102
RTVSPropertyOp31
 70
     1
102
RTVSPropertyOp32
 70
     1
102
RTVSPropertyOp33
 70
     1
102
RTVSPropertyOp34
 70
     1
102
RTVSPropertyOp35
 70
     1
102
RTVSPropertyOp36
 70
     1
102
RTVSPropertyOp37
 70
     1
102
RTVSPropertyOp38
 70
     1
102
RTVSPropertyOp39
 70
     1
102
RTVSPropertyOp40
 70
     1
102
RTVSPropertyOp41
 70
     1
102
RTVSPropertyOp42
 70
     1
102
RTVSPropertyOp43
 70
     1
102
RTVSPropertyOp44
 70
     1
102
RTVSPropertyOp45
 70
     1
102
RTVSPropertyOp46
 70
     1
102
RTVSPropertyOp47
 70
     1
102
RTVSPropertyOp48
 70
     1
102
RTVSPropertyOp49
 70
     1
102
RTVSPropertyOp50
 70
     1
102
RTVSPropertyOp51
 70
     0
102
RTVSPropertyOp52
 70
     0
102
RTVSPropertyOp53
 70
     1
102
RTVSPropertyOp54
 70
     1
102
RTVSPropertyOp55
 70
     1
102
RTVSPropertyOp56
 70
     1
102
RTVSPropertyOp57
 70
     1
102
RTVSPost2010Prop28
280
     0
102
RTVSPost2010PropOp28
 70
     1
102
RTVSPost2010Prop29
280
     1
102
RTVSPost2010PropOp29
 70
     1
102
RTVSPost2010Prop30
280
     1
102
RTVSPost2010PropOp30
 70
     1
102
RTVSPost2010Prop31
280
     0
102
RTVSPost2010PropOp31
 70
     1
102
RTVSPost2010Prop32
280
     0
102
RTVSPost2010PropOp32
 70
     1
102
RTVSPost2010Prop33
280
     0
102
RTVSPost2010PropOp33
 70
     1
102
RTVSPost2010Prop34
280
     0
102
RTVSPost2010PropOp34
 70
     1
102
RTVSPost2010Prop35
280
     0
102
RTVSPost2010PropOp35
 70
     1
102
RTVSPost2010Prop36
280
     0
102
RTVSPost2010PropOp36
 70
     1
102
RTVSPost2010Prop37
 90
       50
102
RTVSPost2010PropOp37
 70
     1
102
RTVSPost2010Prop38
140
0.0
102
RTVSPost2010PropOp38
 70
     1
102
RTVSPost2010Prop39
140
1.0
102
RTVSPost2010PropOp39
 70
     1
102
RTVSPost2010Prop40
 90
        0
102
RTVSPost2010PropOp40
 70
     1
102
RTVSPost2010Prop41ColorIndex
 90
       18
102
RTVSPost2010Prop41ColorRGB
 90
        0
102
RTVSPost2010PropOp41
 70
     1
102
RTVSPost2010Prop42
 90
       50
102
RTVSPost2010PropOp42
 70
     1
102
RTVSPost2010Prop43
 90
        3
102
RTVSPost2010PropOp43
 70
     1
102
RTVSPost2010Prop44ColorIndex
 90
        5
102
RTVSPost2010Prop44ColorRGB
 90
      255
102
RTVSPost2010PropOp44
 70
     1
102
RTVSPost2010Prop45
280
     0
102
RTVSPost2010PropOp45
 70
     1
102
RTVSPost2010Prop46
 90
       50
102
RTVSPost2010PropOp46
 70
     1
102
RTVSPost2010Prop47
 90
       50
102
RTVSPost2010PropOp47
 70
     1
102
RTVSPost2010Prop48
 90
       50
102
RTVSPost2010PropOp48
 70
     1
102
RTVSPost2010Prop49
280
     0
102
RTVSPost2010PropOp49
 70
     1
102
RTVSPost2010Prop50
 90
       50
102
RTVSPost2010PropOp50
 70
     1
102
RTVSPost2010Prop51ColorIndex
 90
      256
102
RTVSPost2010Prop51ColorRGB
 90
-16777216
102
RTVSPost2010PropOp51
 70
     0
102
RTVSPost2010Prop52
140
1.0
102
RTVSPost2010PropOp52
 70
     0
102
RTVSPost2010Prop53
 90
        2
102
RTVSPost2010PropOp53
 70
     1
102
RTVSPost2010Prop54
  1
strokes_ogs.tif
102
RTVSPost2010PropOp54
 70
     1
102
RTVSPost2010Prop55
280
     0
102
RTVSPost2010PropOp55
 70
     1
102
RTVSPost2010Prop56
140
1.0
102
RTVSPost2010PropOp56
 70
     1
102
RTVSPost2010Prop57
140
1.0
102
RTVSPost2010PropOp57
 70
     1
  0
XRECORD
  5
2B6
102
{ACAD_REACTORS
330
2B5
102
}
330
2B5
100
AcDbXrecord
280
     1
102
RTVSPropertyOp0
 70
     1
102
RTVSPropertyOp1
 70
     1
102
RTVSPropertyOp2
 70
     1
102
RTVSPropertyOp3
 70
     1
102
RTVSPropertyOp4
 70
     1
102
RTVSPropertyOp5
 70
     1
102
RTVSPropertyOp6
 70
     1
102
RTVSPropertyOp7
 70
     1
102
RTVSPropertyOp8
 70
     1
102
RTVSPropertyOp9
 70
     1
102
RTVSPropertyOp10
 70
     1
102
RTVSPropertyOp11
 70
     1
102
RTVSPropertyOp12
 70
     1
102
RTVSPropertyOp13
 70
     1
102
RTVSPropertyOp14
 70
     1
102
RTVSPropertyOp15
 70
     1
102
RTVSPropertyOp16
 70
     1
102
RTVSPropertyOp17
 70
     1
102
RTVSPropertyOp18
 70
     1
102
RTVSPropertyOp19
 70
     1
102
RTVSPropertyOp20
 70
     1
102
RTVSPropertyOp21
 70
     1
102
RTVSPropertyOp22
 70
     1
102
RTVSPropertyOp23
 70
     1
102
RTVSPropertyOp24
 70
     1
102
RTVSPropertyOp25
 70
     1
102
RTVSPropertyOp26
 70
     1
102
RTVSPropertyOp27
 70
     1
102
RTVSPropertyOp28
 70
     1
102
RTVSPropertyOp29
 70
     1
102
RTVSPropertyOp30
 70
     1
102
RTVSPropertyOp31
 70
     1
102
RTVSPropertyOp32
 70
     1
102
RTVSPropertyOp33
 70
     1
102
RTVSPropertyOp34
 70
     1
102
RTVSPropertyOp35
 70
     1
102
RTVSPropertyOp36
 70
     1
102
RTVSPropertyOp37
 70
     1
102
RTVSPropertyOp38
 70
     1
102
RTVSPropertyOp39
 70
     1
102
RTVSPropertyOp40
 70
     1
102
RTVSPropertyOp41
 70
     1
102
RTVSPropertyOp42
 70
     1
102
RTVSPropertyOp43
 70
     1
102
RTVSPropertyOp44
 70
     1
102
RTVSPropertyOp45
 70
     1
102
RTVSPropertyOp46
 70
     1
102
RTVSPropertyOp47
 70
     1
102
RTVSPropertyOp48
 70
     1
102
RTVSPropertyOp49
 70
     1
102
RTVSPropertyOp50
 70
     1
102
RTVSPropertyOp51
 70
     0
102
RTVSPropertyOp52
 70
     0
102
RTVSPropertyOp53
 70
     1
102
RTVSPropertyOp54
 70
     1
102
RTVSPropertyOp55
 70
     1
102
RTVSPropertyOp56
 70
     1
102
RTVSPropertyOp57
 70
     1
102
RTVSPost2010Prop28
280
     0
102
RTVSPost2010PropOp28
 70
     1
102
RTVSPost2010Prop29
280
     1
102
RTVSPost2010PropOp29
 70
     1
102
RTVSPost2010Prop30
280
     1
102
RTVSPost2010PropOp30
 70
     1
102
RTVSPost2010Prop31
280
     0
102
RTVSPost2010PropOp31
 70
     1
102
RTVSPost2010Prop32
280
     0
102
RTVSPost2010PropOp32
 70
     1
102
RTVSPost2010Prop33
280
     0
102
RTVSPost2010PropOp33
 70
     1
102
RTVSPost2010Prop34
280
     0
102
RTVSPost2010PropOp34
 70
     1
102
RTVSPost2010Prop35
280
     0
102
RTVSPost2010PropOp35
 70
     1
102
RTVSPost2010Prop36
280
     0
102
RTVSPost2010PropOp36
 70
     1
102
RTVSPost2010Prop37
 90
       50
102
RTVSPost2010PropOp37
 70
     1
102
RTVSPost2010Prop38
140
0.0
102
RTVSPost2010PropOp38
 70
     1
102
RTVSPost2010Prop39
140
1.0
102
RTVSPost2010PropOp39
 70
     1
102
RTVSPost2010Prop40
 90
        0
102
RTVSPost2010PropOp40
 70
     1
102
RTVSPost2010Prop41ColorIndex
 90
       18
102
RTVSPost2010Prop41ColorRGB
 90
        0
102
RTVSPost2010PropOp41
 70
     1
102
RTVSPost2010Prop42
 90
       50
102
RTVSPost2010PropOp42
 70
     1
102
RTVSPost2010Prop43
 90
        3
102
RTVSPost2010PropOp43
 70
     1
102
RTVSPost2010Prop44ColorIndex
 90
        5
102
RTVSPost2010Prop44ColorRGB
 90
      255
102
RTVSPost2010PropOp44
 70
     1
102
RTVSPost2010Prop45
280
     0
102
RTVSPost2010PropOp45
 70
     1
102
RTVSPost2010Prop46
 90
       50
102
RTVSPost2010PropOp46
 70
     1
102
RTVSPost2010Prop47
 90
       50
102
RTVSPost2010PropOp47
 70
     1
102
RTVSPost2010Prop48
 90
       50
102
RTVSPost2010PropOp48
 70
     1
102
RTVSPost2010Prop49
280
     0
102
RTVSPost2010PropOp49
 70
     1
102
RTVSPost2010Prop50
 90
       50
102
RTVSPost2010PropOp50
 70
     1
102
RTVSPost2010Prop51ColorIndex
 90
      256
102
RTVSPost2010Prop51ColorRGB
 90
-16777216
102
RTVSPost2010PropOp51
 70
     0
102
RTVSPost2010Prop52
140
1.0
102
RTVSPost2010PropOp52
 70
     0
102
RTVSPost2010Prop53
 90
        2
102
RTVSPost2010PropOp53
 70
     1
102
RTVSPost2010Prop54
  1
strokes_ogs.tif
102
RTVSPost2010PropOp54
 70
     1
102
RTVSPost2010Prop55
280
     0
102
RTVSPost2010PropOp55
 70
     1
102
RTVSPost2010Prop56
140
1.0
102
RTVSPost2010PropOp56
 70
     1
102
RTVSPost2010Prop57
140
1.0
102
RTVSPost2010PropOp57
 70
     1
  0
ENDSEC
  0
EOF
