  0
SECTION
  2
HEADER
  9
$ACADVER
  1
AC1021
  9
$ACADMAINTVER
 70
    25
  9
$DWGCODEPAGE
  3
ANSI_1252
  9
$LASTSAVEDBY
  1
Nick Zweigel
  9
$INSBASE
 10
0.0
 20
0.0
 30
0.0
  9
$EXTMIN
 10
0.0
 20
0.0
 30
0.0
  9
$EXTMAX
 10
210.0
 20
297.0
 30
0.0
  9
$LIMMIN
 10
0.0
 20
0.0
  9
$LIMMAX
 10
210.0
 20
297.0
  9
$ORTHOMODE
 70
     0
  9
$REGENMODE
 70
     1
  9
$FILLMODE
 70
     1
  9
$QTEXTMODE
 70
     0
  9
$MIRRTEXT
 70
     1
  9
$LTSCALE
 40
1.0
  9
$ATTMODE
 70
     1
  9
$TEXTSIZE
 40
3.0
  9
$TRACEWID
 40
1.0
  9
$TEXTSTYLE
  7
Standard
  9
$CLAYER
  8
0
  9
$CELTYPE
  6
ByLayer
  9
$CECOLOR
 62
   256
  9
$CELTSCALE
 40
1.0
  9
$DISPSILH
 70
     0
  9
$DIMSCALE
 40
1.0
  9
$DIMASZ
 40
2.5
  9
$DIMEXO
 40
0.625
  9
$DIMDLI
 40
3.75
  9
$DIMRND
 40
0.0
  9
$DIMDLE
 40
0.0
  9
$DIMEXE
 40
1.25
  9
$DIMTP
 40
0.0
  9
$DIMTM
 40
0.0
  9
$DIMTXT
 40
2.5
  9
$DIMCEN
 40
2.5
  9
$DIMTSZ
 40
0.0
  9
$DIMTOL
 70
     0
  9
$DIMLIM
 70
     0
  9
$DIMTIH
 70
     0
  9
$DIMTOH
 70
     0
  9
$DIMSE1
 70
     0
  9
$DIMSE2
 70
     0
  9
$DIMTAD
 70
     1
  9
$DIMZIN
 70
     8
  9
$DIMBLK
  1

  9
$DIMASO
 70
     1
  9
$DIMSHO
 70
     1
  9
$DIMPOST
  1

  9
$DIMAPOST
  1

  9
$DIMALT
 70
     0
  9
$DIMALTD
 70
     3
  9
$DIMALTF
 40
0.0393700787
  9
$DIMLFAC
 40
1.0
  9
$DIMTOFL
 70
     1
  9
$DIMTVP
 40
0.0
  9
$DIMTIX
 70
     0
  9
$DIMSOXD
 70
     0
  9
$DIMSAH
 70
     0
  9
$DIMBLK1
  1

  9
$DIMBLK2
  1

  9
$DIMSTYLE
  2
ISO-25
  9
$DIMCLRD
 70
     0
  9
$DIMCLRE
 70
     0
  9
$DIMCLRT
 70
     0
  9
$DIMTFAC
 40
1.0
  9
$DIMGAP
 40
0.625
  9
$DIMJUST
 70
     0
  9
$DIMSD1
 70
     0
  9
$DIMSD2
 70
     0
  9
$DIMTOLJ
 70
     0
  9
$DIMTZIN
 70
     8
  9
$DIMALTZ
 70
     0
  9
$DIMALTTZ
 70
     0
  9
$DIMUPT
 70
     0
  9
$DIMDEC
 70
     2
  9
$DIMTDEC
 70
     2
  9
$DIMALTU
 70
     2
  9
$DIMALTTD
 70
     3
  9
$DIMTXSTY
  7
Standard
  9
$DIMAUNIT
 70
     0
  9
$DIMADEC
 70
     0
  9
$DIMALTRND
 40
0.0
  9
$DIMAZIN
 70
     0
  9
$DIMDSEP
 70
    44
  9
$DIMATFIT
 70
     3
  9
$DIMFRAC
 70
     0
  9
$DIMLDRBLK
  1

  9
$DIMLUNIT
 70
     2
  9
$DIMLWD
 70
    -2
  9
$DIMLWE
 70
    -2
  9
$DIMTMOVE
 70
     0
  9
$DIMFXL
 40
1.0
  9
$DIMFXLON
 70
     0
  9
$DIMJOGANG
 40
0.7853981634
  9
$DIMTFILL
 70
     0
  9
$DIMTFILLCLR
 70
     0
  9
$DIMARCSYM
 70
     0
  9
$DIMLTYPE
  6

  9
$DIMLTEX1
  6

  9
$DIMLTEX2
  6

  9
$LUNITS
 70
     2
  9
$LUPREC
 70
     4
  9
$SKETCHINC
 40
1.0
  9
$FILLETRAD
 40
0.0
  9
$AUNITS
 70
     0
  9
$AUPREC
 70
     0
  9
$MENU
  1
.
  9
$ELEVATION
 40
0.0
  9
$PELEVATION
 40
0.0
  9
$THICKNESS
 40
0.0
  9
$LIMCHECK
 70
     0
  9
$CHAMFERA
 40
0.0
  9
$CHAMFERB
 40
0.0
  9
$CHAMFERC
 40
0.0
  9
$CHAMFERD
 40
0.0
  9
$SKPOLY
 70
     0
  9
$TDCREATE
 40
2460264.471066979
  9
$TDUCREATE
 40
2460264.429400313
  9
$TDUPDATE
 40
2460264.471084109
  9
$TDUUPDATE
 40
2460264.429417442
  9
$TDINDWG
 40
0.0000000116
  9
$TDUSRTIMER
 40
0.0000000116
  9
$USRTIMER
 70
     1
  9
$ANGBASE
 50
0.0
  9
$ANGDIR
 70
     0
  9
$PDMODE
 70
     0
  9
$PDSIZE
 40
0.0
  9
$PLINEWID
 40
0.0
  9
$SPLFRAME
 70
     0
  9
$SPLINETYPE
 70
     6
  9
$SPLINESEGS
 70
     8
  9
$HANDSEED
  5
206
  9
$SURFTAB1
 70
     6
  9
$SURFTAB2
 70
     6
  9
$SURFTYPE
 70
     6
  9
$SURFU
 70
     6
  9
$SURFV
 70
     6
  9
$UCSBASE
  2

  9
$UCSNAME
  2

  9
$UCSORG
 10
0.0
 20
0.0
 30
0.0
  9
$UCSXDIR
 10
1.0
 20
0.0
 30
0.0
  9
$UCSYDIR
 10
0.0
 20
1.0
 30
0.0
  9
$UCSORTHOREF
  2

  9
$UCSORTHOVIEW
 70
     0
  9
$UCSORGTOP
 10
0.0
 20
0.0
 30
0.0
  9
$UCSORGBOTTOM
 10
0.0
 20
0.0
 30
0.0
  9
$UCSORGLEFT
 10
0.0
 20
0.0
 30
0.0
  9
$UCSORGRIGHT
 10
0.0
 20
0.0
 30
0.0
  9
$UCSORGFRONT
 10
0.0
 20
0.0
 30
0.0
  9
$UCSORGBACK
 10
0.0
 20
0.0
 30
0.0
  9
$PUCSBASE
  2

  9
$PUCSNAME
  2

  9
$PUCSORG
 10
0.0
 20
0.0
 30
0.0
  9
$PUCSXDIR
 10
1.0
 20
0.0
 30
0.0
  9
$PUCSYDIR
 10
0.0
 20
1.0
 30
0.0
  9
$PUCSORTHOREF
  2

  9
$PUCSORTHOVIEW
 70
     0
  9
$PUCSORGTOP
 10
0.0
 20
0.0
 30
0.0
  9
$PUCSORGBOTTOM
 10
0.0
 20
0.0
 30
0.0
  9
$PUCSORGLEFT
 10
0.0
 20
0.0
 30
0.0
  9
$PUCSORGRIGHT
 10
0.0
 20
0.0
 30
0.0
  9
$PUCSORGFRONT
 10
0.0
 20
0.0
 30
0.0
  9
$PUCSORGBACK
 10
0.0
 20
0.0
 30
0.0
  9
$USERI1
 70
     0
  9
$USERI2
 70
     0
  9
$USERI3
 70
     0
  9
$USERI4
 70
     0
  9
$USERI5
 70
     0
  9
$USERR1
 40
0.0
  9
$USERR2
 40
0.0
  9
$USERR3
 40
0.0
  9
$USERR4
 40
0.0
  9
$USERR5
 40
0.0
  9
$WORLDVIEW
 70
     1
  9
$SHADEDGE
 70
     3
  9
$SHADEDIF
 70
    70
  9
$TILEMODE
 70
     1
  9
$MAXACTVP
 70
    64
  9
$PINSBASE
 10
0.0
 20
0.0
 30
0.0
  9
$PLIMCHECK
 70
     0
  9
$PEXTMIN
 10
0.0
 20
0.0
 30
0.0
  9
$PEXTMAX
 10
210.0
 20
297.0
 30
0.0
  9
$PLIMMIN
 10
0.0
 20
0.0
  9
$PLIMMAX
 10
210.0
 20
297.0
  9
$UNITMODE
 70
     0
  9
$VISRETAIN
 70
     1
  9
$PLINEGEN
 70
     0
  9
$PSLTSCALE
 70
     1
  9
$TREEDEPTH
 70
  3020
  9
$CMLSTYLE
  2
Standard
  9
$CMLJUST
 70
     0
  9
$CMLSCALE
 40
20.0
  9
$PROXYGRAPHICS
 70
     1
  9
$MEASUREMENT
 70
     1
  9
$CELWEIGHT
370
    -1
  9
$ENDCAPS
280
     0
  9
$JOINSTYLE
280
     0
  9
$LWDISPLAY
290
     0
  9
$INSUNITS
 70
     4
  9
$HYPERLINKBASE
  1

  9
$STYLESHEET
  1

  9
$XEDIT
290
     1
  9
$CEPSNTYPE
380
     0
  9
$PSTYLEMODE
290
     1
  9
$FINGERPRINTGUID
  2
{d038b6bb-9fa5-464e-9360-abd19433d0a3}
  9
$VERSIONGUID
  2
{FAEB1C32-E019-11D5-929B-00C0DF256EC4}
  9
$EXTNAMES
290
     1
  9
$PSVPSCALE
 40
0.0
  9
$OLESTARTUP
290
     0
  9
$SORTENTS
280
   127
  9
$INDEXCTL
280
     0
  9
$HIDETEXT
280
     1
  9
$XCLIPFRAME
290
     0
  9
$HALOGAP
280
     0
  9
$OBSCOLOR
 70
   257
  9
$OBSLTYPE
280
     0
  9
$INTERSECTIONDISPLAY
280
     0
  9
$INTERSECTIONCOLOR
 70
   257
  9
$DIMASSOC
280
     2
  9
$PROJECTNAME
  1

  9
$CAMERADISPLAY
290
     0
  9
$LENSLENGTH
 40
50.0
  9
$CAMERAHEIGHT
 40
0.0
  9
$STEPSPERSEC
 40
2.0
  9
$STEPSIZE
 40
6.0
  9
$3DDWFPREC
 40
2.0
  9
$PSOLWIDTH
 40
5.0
  9
$PSOLHEIGHT
 40
80.0
  9
$LOFTANG1
 40
1.5707963268
  9
$LOFTANG2
 40
1.5707963268
  9
$LOFTMAG1
 40
0.0
  9
$LOFTMAG2
 40
0.0
  9
$LOFTPARAM
 70
     7
  9
$LOFTNORMALS
280
     1
  9
$LATITUDE
 40
37.795
  9
$LONGITUDE
 40
-122.394
  9
$NORTHDIRECTION
 40
0.0
  9
$TIMEZONE
 70
 -8000
  9
$LIGHTGLYPHDISPLAY
280
     1
  9
$TILEMODELIGHTSYNCH
280
     1
  9
$CMATERIAL
347
44
  9
$SOLIDHIST
280
     0
  9
$SHOWHIST
280
     1
  9
$DWFFRAME
280
     2
  9
$DGNFRAME
280
     2
  9
$REALWORLDSCALE
290
     1
  9
$INTERFERECOLOR
 62
   256
  9
$CSHADOW
280
     0
  9
$SHADOWPLANELOCATION
 40
0.0
  0
ENDSEC
  0
SECTION
  2
CLASSES
  0
CLASS
  1
ACDBDICTIONARYWDFLT
  2
AcDbDictionaryWithDefault
  3
ObjectDBX Classes
 90
        0
 91
        3
280
     0
281
     0
  0
CLASS
  1
VISUALSTYLE
  2
AcDbVisualStyle
  3
ObjectDBX Classes
 90
     4095
 91
        3
280
     0
281
     0
  0
CLASS
  1
MATERIAL
  2
AcDbMaterial
  3
ObjectDBX Classes
 90
     1153
 91
        3
280
     0
281
     0
  0
CLASS
  1
SCALE
  2
AcDbScale
  3
ObjectDBX Classes
 90
     1153
 91
        3
280
     0
281
     0
  0
CLASS
  1
TABLESTYLE
  2
AcDbTableStyle
  3
ObjectDBX Classes
 90
     4095
 91
        3
280
     0
281
     0
  0
CLASS
  1
MLEADERSTYLE
  2
AcDbMLeaderStyle
  3
ACDB_MLEADERSTYLE_CLASS
 90
     4095
 91
        3
280
     0
281
     0
  0
CLASS
  1
SUN
  2
AcDbSun
  3
SCENEOE
 90
     1153
 91
        3
280
     0
281
     0
  0
CLASS
  1
RASTERVARIABLES
  2
AcDbRasterVariables
  3
ISM
 90
        0
 91
        3
280
     0
281
     0
  0
CLASS
  1
IMAGEDEF
  2
AcDbRasterImageDef
  3
ISM
 90
        0
 91
        3
280
     0
281
     0
  0
CLASS
  1
IMAGE
  2
AcDbRasterImage
  3
ISM
 90
      127
 91
        4
280
     0
281
     1
  0
CLASS
  1
IMAGEDEF_REACTOR
  2
AcDbRasterImageDefReactor
  3
ISM
 90
        1
 91
        3
280
     0
281
     0
  0
CLASS
  1
DICTIONARYVAR
  2
AcDbDictionaryVar
  3
ObjectDBX Classes
 90
        0
 91
        3
280
     0
281
     0
  0
CLASS
  1
CELLSTYLEMAP
  2
AcDbCellStyleMap
  3
ObjectDBX Classes
 90
     1152
 91
        3
280
     0
281
     0
  0
ENDSEC
  0
SECTION
  2
TABLES
  0
TABLE
  2
VPORT
  5
8
330
0
100
AcDbSymbolTable
 70
     1
  0
VPORT
  5
29
330
8
100
AcDbSymbolTableRecord
100
AcDbViewportTableRecord
  2
*Active
 70
     0
 10
0.0
 20
0.0
 11
1.0
 21
1.0
 12
344.1869158879
 22
148.5
 13
0.0
 23
0.0
 14
10.0
 24
10.0
 15
10.0
 25
10.0
 16
0.0
 26
0.0
 36
1.0
 17
0.0
 27
0.0
 37
0.0
 40
297.0
 41
1.9729729729
 42
50.0
 43
0.0
 44
0.0
 50
0.0
 51
0.0
 71
     0
 72
   100
 73
     1
 74
     3
 75
     0
 76
     0
 77
     0
 78
     0
281
     0
 65
     1
110
0.0
120
0.0
130
0.0
111
1.0
121
0.0
131
0.0
112
0.0
122
1.0
132
0.0
 79
     0
146
0.0
348
2F
 60
     3
 61
     5
292
     1
282
     1
141
0.0
142
0.0
 63
   250
361
5D
  0
ENDTAB
  0
TABLE
  2
LTYPE
  5
5
330
0
100
AcDbSymbolTable
 70
     2
  0
LTYPE
  5
14
330
5
100
AcDbSymbolTableRecord
100
AcDbLinetypeTableRecord
  2
ByBlock
 70
     0
  3

 72
    65
 73
     0
 40
0.0
  0
LTYPE
  5
15
330
5
100
AcDbSymbolTableRecord
100
AcDbLinetypeTableRecord
  2
ByLayer
 70
     0
  3

 72
    65
 73
     0
 40
0.0
  0
LTYPE
  5
16
330
5
100
AcDbSymbolTableRecord
100
AcDbLinetypeTableRecord
  2
Continuous
 70
     0
  3
Solid line
 72
    65
 73
     0
 40
0.0
  0
LTYPE
  5
E8
330
5
100
AcDbSymbolTableRecord
100
AcDbLinetypeTableRecord
  2
CENTER2
 70
     0
  3
Center (.5x) ___ _ ___ _ ___ _ ___ _ ___ _ ___
 72
    65
 73
     4
 40
28.575
 49
19.05
 74
     4
 75
     0
340
0
 46
0.0
 50
0.0
 44
0.0
 45
0.0
 49
-3.175
 74
     4
 75
     0
340
0
 46
0.0
 50
0.0
 44
0.0
 45
0.0
 49
3.175
 74
     4
 75
     0
340
0
 46
0.0
 50
0.0
 44
0.0
 45
0.0
 49
-3.175
 74
     4
 75
     0
340
0
 46
0.0
 50
0.0
 44
0.0
 45
0.0
  0
ENDTAB
  0
TABLE
  2
LAYER
  5
2
330
0
100
AcDbSymbolTable
 70
    11
  0
LAYER
  5
10
330
2
100
AcDbSymbolTableRecord
100
AcDbLayerTableRecord
  2
0
 70
     0
 62
     7
  6
Continuous
370
    -3
390
F
347
46
  0
LAYER
  5
5E
330
2
100
AcDbSymbolTableRecord
100
AcDbLayerTableRecord
  2
Standard
 70
     0
 62
     7
  6
Continuous
370
    -3
390
F
347
46
  0
LAYER
  5
61
330
2
100
AcDbSymbolTableRecord
100
AcDbLayerTableRecord
  2
DV1_Füllung
 70
     1
 62
    -7
  6
Continuous
370
    -3
390
F
347
46
  0
LAYER
  5
72
330
2
100
AcDbSymbolTableRecord
100
AcDbLayerTableRecord
  2
D000121
 70
     0
 62
     7
  6
Continuous
370
    -3
390
F
347
46
  0
LAYER
  5
9D
330
2
100
AcDbSymbolTableRecord
100
AcDbLayerTableRecord
  2
D000122
 70
     0
 62
     7
  6
Continuous
370
    -3
390
F
347
46
  0
LAYER
  5
B8
330
2
100
AcDbSymbolTableRecord
100
AcDbLayerTableRecord
  2
D000124
 70
     0
 62
     7
  6
Continuous
370
    -3
390
F
347
46
  0
LAYER
  5
E7
330
2
100
AcDbSymbolTableRecord
100
AcDbLayerTableRecord
  2
DV1_Standard
 70
     0
 62
     7
  6
Continuous
370
    -3
390
F
347
46
  0
LAYER
  5
11E
330
2
100
AcDbSymbolTableRecord
100
AcDbLayerTableRecord
  2
DV2_Füllung
 70
     1
 62
    -7
  6
Continuous
370
    -3
390
F
347
46
  0
LAYER
  5
1A1
330
2
100
AcDbSymbolTableRecord
100
AcDbLayerTableRecord
  2
DV2_Standard
 70
     0
 62
     7
  6
Continuous
370
    -3
390
F
347
46
  0
LAYER
  5
1A5
330
2
100
AcDbSymbolTableRecord
100
AcDbLayerTableRecord
  2
Default
 70
     0
 62
     7
  6
Continuous
370
    -3
390
F
347
46
  0
LAYER
  5
1BC
330
2
100
AcDbSymbolTableRecord
100
AcDbLayerTableRecord
  2
Skizziergeometrie(DIN)
 70
     0
 62
     7
  6
Continuous
370
    -3
390
F
347
46
  0
ENDTAB
  0
TABLE
  2
STYLE
  5
3
330
0
100
AcDbSymbolTable
 70
     2
  0
STYLE
  5
11
330
3
100
AcDbSymbolTableRecord
100
AcDbTextStyleTableRecord
  2
Standard
 70
     0
 40
0.0
 41
1.0
 50
0.0
 71
     0
 42
3.0
  3
txt
  4

  0
STYLE
  5
FC
330
3
100
AcDbSymbolTableRecord
100
AcDbTextStyleTableRecord
  2
SEACAD_Arial
 70
     0
 40
0.0
 41
1.0
 50
0.0
 71
     0
 42
2.5
  3
arial.ttf
  4

1001
ACAD
1000
Arial
1071
        0
  0
ENDTAB
  0
TABLE
  2
VIEW
  5
6
330
0
100
AcDbSymbolTable
 70
     0
  0
ENDTAB
  0
TABLE
  2
UCS
  5
7
330
0
100
AcDbSymbolTable
 70
     0
  0
ENDTAB
  0
TABLE
  2
APPID
  5
9
330
0
100
AcDbSymbolTable
 70
     2
  0
APPID
  5
12
330
9
100
AcDbSymbolTableRecord
100
AcDbRegAppTableRecord
  2
ACAD
 70
     0
  0
APPID
  5
1FC
330
9
100
AcDbSymbolTableRecord
100
AcDbRegAppTableRecord
  2
ACAD_MLEADERVER
 70
     0
  0
ENDTAB
  0
TABLE
  2
DIMSTYLE
  5
A
330
0
100
AcDbSymbolTable
 70
     3
100
AcDbDimStyleTable
  0
DIMSTYLE
105
27
330
A
100
AcDbSymbolTableRecord
100
AcDbDimStyleTableRecord
  2
ISO-25
 70
     0
 41
2.5
 42
0.625
 43
3.75
 44
1.25
 73
     0
 74
     0
 77
     1
 78
     8
140
2.5
141
2.5
143
0.0393700787
147
0.625
171
     3
172
     1
178
     0
271
     2
272
     2
274
     3
278
    44
283
     0
284
     8
340
11
  0
DIMSTYLE
105
EC
330
A
100
AcDbSymbolTableRecord
100
AcDbDimStyleTableRecord
  2
Standard
 70
     0
178
     0
340
11
  0
DIMSTYLE
105
FD
102
{ACAD_REACTORS
330
FE
330
108
330
110
102
}
330
A
100
AcDbSymbolTableRecord
100
AcDbDimStyleTableRecord
  2
E-Katalog
 70
     0
 41
3.75
 42
0.75
 44
1.25
 73
     0
 74
     0
 77
     1
 78
     8
140
2.5
141
1.25
143
0.0393700787
146
0.7
147
0.625
172
     1
173
     1
178
     0
271
     0
272
     3
278
    44
283
     0
284
     8
340
FC
343
F6
344
F6
  0
ENDTAB
  0
TABLE
  2
BLOCK_RECORD
  5
1
330
0
100
AcDbSymbolTable
 70
     8
  0
BLOCK_RECORD
  5
1F
330
1
100
AcDbSymbolTableRecord
100
AcDbBlockTableRecord
  2
*Model_Space
340
22
 70
     0
280
     1
281
     0
  0
BLOCK_RECORD
  5
1B
330
1
100
AcDbSymbolTableRecord
100
AcDbBlockTableRecord
  2
*Paper_Space
340
1E
 70
     0
280
     1
281
     0
  0
BLOCK_RECORD
  5
5F
330
1
100
AcDbSymbolTableRecord
100
AcDbBlockTableRecord
  2
SE
340
0
102
{BLKREFS
331
60
102
}
 70
     0
280
     1
281
     0
  0
BLOCK_RECORD
  5
ED
330
1
100
AcDbSymbolTableRecord
100
AcDbBlockTableRecord
  2
_Oblique
340
0
 70
     0
280
     1
281
     0
  0
BLOCK_RECORD
  5
F1
330
1
100
AcDbSymbolTableRecord
100
AcDbBlockTableRecord
  2
_Dot
340
0
 70
     0
280
     1
281
     0
  0
BLOCK_RECORD
  5
F6
330
1
100
AcDbSymbolTableRecord
100
AcDbBlockTableRecord
  2
_SE_OPEN
340
0
 70
     0
280
     1
281
     0
  0
BLOCK_RECORD
  5
FF
330
1
100
AcDbSymbolTableRecord
100
AcDbBlockTableRecord
  2
DMBLK400
340
0
 70
     0
280
     1
281
     0
  0
BLOCK_RECORD
  5
109
330
1
100
AcDbSymbolTableRecord
100
AcDbBlockTableRecord
  2
DMBLK401
340
0
 70
     0
280
     1
281
     0
  0
BLOCK_RECORD
  5
111
330
1
100
AcDbSymbolTableRecord
100
AcDbBlockTableRecord
  2
DMBLK402
340
0
 70
     0
280
     1
281
     0
  0
BLOCK_RECORD
  5
11C
330
1
100
AcDbSymbolTableRecord
100
AcDbBlockTableRecord
  2
SE1
340
0
102
{BLKREFS
331
11D
102
}
 70
     0
280
     1
281
     0
  0
ENDTAB
  0
ENDSEC
  0
SECTION
  2
BLOCKS
  0
BLOCK
  5
20
330
1F
100
AcDbEntity
  8
0
100
AcDbBlockBegin
  2
*Model_Space
 70
     0
 10
0.0
 20
0.0
 30
0.0
  3
*Model_Space
  1

  0
ENDBLK
  5
21
330
1F
100
AcDbEntity
  8
0
100
AcDbBlockEnd
  0
BLOCK
  5
1C
330
1B
100
AcDbEntity
 67
     1
  8
0
100
AcDbBlockBegin
  2
*Paper_Space
 70
     0
 10
0.0
 20
0.0
 30
0.0
  3
*Paper_Space
  1

  0
ENDBLK
  5
1D
330
1B
100
AcDbEntity
 67
     1
  8
0
100
AcDbBlockEnd
  0
BLOCK
  5
EA
330
5F
100
AcDbEntity
  8
0
100
AcDbBlockBegin
  2
SE
 70
     0
 10
0.0
 20
0.0
 30
0.0
  3
SE
  1

  0
HATCH
  5
62
330
5F
100
AcDbEntity
  8
DV1_Füllung
  6
Continuous
 62
     7
100
AcDbHatch
 10
0.0
 20
0.0
 30
0.0
210
0.0
220
0.0
230
1.0
  2
SOLID
 70
     1
 71
     0
 91
        1
 92
        1
 93
       46
 72
     2
 10
80.71450459126977
 20
175.5659597164138
 40
0.5999999999999992
 50
210.0000055645225
 51
343.3033889036453
 73
     0
 72
     2
 10
73.81806026446583
 20
173.497371877502
 40
7.800000000000003
 50
343.3033889036473
 51
372.152193506586
 73
     0
 72
     2
 10
80.85672179590124
 20
171.9817057381787
 40
0.5999999999999999
 50
12.15219350658496
 51
135.0000055645224
 73
     0
 72
     1
 10
80.43245768598511
 20
171.557441710671
 11
80.25445479766606
 21
171.735444633565
 72
     2
 10
80.04232274270801
 20
171.5233126198111
 40
0.3000000000000012
 50
44.99999443548528
 51
134.9999944354757
 73
     1
 72
     1
 10
79.83019072895414
 20
171.7354446747692
 11
79.40592711778268
 21
171.311181146006
 72
     2
 10
79.61805913153655
 20
171.099049091048
 40
0.3000000000000005
 50
134.9999944354853
 51
224.9999944354795
 73
     1
 72
     1
 10
79.40592707657848
 20
170.8869170772941
 11
80.01262896104134
 21
170.2802150749864
 72
     2
 10
79.72978622109727
 20
169.9973723899813
 40
0.4
 50
315.0000055645237
 51
405.0000000000029
 73
     0
 72
     1
 10
80.01262893357188
 20
169.7145296775066
 11
79.31806077233253
 21
169.0199615162673
 72
     1
 10
79.31806077233253
 20
169.0199615162673
 11
79.31806077233253
 21
165.0973718775021
 72
     2
 10
79.91805943556362
 20
165.0973718775021
 40
0.5999986632310899
 50
180.0
 51
360.0
 73
     1
 72
     1
 10
80.51805809879471
 20
165.0973718775021
 11
80.5180594355636
 21
167.2627899266434
 72
     2
 10
81.11805943556361
 20
167.2627899266435
 40
0.5999999999999999
 50
179.9999999999974
 51
220.4990635361371
 73
     0
 72
     2
 10
73.81806026446583
 20
173.497371877502
 40
9.000000000000004
 50
319.5009364638631
 51
580.4990623979097
 73
     1
 72
     2
 10
66.51806096951303
 20
167.2627900716639
 40
0.6000000000000005
 50
319.5009376020885
 51
359.9999999999999
 73
     0
 72
     1
 10
67.11806096951304
 20
167.2627900716639
 11
67.11805977975082
 21
165.0973722071653
 72
     2
 10
67.71805977975073
 20
165.0973718775026
 40
0.6000000000000002
 50
179.999968519534
 51
360.0
 73
     1
 72
     1
 10
68.31805977975074
 20
165.0973718775026
 11
68.31806051839926
 21
169.0199615162678
 72
     1
 10
68.31806051839925
 20
169.0199615162678
 11
67.6234923571599
 21
169.7145296775072
 72
     2
 10
67.90633506963452
 20
169.9973723899818
 40
0.4000000000000012
 50
135.0000000000029
 51
225.0000055645282
 73
     0
 72
     1
 10
67.62349238462939
 20
170.2802151299259
 11
68.23019390989367
 21
170.8869165373454
 72
     2
 10
68.0180618961398
 20
171.0990485923034
 40
0.2999999999999994
 50
314.9999944354776
 51
405.0000055645224
 73
     1
 72
     1
 10
68.23019390989366
 20
171.3111806472615
 11
67.80592979997753
 21
171.7354446747692
 72
     2
 10
67.59379778622365
 20
171.5233126198112
 40
0.3000000000000004
 50
45.00000556451855
 51
135.0682244216565
 73
     1
 72
     1
 10
67.3814133080487
 20
171.7351919095739
 11
67.20366279915476
 21
171.55744143698
 72
     2
 10
66.77939877376426
 20
171.9817055490133
 40
0.5999999999999984
 50
45.00000585044638
 51
167.8478049535795
 73
     0
 72
     2
 10
73.81806026446583
 20
173.497371877502
 40
7.800000000000003
 50
167.8478049535789
 51
196.6966110963527
 73
     0
 72
     2
 10
66.92161593766187
 20
175.5659597164138
 40
0.5999999999999998
 50
196.6966110963547
 51
329.9999944354782
 73
     0
 72
     1
 10
67.44123115079677
 20
175.8659597668784
 11
67.92914621477651
 21
175.020866275831
 72
     2
 10
68.44876142791098
 20
175.3208663262954
 40
0.5999999999995183
 50
210.0000055645203
 51
390.0000055645233
 73
     1
 72
     1
 10
68.96837664104545
 20
175.6208663767598
 11
68.48449646972084
 21
176.4589712302929
 72
     2
 10
68.91750914819983
 20
176.7089712708458
 40
0.4999999999999996
 50
149.9999946340842
 51
269.9840919062715
 73
     0
 72
     1
 10
68.91737032389497
 20
177.2089712515736
 11
70.71820491976385
 21
177.2094712508147
 72
     2
 10
70.71803833060132
 20
177.8094712158906
 40
0.5999999882024643
 50
270.0159080937267
 51
451.102681410259
 73
     1
 72
     1
 10
70.70649179091333
 20
178.4093600916536
 11
69.18552080643333
 21
178.4090295367713
 72
     2
 10
69.1853904075456
 20
179.0090295226015
 40
0.6000000000000008
 50
89.98754782336943
 51
229.9522076940503
 73
     0
 72
     2
 10
73.81806026446583
 20
173.497371877502
 40
7.800000000000004
 50
229.9522076940484
 51
310.0477923059512
 73
     0
 72
     2
 10
78.45073012138606
 20
179.0090295226015
 40
0.5999999999999998
 50
310.0477923059497
 51
450.0124521766306
 73
     0
 72
     1
 10
78.45059972249834
 20
178.4090295367714
 11
76.92962873801834
 21
178.4093600916536
 72
     2
 10
76.91808219833034
 20
177.8094712158906
 40
0.5999999882024668
 50
88.89731858974234
 51
269.9840919062719
 73
     1
 72
     1
 10
76.91791560916779
 20
177.2094712508147
 11
78.71875020503667
 21
177.2089712515736
 72
     2
 10
78.71861138073183
 20
176.7089712708458
 40
0.5000000000000022
 50
270.0159080937268
 51
390.0000053659157
 73
     0
 72
     1
 10
79.15162405921082
 20
176.4589712302929
 11
78.66774388788619
 21
175.6208663767598
 72
     2
 10
79.18735910102066
 20
175.3208663262954
 40
0.599999999999518
 50
149.9999944354797
 51
329.9999944354767
 73
     1
 72
     1
 10
79.70697431415513
 20
175.020866275831
 11
80.19488937813489
 21
175.8659597668784
 97
        0
 75
     0
 76
     1
 98
        0
  0
HATCH
  5
63
330
5F
100
AcDbEntity
  8
DV1_Füllung
  6
Continuous
 62
     7
100
AcDbHatch
 10
0.0
 20
0.0
 30
0.0
210
0.0
220
0.0
230
1.0
  2
SOLID
 70
     1
 71
     0
 91
        1
 92
        1
 93
       20
 72
     1
 10
68.41806026446584
 20
173.49737147424
 11
68.41806026446584
 21
165.1370068197134
 72
     1
 10
68.41806026446584
 20
165.1370068197134
 11
68.41806026446585
 21
164.49737147424
 72
     1
 10
68.41806026446585
 20
164.49737147424
 11
72.25059758313544
 21
164.49737147424
 72
     1
 10
72.25059758313544
 20
164.49737147424
 11
75.38552294579625
 21
164.49737147424
 72
     1
 10
75.38552294579625
 20
164.49737147424
 11
79.21806026446585
 21
164.49737147424
 72
     1
 10
79.21806026446585
 20
164.49737147424
 11
79.21806026446585
 21
165.1370068197134
 72
     1
 10
79.21806026446585
 20
165.1370068197134
 11
79.21806026446586
 21
173.49737147424
 72
     1
 10
79.21806026446586
 20
173.49737147424
 11
75.36806026446585
 21
173.49737147424
 72
     1
 10
75.36806026446585
 20
173.49737147424
 11
75.36806026446585
 21
170.8872827856088
 72
     1
 10
75.36806026446585
 20
170.8872827856088
 11
74.9998622129319
 21
170.3614414722242
 72
     3
 10
75.1059282301099
 20
170.2099635012084
 11
-2.168404344971009E-16
 21
0.2142222010113174
 40
0.7002075382097079
 50
34.99999999998551
 51
144.9999999999942
 73
     1
 72
     1
 10
74.9998622129319
 20
170.0584855301926
 11
75.36806026446583
 21
169.5326442168081
 72
     1
 10
75.36806026446584
 20
169.5326442168081
 11
75.36806026446585
 21
167.49737147424
 72
     1
 10
75.36806026446585
 20
167.49737147424
 11
72.26806026446584
 21
167.49737147424
 72
     1
 10
72.26806026446584
 20
167.49737147424
 11
72.26806026446584
 21
169.5326442168081
 72
     1
 10
72.26806026446584
 20
169.5326442168081
 11
72.63625831599977
 21
170.0584855301926
 72
     3
 10
72.5301922988218
 20
170.2099635012084
 11
0.0
 21
-0.2142222010113174
 40
0.7002075382097097
 50
35.00000000000582
 51
145.0000000000144
 73
     1
 72
     1
 10
72.63625831599978
 20
170.3614414722243
 11
72.26806026446587
 21
170.8872827856088
 72
     1
 10
72.26806026446586
 20
170.8872827856088
 11
72.26806026446584
 21
173.49737147424
 72
     1
 10
72.26806026446584
 20
173.49737147424
 11
68.41806026446584
 21
173.49737147424
 97
        0
 75
     0
 76
     1
 98
        0
  0
HATCH
  5
64
330
5F
100
AcDbEntity
  8
DV1_Füllung
  6
Continuous
 62
     7
100
AcDbHatch
 10
0.0
 20
0.0
 30
0.0
210
0.0
220
0.0
230
1.0
  2
SOLID
 70
     1
 71
     0
 91
        1
 92
        1
 93
        9
 72
     1
 10
68.26806026446584
 20
170.49737147424
 11
68.26806026446584
 21
169.0699617702013
 72
     1
 10
68.26806026446584
 20
169.0699617702012
 11
68.31806051839924
 21
169.0199615162678
 72
     1
 10
68.31806051839924
 20
169.0199615162678
 11
68.31806051839925
 21
165.0973718775026
 72
     2
 10
67.71805977975073
 20
165.0973718775026
 40
0.6000000000000002
 50
0.0
 51
23.55634849104097
 73
     0
 72
     1
 10
68.26806026446584
 20
164.857581413111
 11
68.26806026446584
 21
164.49737147424
 72
     1
 10
68.26806026446584
 20
164.49737147424
 11
68.41806026446585
 21
164.49737147424
 72
     1
 10
68.41806026446585
 20
164.49737147424
 11
68.41806026446585
 21
165.1370068197134
 72
     1
 10
68.41806026446585
 20
165.1370068197134
 11
68.41806026446584
 21
170.49737147424
 72
     1
 10
68.41806026446584
 20
170.49737147424
 11
68.26806026446584
 21
170.49737147424
 97
        0
 75
     0
 76
     1
 98
        0
  0
HATCH
  5
66
330
5F
100
AcDbEntity
  8
DV1_Füllung
  6
Continuous
 62
     7
100
AcDbHatch
 10
0.0
 20
0.0
 30
0.0
210
0.0
220
0.0
230
1.0
  2
SOLID
 70
     1
 71
     0
 91
        1
 92
        1
 93
        9
 72
     1
 10
79.21806026446586
 20
170.49737147424
 11
79.21806026446586
 21
165.1370068197134
 72
     1
 10
79.21806026446586
 20
165.1370068197134
 11
79.21806026446585
 21
164.49737147424
 72
     1
 10
79.21806026446585
 20
164.49737147424
 11
79.36806026446585
 21
164.49737147424
 72
     1
 10
79.36806026446585
 20
164.49737147424
 11
79.36806026446585
 21
164.8575784001267
 72
     2
 10
79.91805943556362
 20
165.0973718775021
 40
0.5999986632310899
 50
156.4436304236214
 51
180.0
 73
     0
 72
     1
 10
79.31806077233254
 20
165.0973718775021
 11
79.31806077233253
 21
169.0199615162673
 72
     1
 10
79.31806077233253
 20
169.0199615162673
 11
79.36806026446585
 21
169.0699610084006
 72
     1
 10
79.36806026446585
 20
169.0699610084006
 11
79.36806026446585
 21
170.49737147424
 72
     1
 10
79.36806026446585
 20
170.49737147424
 11
79.21806026446586
 21
170.49737147424
 97
        0
 75
     0
 76
     1
 98
        0
  0
HATCH
  5
67
330
5F
100
AcDbEntity
  8
DV1_Füllung
  6
Continuous
 62
     7
100
AcDbHatch
 10
0.0
 20
0.0
 30
0.0
210
0.0
220
0.0
230
1.0
  2
SOLID
 70
     1
 71
     0
 91
        1
 92
        1
 93
        7
 72
     1
 10
72.26806026446584
 20
173.49737147424
 11
72.26806026446584
 21
170.8872827856088
 72
     1
 10
72.26806026446584
 20
170.8872827856088
 11
72.6362583159998
 21
170.3614414722242
 72
     3
 10
72.5301922988218
 20
170.2099635012084
 11
0.0
 21
0.2142222010113174
 40
0.7002075382097097
 50
34.9999999999856
 51
90.0
 73
     0
 72
     1
 10
72.68019229882181
 20
170.2099635012084
 11
72.68019229882181
 21
173.2099635012084
 72
     3
 10
72.5301922988218
 20
173.2099635012084
 11
2.168404344971009E-15
 21
-0.214222201011317
 40
0.7002075382097086
 50
89.99999999999942
 51
145.0000000000041
 73
     1
 72
     1
 10
72.6362583159998
 20
173.3614414722243
 11
72.54107910391953
 21
173.49737147424
 72
     1
 10
72.54107910391951
 20
173.49737147424
 11
72.26806026446587
 21
173.49737147424
 97
        0
 75
     0
 76
     1
 98
        0
  0
HATCH
  5
68
330
5F
100
AcDbEntity
  8
DV1_Füllung
  6
Continuous
 62
     7
100
AcDbHatch
 10
0.0
 20
0.0
 30
0.0
210
0.0
220
0.0
230
1.0
  2
SOLID
 70
     1
 71
     0
 91
        1
 92
        1
 93
        7
 72
     1
 10
74.95592823010989
 20
173.2099635012084
 11
74.95592823010989
 21
170.2099635012084
 72
     3
 10
75.1059282301099
 20
170.2099635012084
 11
2.168404344971009E-16
 21
-0.2142222010113174
 40
0.7002075382097079
 50
90.00001472479236
 51
145.0000000000145
 73
     0
 72
     1
 10
74.99986221293192
 20
170.3614414722243
 11
75.36806026446583
 21
170.8872827856088
 72
     1
 10
75.36806026446584
 20
170.8872827856088
 11
75.36806026446585
 21
173.49737147424
 72
     1
 10
75.36806026446585
 20
173.49737147424
 11
75.09504142501221
 21
173.49737147424
 72
     1
 10
75.09504142501221
 20
173.49737147424
 11
74.99986221293192
 21
173.3614414722243
 72
     3
 10
75.1059282301099
 20
173.2099635012084
 11
2.168404344971009E-16
 21
0.2142222010113179
 40
0.7002075382097077
 50
34.9999999999958
 51
90.00000000000006
 73
     1
 97
        0
 75
     0
 76
     1
 98
        0
  0
HATCH
  5
69
330
5F
100
AcDbEntity
  8
DV1_Füllung
  6
Continuous
 62
     7
100
AcDbHatch
 10
0.0
 20
0.0
 30
0.0
210
0.0
220
0.0
230
1.0
  2
SOLID
 70
     1
 71
     0
 91
        1
 92
        1
 93
       24
 72
     1
 10
68.64416444453413
 20
173.49737147424
 11
72.26806026446584
 21
173.49737147424
 72
     1
 10
72.26806026446584
 20
173.49737147424
 11
72.5410791039195
 21
173.49737147424
 72
     1
 10
72.5410791039195
 20
173.49737147424
 11
72.6362583159998
 21
173.3614414722243
 72
     3
 10
72.5301922988218
 20
173.2099635012084
 11
-2.168404344971009E-15
 21
0.214222201011317
 40
0.7002075382097086
 50
34.99999999999594
 51
90.00000000000058
 73
     0
 72
     1
 10
72.68019229882181
 20
173.2099635012084
 11
72.68019229882181
 21
172.8761553450581
 72
     1
 10
72.68019229882181
 20
172.8761553450581
 11
74.95592823010989
 21
172.8761553450581
 72
     1
 10
74.95592823010988
 20
172.8761553450581
 11
74.95592823010989
 21
173.2099635090414
 72
     3
 10
75.1059282301099
 20
173.2099635012084
 11
-2.168404344971009E-16
 21
-0.2142222010113179
 40
0.7002075382097077
 50
89.99999999999991
 51
145.0000000000042
 73
     0
 72
     1
 10
74.9998622129319
 20
173.3614414722243
 11
75.09504142501217
 21
173.49737147424
 72
     1
 10
75.09504142501218
 20
173.49737147424
 11
75.36806026446584
 21
173.49737147424
 72
     1
 10
75.36806026446584
 20
173.49737147424
 11
78.99195608439756
 21
173.49737147424
 72
     1
 10
78.99195608439756
 20
173.49737147424
 11
77.83780280575395
 21
176.6683815459028
 72
     2
 10
77.367956495361
 20
176.49737147424
 40
0.5000000000000022
 50
19.99999999999953
 51
90.0
 73
     1
 72
     1
 10
77.367956495361
 20
176.99737147424
 11
74.73274807068674
 21
176.99737147424
 72
     3
 10
74.73274807068675
 20
176.49737147424
 11
1.084202172485504E-16
 21
0.5000000000000022
 40
0.3057306814586604
 50
0.0
 51
40.02986098536152
 73
     1
 72
     1
 10
74.58910163802948
 20
176.6683815459028
 11
74.63009648440686
 21
177.036785574568
 72
     3
 10
74.83120149012706
 20
176.79737147424
 11
-2.168404344971009E-16
 21
-0.6999999999999992
 40
0.3057306814586611
 50
139.9701390146379
 51
180.0
 73
     0
 72
     1
 10
74.83120149012706
 20
177.49737147424
 11
72.80491903880464
 21
177.49737147424
 72
     3
 10
72.80491903880466
 20
176.79737147424
 11
1.517883041479706E-15
 21
0.7000000000000079
 40
0.3057306814586578
 50
0.0
 51
40.02986098535838
 73
     0
 72
     1
 10
73.00602404452484
 20
177.036785574568
 11
73.04701889090224
 21
176.6683815459028
 72
     3
 10
72.90337245824495
 20
176.49737147424
 11
2.168404344971009E-16
 21
-0.5000000000000004
 40
0.3057306814586597
 50
139.9701390146387
 51
180.0
 73
     1
 72
     1
 10
72.90337245824495
 20
176.99737147424
 11
70.26816403357068
 21
176.99737147424
 72
     2
 10
70.2681640335707
 20
176.49737147424
 40
0.5000000000000022
 50
90.0
 51
160.0000000000005
 73
     1
 72
     1
 10
69.79831772317773
 20
176.6683815459028
 11
68.64416444453411
 21
173.49737147424
 97
        0
 75
     0
 76
     1
 98
        0
  0
HATCH
  5
6A
330
5F
100
AcDbEntity
  8
DV1_Füllung
  6
Continuous
 62
     7
100
AcDbHatch
 10
0.0
 20
0.0
 30
0.0
210
0.0
220
0.0
230
1.0
  2
SOLID
 70
     1
 71
     0
 91
        1
 92
        1
 93
        4
 72
     1
 10
68.36806026446584
 20
171.0650792994431
 11
68.36806026446584
 21
170.49737147424
 72
     1
 10
68.36806026446584
 20
170.49737147424
 11
68.41806026446584
 21
170.49737147424
 72
     1
 10
68.41806026446584
 20
170.49737147424
 11
68.41806026446584
 21
171.0939570842131
 72
     2
 10
69.01806026446584
 20
169.99737147424
 40
1.25
 50
118.6854020141194
 51
121.3322514975949
 73
     1
 97
        0
 75
     0
 76
     1
 98
        0
  0
HATCH
  5
6B
330
5F
100
AcDbEntity
  8
DV1_Füllung
  6
Continuous
 62
     7
100
AcDbHatch
 10
0.0
 20
0.0
 30
0.0
210
0.0
220
0.0
230
1.0
  2
SOLID
 70
     1
 71
     0
 91
        1
 92
        1
 93
       10
 72
     1
 10
72.26806026446584
 20
169.5326442168081
 11
72.26806026446584
 21
167.49737147424
 72
     1
 10
72.26806026446584
 20
167.49737147424
 11
75.36806026446585
 21
167.49737147424
 72
     1
 10
75.36806026446585
 20
167.49737147424
 11
75.36806026446585
 21
169.5326442168081
 72
     1
 10
75.36806026446585
 20
169.5326442168081
 11
74.9998622129319
 21
170.0584855301927
 72
     3
 10
75.1059282301099
 20
170.2099635012084
 11
2.168404344971009E-16
 21
-0.2142222010113174
 40
0.7002075382097079
 50
35.00000000000578
 51
90.00001472479236
 73
     0
 72
     1
 10
74.95592823010989
 20
170.2099635397578
 11
74.95592823010989
 21
170.49737147424
 72
     1
 10
74.95592823010989
 20
170.49737147424
 11
72.68019229882182
 21
170.49737147424
 72
     1
 10
72.68019229882182
 20
170.49737147424
 11
72.68019229882181
 21
170.2099635012085
 72
     3
 10
72.5301922988218
 20
170.2099635012084
 11
0.0
 21
0.2142222010113174
 40
0.7002075382097097
 50
89.99999999999997
 51
144.9999999999942
 73
     0
 72
     1
 10
72.6362583159998
 20
170.0584855301926
 11
72.26806026446586
 21
169.5326442168081
 97
        0
 75
     0
 76
     1
 98
        0
  0
HATCH
  5
6C
330
5F
100
AcDbEntity
  8
DV1_Füllung
  6
Continuous
 62
     7
100
AcDbHatch
 10
0.0
 20
0.0
 30
0.0
210
0.0
220
0.0
230
1.0
  2
SOLID
 70
     1
 71
     0
 91
        1
 92
        1
 93
        4
 72
     1
 10
72.68019229882182
 20
170.49737147424
 11
74.95592823010989
 21
170.49737147424
 72
     1
 10
74.95592823010989
 20
170.49737147424
 11
74.95592823010989
 21
172.8761553450581
 72
     1
 10
74.95592823010989
 20
172.8761553450581
 11
72.6801922988218
 21
172.8761553450581
 72
     1
 10
72.68019229882181
 20
172.8761553450581
 11
72.68019229882181
 21
170.49737147424
 97
        0
 75
     0
 76
     1
 98
        0
  0
HATCH
  5
6D
330
5F
100
AcDbEntity
  8
DV1_Füllung
  6
Continuous
 62
     7
100
AcDbHatch
 10
0.0
 20
0.0
 30
0.0
210
0.0
220
0.0
230
1.0
  2
SOLID
 70
     1
 71
     0
 91
        1
 92
        1
 93
        8
 72
     1
 10
79.36806026446585
 20
170.49737147424
 11
79.36806026446585
 21
169.0699610084006
 72
     1
 10
79.36806026446585
 20
169.0699610084006
 11
79.73573419145912
 21
169.4376349353939
 72
     2
 10
78.61806026446584
 20
169.99737147424
 40
1.25
 50
333.398068459742
 51
386.6021251432742
 73
     1
 72
     1
 10
79.73573230009731
 20
170.5571117897144
 11
79.4059270765785
 21
170.8869170772941
 72
     2
 10
79.61805913153655
 20
171.099049091048
 40
0.3000000000000005
 50
135.0000055645205
 51
166.1034821777102
 73
     0
 72
     2
 10
78.61806026446584
 20
169.99737147424
 40
1.25
 50
55.45706556660554
 51
58.66774850240459
 73
     1
 72
     1
 10
79.26806026446586
 20
171.0650792994431
 11
79.26806026446586
 21
170.49737147424
 72
     1
 10
79.26806026446586
 20
170.49737147424
 11
79.36806026446587
 21
170.49737147424
 97
        0
 75
     0
 76
     1
 98
        0
  0
HATCH
  5
6E
330
5F
100
AcDbEntity
  8
DV1_Füllung
  6
Continuous
 62
     7
100
AcDbHatch
 10
0.0
 20
0.0
 30
0.0
210
0.0
220
0.0
230
1.0
  2
SOLID
 70
     1
 71
     0
 91
        1
 92
        1
 93
        4
 72
     1
 10
79.21806026446586
 20
171.0939570842131
 11
79.21806026446586
 21
170.49737147424
 72
     1
 10
79.21806026446586
 20
170.49737147424
 11
79.26806026446586
 21
170.49737147424
 72
     1
 10
79.26806026446586
 20
170.49737147424
 11
79.26806026446586
 21
171.0650792994431
 72
     2
 10
78.61806026446584
 20
169.99737147424
 40
1.25
 50
58.66774850240459
 51
61.31459798588003
 73
     1
 97
        0
 75
     0
 76
     1
 98
        0
  0
HATCH
  5
6F
330
5F
100
AcDbEntity
  8
DV1_Füllung
  6
Continuous
 62
     7
100
AcDbHatch
 10
0.0
 20
0.0
 30
0.0
210
0.0
220
0.0
230
1.0
  2
SOLID
 70
     1
 71
     0
 91
        1
 92
        1
 93
        6
 72
     1
 10
72.80491903880466
 20
177.49737147424
 11
71.81806026446586
 21
177.49737147424
 72
     1
 10
71.81806026446586
 20
177.49737147424
 11
71.81806026446586
 21
176.99737147424
 72
     1
 10
71.81806026446586
 20
176.99737147424
 11
72.90337245824495
 21
176.99737147424
 72
     3
 10
72.90337245824495
 20
176.49737147424
 11
-2.168404344971009E-16
 21
0.5000000000000004
 40
0.3057306814586597
 50
0.0
 51
40.02986098536132
 73
     0
 72
     1
 10
73.04701889090222
 20
176.6683815459028
 11
73.00602404452484
 21
177.036785574568
 72
     3
 10
72.80491903880466
 20
176.79737147424
 11
-1.517883041479706E-15
 21
-0.7000000000000079
 40
0.3057306814586578
 50
139.9701390146416
 51
180.0000000000001
 73
     1
 97
        0
 75
     0
 76
     1
 98
        0
  0
HATCH
  5
70
330
5F
100
AcDbEntity
  8
DV1_Füllung
  6
Continuous
 62
     7
100
AcDbHatch
 10
0.0
 20
0.0
 30
0.0
210
0.0
220
0.0
230
1.0
  2
SOLID
 70
     1
 71
     0
 91
        1
 92
        1
 93
        6
 72
     1
 10
74.73274805787726
 20
176.99737147424
 11
75.81806026446586
 21
176.99737147424
 72
     1
 10
75.81806026446584
 20
176.99737147424
 11
75.81806026446584
 21
177.49737147424
 72
     1
 10
75.81806026446584
 20
177.49737147424
 11
74.83120149012704
 21
177.49737147424
 72
     3
 10
74.83120149012706
 20
176.79737147424
 11
2.168404344971009E-16
 21
0.6999999999999992
 40
0.3057306814586611
 50
0.0
 51
40.02986098536218
 73
     1
 72
     1
 10
74.63009648440688
 20
177.036785574568
 11
74.58910163802946
 21
176.6683815459028
 72
     3
 10
74.73274807068675
 20
176.49737147424
 11
-1.084202172485504E-16
 21
-0.5000000000000022
 40
0.3057306814586604
 50
139.9701390146385
 51
180.0
 73
     0
 97
        0
 75
     0
 76
     1
 98
        0
  0
HATCH
  5
71
330
5F
100
AcDbEntity
  8
DV1_Füllung
  6
Continuous
 62
     7
100
AcDbHatch
 10
0.0
 20
0.0
 30
0.0
210
0.0
220
0.0
230
1.0
  2
SOLID
 70
     1
 71
     0
 91
        1
 92
        1
 93
        8
 72
     1
 10
68.36806026446584
 20
170.49737147424
 11
68.36806026446584
 21
171.0650792994432
 72
     2
 10
69.01806026446584
 20
169.99737147424
 40
1.25
 50
121.3322514975949
 51
124.5428927066057
 73
     1
 72
     2
 10
68.0180618961398
 20
171.0990485923034
 40
0.2999999999999994
 50
13.89631814112284
 51
45.00000556452239
 73
     0
 72
     1
 10
68.23019390989366
 20
170.8869165373453
 11
67.90038735665243
 21
170.5571100481653
 72
     2
 10
69.01806026446584
 20
169.99737147424
 40
1.25
 50
153.3979641345957
 51
206.6018533094875
 73
     1
 72
     1
 10
67.90038557321802
 20
169.4376364614491
 11
68.26806026446583
 21
169.0699617702012
 72
     1
 10
68.26806026446583
 20
169.0699617702012
 11
68.26806026446584
 21
170.49737147424
 72
     1
 10
68.26806026446584
 20
170.49737147424
 11
68.36806026446585
 21
170.49737147424
 97
        0
 75
     0
 76
     1
 98
        0
  0
LINE
  5
73
330
5F
100
AcDbEntity
  8
D000121
  6
Continuous
 62
     7
100
AcDbLine
 10
79.2180602645
 20
173.4973714742
 30
0.0
 11
79.2180602645
 21
165.1370068197
 31
0.0
  0
LINE
  5
74
330
5F
100
AcDbEntity
  8
D000121
  6
Continuous
 62
     7
100
AcDbLine
 10
79.2180602645
 20
165.1370068197
 30
0.0
 11
79.2180602645
 21
164.4973714742
 31
0.0
  0
LINE
  5
75
330
5F
100
AcDbEntity
  8
D000121
  6
Continuous
 62
     7
100
AcDbLine
 10
72.2680526481
 20
165.4973714742
 30
0.0
 11
75.3680678809
 21
165.4973714742
 31
0.0
  0
LINE
  5
76
330
5F
100
AcDbEntity
  8
D000121
  6
Continuous
 62
     7
100
AcDbLine
 10
75.3680602645
 20
167.4973714742
 30
0.0
 11
72.2680602645
 21
167.4973714742
 31
0.0
  0
LINE
  5
77
330
5F
100
AcDbEntity
  8
D000121
  6
Continuous
 62
     7
100
AcDbLine
 10
68.4180602645
 20
164.4973714742
 30
0.0
 11
68.4180602645
 21
165.1370068197
 31
0.0
  0
LINE
  5
78
330
5F
100
AcDbEntity
  8
D000121
  6
Continuous
 62
     7
100
AcDbLine
 10
68.4180602645
 20
173.4973714742
 30
0.0
 11
68.4180602645
 21
165.1370068197
 31
0.0
  0
LINE
  5
79
330
5F
100
AcDbEntity
  8
D000121
  6
Continuous
 62
     7
100
AcDbLine
 10
68.2680602645
 20
164.4973714742
 30
0.0
 11
68.4180602645
 21
164.4973714742
 31
0.0
  0
LINE
  5
7A
330
5F
100
AcDbEntity
  8
D000121
  6
Continuous
 62
     7
100
AcDbLine
 10
79.2180602645
 20
164.4973714742
 30
0.0
 11
79.3680602645
 21
164.4973714742
 31
0.0
  0
LINE
  5
7B
330
5F
100
AcDbEntity
  8
D000121
  6
Continuous
 62
     7
100
AcDbLine
 10
79.2180602645
 20
164.4973714742
 30
0.0
 11
75.3855229458
 21
164.4973714742
 31
0.0
  0
LINE
  5
7C
330
5F
100
AcDbEntity
  8
D000121
  6
Continuous
 62
     7
100
AcDbLine
 10
75.3855229458
 20
164.4973714742
 30
0.0
 11
72.2505975831
 21
164.4973714742
 31
0.0
  0
LINE
  5
7D
330
5F
100
AcDbEntity
  8
D000121
  6
Continuous
 62
     7
100
AcDbLine
 10
72.2505975831
 20
164.4973714742
 30
0.0
 11
68.4180602645
 21
164.4973714742
 31
0.0
  0
LINE
  5
7E
330
5F
100
AcDbEntity
  8
D000121
  6
Continuous
 62
     7
100
AcDbLine
 10
72.2680602645
 20
173.4973714742
 30
0.0
 11
72.5410791039
 21
173.4973714742
 31
0.0
  0
LINE
  5
7F
330
5F
100
AcDbEntity
  8
D000121
  6
Continuous
 62
     7
100
AcDbLine
 10
72.2680602645
 20
173.4973714742
 30
0.0
 11
68.4180602645
 21
173.4973714742
 31
0.0
  0
LINE
  5
80
330
5F
100
AcDbEntity
  8
D000121
  6
Continuous
 62
     7
100
AcDbLine
 10
72.636258316
 20
170.3614414722
 30
0.0
 11
72.2680602645
 21
170.8872827856
 31
0.0
  0
LINE
  5
81
330
5F
100
AcDbEntity
  8
D000121
  6
Continuous
 62
     7
100
AcDbLine
 10
72.636258316
 20
173.3614414722
 30
0.0
 11
72.5410791039
 21
173.4973714742
 31
0.0
  0
LINE
  5
82
330
5F
100
AcDbEntity
  8
D000121
  6
Continuous
 62
     7
100
AcDbLine
 10
72.2680602645
 20
169.5326442168
 30
0.0
 11
72.636258316
 21
170.0584855302
 31
0.0
  0
ELLIPSE
  5
83
330
5F
100
AcDbEntity
  8
D000121
  6
Continuous
 62
     7
100
AcDbEllipse
 10
72.5301922988
 20
170.2099635012
 30
0.0
 11
0.0
 21
-0.2142222010113174
 31
0.0
210
0.0
220
0.0
230
1.0
 40
0.7002075382
 41
0.7853981633975566
 42
2.356194490192612
  0
ELLIPSE
  5
84
330
5F
100
AcDbEntity
  8
D000121
  6
Continuous
 62
     7
100
AcDbEllipse
 10
72.5301922988
 20
173.2099635012
 30
0.0
 11
2.168404344971009E-15
 21
-0.214222201011317
 31
0.0
210
0.0
220
0.0
230
1.0
 40
0.7002075382
 41
1.570796326794889
 42
2.356194490192419
  0
LINE
  5
85
330
5F
100
AcDbEntity
  8
D000121
  6
Continuous
 62
     7
100
AcDbLine
 10
72.2680602645
 20
170.8872827856
 30
0.0
 11
72.2680602645
 21
173.4973714742
 31
0.0
  0
LINE
  5
86
330
5F
100
AcDbEntity
  8
D000121
  6
Continuous
 62
     7
100
AcDbLine
 10
75.095041425
 20
173.4973714742
 30
0.0
 11
75.3680602645
 21
173.4973714742
 31
0.0
  0
LINE
  5
87
330
5F
100
AcDbEntity
  8
D000121
  6
Continuous
 62
     7
100
AcDbLine
 10
79.2180602645
 20
173.4973714742
 30
0.0
 11
75.3680602645
 21
173.4973714742
 31
0.0
  0
LINE
  5
88
330
5F
100
AcDbEntity
  8
D000121
  6
Continuous
 62
     7
100
AcDbLine
 10
75.3680602645
 20
170.8872827856
 30
0.0
 11
74.9998622129
 21
170.3614414722
 31
0.0
  0
LINE
  5
89
330
5F
100
AcDbEntity
  8
D000121
  6
Continuous
 62
     7
100
AcDbLine
 10
75.095041425
 20
173.4973714742
 30
0.0
 11
74.9998622129
 21
173.3614414722
 31
0.0
  0
LINE
  5
8A
330
5F
100
AcDbEntity
  8
D000121
  6
Continuous
 62
     7
100
AcDbLine
 10
74.9998622129
 20
170.0584855302
 30
0.0
 11
75.3680602645
 21
169.5326442168
 31
0.0
  0
ELLIPSE
  5
8B
330
5F
100
AcDbEntity
  8
D000121
  6
Continuous
 62
     7
100
AcDbEllipse
 10
75.1059282301
 20
170.2099635012
 30
0.0
 11
-2.168404344971009E-16
 21
0.2142222010113174
 31
0.0
210
0.0
220
0.0
230
1.0
 40
0.7002075382
 41
0.7853981633971809
 42
2.356194490192236
  0
ELLIPSE
  5
8C
330
5F
100
AcDbEntity
  8
D000121
  6
Continuous
 62
     7
100
AcDbEllipse
 10
75.1059282301
 20
173.2099635012
 30
0.0
 11
2.168404344971009E-16
 21
0.2142222010113179
 31
0.0
210
0.0
220
0.0
230
1.0
 40
0.7002075382
 41
0.7853981633973719
 42
1.570796326794897
  0
LINE
  5
8D
330
5F
100
AcDbEntity
  8
D000121
  6
Continuous
 62
     7
100
AcDbLine
 10
75.3680602645
 20
173.4973714742
 30
0.0
 11
75.3680602645
 21
170.8872827856
 31
0.0
  0
LINE
  5
8E
330
5F
100
AcDbEntity
  8
D000121
  6
Continuous
 62
     7
100
AcDbLine
 10
75.3743580693
 20
165.1370068197
 30
0.0
 11
75.3680678809
 21
165.4973714742
 31
0.0
  0
LINE
  5
8F
330
5F
100
AcDbEntity
  8
D000121
  6
Continuous
 62
     7
100
AcDbLine
 10
75.3680602645
 20
169.5326442168
 30
0.0
 11
75.3680602645
 21
167.4973714742
 31
0.0
  0
LINE
  5
90
330
5F
100
AcDbEntity
  8
D000121
  6
Continuous
 62
     7
100
AcDbLine
 10
72.2680602645
 20
167.4973714742
 30
0.0
 11
72.2680602645
 21
169.5326442168
 31
0.0
  0
LINE
  5
91
330
5F
100
AcDbEntity
  8
D000121
  6
Continuous
 62
     7
100
AcDbLine
 10
72.2680526481
 20
165.4973714742
 30
0.0
 11
72.2617624596
 21
165.1370068197
 31
0.0
  0
LINE
  5
92
330
5F
100
AcDbEntity
  8
D000121
  6
Continuous
 62
     7
100
AcDbLine
 10
72.2617624596
 20
165.1370068197
 30
0.0
 11
72.2505975831
 21
164.4973714742
 31
0.0
  0
LINE
  5
93
330
5F
100
AcDbEntity
  8
D000121
  6
Continuous
 62
     7
100
AcDbLine
 10
75.3855229458
 20
164.4973714742
 30
0.0
 11
75.3743580693
 21
165.1370068197
 31
0.0
  0
LINE
  5
94
330
5F
100
AcDbEntity
  8
D000121
  6
Continuous
 62
     7
100
AcDbLine
 10
72.6801922988
 20
170.4973714742
 30
0.0
 11
74.9559282301
 21
170.4973714742
 31
0.0
  0
LINE
  5
95
330
5F
100
AcDbEntity
  8
D000121
  6
Continuous
 62
     7
100
AcDbLine
 10
68.2680602645
 20
170.4973714742
 30
0.0
 11
68.4180602645
 21
170.4973714742
 31
0.0
  0
LINE
  5
96
330
5F
100
AcDbEntity
  8
D000121
  6
Continuous
 62
     7
100
AcDbLine
 10
79.2180602645
 20
170.4973714742
 30
0.0
 11
79.3680602645
 21
170.4973714742
 31
0.0
  0
LINE
  5
97
330
5F
100
AcDbEntity
  8
D000121
  6
Continuous
 62
     7
100
AcDbLine
 10
79.3680602645
 20
170.4973714742
 30
0.0
 11
79.3680602645
 21
169.0699610084
 31
0.0
  0
LINE
  5
98
330
5F
100
AcDbEntity
  8
D000121
  6
Continuous
 62
     7
100
AcDbLine
 10
79.3680602645
 20
164.8575784001
 30
0.0
 11
79.3680602645
 21
164.4973714742
 31
0.0
  0
LINE
  5
99
330
5F
100
AcDbEntity
  8
D000121
  6
Continuous
 62
     7
100
AcDbLine
 10
68.2680602645
 20
170.4973714742
 30
0.0
 11
68.2680602645
 21
169.0699617702
 31
0.0
  0
LINE
  5
9A
330
5F
100
AcDbEntity
  8
D000121
  6
Continuous
 62
     7
100
AcDbLine
 10
68.2680602645
 20
164.8575814131
 30
0.0
 11
68.2680602645
 21
164.4973714742
 31
0.0
  0
LINE
  5
9B
330
5F
100
AcDbEntity
  8
D000121
  6
Continuous
 62
     7
100
AcDbLine
 10
72.6801922988
 20
170.2099635012
 30
0.0
 11
72.6801922988
 21
173.2099635012
 31
0.0
  0
LINE
  5
9C
330
5F
100
AcDbEntity
  8
D000121
  6
Continuous
 62
     7
100
AcDbLine
 10
74.9559282301
 20
173.2099635012
 30
0.0
 11
74.9559282301
 21
170.2099635012
 31
0.0
  0
LINE
  5
9E
330
5F
100
AcDbEntity
  8
D000122
  6
Continuous
 62
     7
100
AcDbLine
 10
71.8180602645
 20
176.9973714742
 30
0.0
 11
71.8180602645
 21
177.4973714742
 31
0.0
  0
LINE
  5
9F
330
5F
100
AcDbEntity
  8
D000122
  6
Continuous
 62
     7
100
AcDbLine
 10
75.8180602645
 20
177.4973714742
 30
0.0
 11
75.8180602645
 21
176.9973714742
 31
0.0
  0
ELLIPSE
  5
A0
330
5F
100
AcDbEntity
  8
D000122
  6
Continuous
 62
     7
100
AcDbEllipse
 10
72.9033724582
 20
176.4973714742
 30
0.0
 11
2.168404344971009E-16
 21
-0.5000000000000004
 31
0.0
210
0.0
220
0.0
230
1.0
 40
0.3057306815
 41
1.919862177193763
 42
3.141592653589793
  0
LINE
  5
A1
330
5F
100
AcDbEntity
  8
D000122
  6
Continuous
 62
     7
100
AcDbLine
 10
70.2681640336
 20
176.9973714742
 30
0.0
 11
72.9033724582
 21
176.9973714742
 31
0.0
  0
ARC
  5
A2
330
5F
100
AcDbEntity
  8
D000122
  6
Continuous
 62
     7
100
AcDbCircle
 10
70.2681640336
 20
176.4973714742
 30
0.0
 40
0.5000000000000022
100
AcDbArc
 50
90.0
 51
160.0
  0
LINE
  5
A3
330
5F
100
AcDbEntity
  8
D000122
  6
Continuous
 62
     7
100
AcDbLine
 10
73.0060240445
 20
177.0367855746
 30
0.0
 11
73.0470188909
 21
176.6683815459
 31
0.0
  0
ELLIPSE
  5
A4
330
5F
100
AcDbEntity
  8
D000122
  6
Continuous
 62
     7
100
AcDbEllipse
 10
72.8049190388
 20
176.7973714742
 30
0.0
 11
-1.517883041479706E-15
 21
-0.7000000000000079
 31
0.0
210
0.0
220
0.0
230
1.0
 40
0.3057306815
 41
1.919862177193794
 42
3.1415926535898
  0
LINE
  5
A5
330
5F
100
AcDbEntity
  8
D000122
  6
Continuous
 62
     7
100
AcDbLine
 10
72.8049190388
 20
177.4973714742
 30
0.0
 11
71.8180602645
 21
177.4973714742
 31
0.0
  0
LINE
  5
A6
330
5F
100
AcDbEntity
  8
D000122
  6
Continuous
 62
     7
100
AcDbLine
 10
72.8049190388
 20
177.4973714742
 30
0.0
 11
74.8312014901
 21
177.4973714742
 31
0.0
  0
LINE
  5
A7
330
5F
100
AcDbEntity
  8
D000122
  6
Continuous
 62
     7
100
AcDbLine
 10
75.8180602645
 20
177.4973714742
 30
0.0
 11
74.8312014901
 21
177.4973714742
 31
0.0
  0
LINE
  5
A8
330
5F
100
AcDbEntity
  8
D000122
  6
Continuous
 62
     7
100
AcDbLine
 10
74.7327480707
 20
176.9973714742
 30
0.0
 11
77.3679564954
 21
176.9973714742
 31
0.0
  0
LINE
  5
A9
330
5F
100
AcDbEntity
  8
D000122
  6
Continuous
 62
     7
100
AcDbLine
 10
79.2680602645
 20
170.4973714742
 30
0.0
 11
79.2680602645
 21
171.0650792994
 31
0.0
  0
ARC
  5
AA
330
5F
100
AcDbEntity
  8
D000122
  6
Continuous
 62
     7
100
AcDbCircle
 10
78.6180602645
 20
169.9973714742
 30
0.0
 40
1.25
100
AcDbArc
 50
58.6677485024
 51
61.3145979859
  0
LINE
  5
AB
330
5F
100
AcDbEntity
  8
D000122
  6
Continuous
 62
     7
100
AcDbLine
 10
74.9559282301
 20
172.8761553451
 30
0.0
 11
72.6801922988
 21
172.8761553451
 31
0.0
  0
ARC
  5
AC
330
5F
100
AcDbEntity
  8
D000122
  6
Continuous
 62
     7
100
AcDbCircle
 10
69.0180602645
 20
169.9973714742
 30
0.0
 40
1.25
100
AcDbArc
 50
118.6854020141
 51
121.3322514976
  0
LINE
  5
AD
330
5F
100
AcDbEntity
  8
D000122
  6
Continuous
 62
     7
100
AcDbLine
 10
68.3680602645
 20
171.0650792994
 30
0.0
 11
68.3680602645
 21
170.4973714742
 31
0.0
  0
ELLIPSE
  5
AE
330
5F
100
AcDbEntity
  8
D000122
  6
Continuous
 62
     7
100
AcDbEllipse
 10
74.7327480707
 20
176.4973714742
 30
0.0
 11
1.084202172485504E-16
 21
0.5000000000000022
 31
0.0
210
0.0
220
0.0
230
1.0
 40
0.3057306815
 41
0.0
 42
1.221730476396032
  0
ARC
  5
AF
330
5F
100
AcDbEntity
  8
D000122
  6
Continuous
 62
     7
100
AcDbCircle
 10
77.3679564954
 20
176.4973714742
 30
0.0
 40
0.5000000000000022
100
AcDbArc
 50
20.0
 51
90.0
  0
LINE
  5
B0
330
5F
100
AcDbEntity
  8
D000122
  6
Continuous
 62
     7
100
AcDbLine
 10
74.6300964844
 20
177.0367855746
 30
0.0
 11
74.589101638
 21
176.6683815459
 31
0.0
  0
LINE
  5
B1
330
5F
100
AcDbEntity
  8
D000122
  6
Continuous
 62
     7
100
AcDbLine
 10
69.7983177232
 20
176.6683815459
 30
0.0
 11
68.6441644445
 21
173.4973714742
 31
0.0
  0
LINE
  5
B2
330
5F
100
AcDbEntity
  8
D000122
  6
Continuous
 62
     7
100
AcDbLine
 10
78.9919560844
 20
173.4973714742
 30
0.0
 11
77.8378028058
 21
176.6683815459
 31
0.0
  0
ARC
  5
B3
330
5F
100
AcDbEntity
  8
D000122
  6
Continuous
 62
     7
100
AcDbCircle
 10
69.0180602645
 20
169.9973714742
 30
0.0
 40
1.25
100
AcDbArc
 50
121.3322514976
 51
124.5428927066
  0
ARC
  5
B4
330
5F
100
AcDbEntity
  8
D000122
  6
Continuous
 62
     7
100
AcDbCircle
 10
69.0180602645
 20
169.9973714742
 30
0.0
 40
1.25
100
AcDbArc
 50
153.3979641346
 51
206.6018533095
  0
ARC
  5
B5
330
5F
100
AcDbEntity
  8
D000122
  6
Continuous
 62
     7
100
AcDbCircle
 10
78.6180602645
 20
169.9973714742
 30
0.0
 40
1.25
100
AcDbArc
 50
333.3980684597
 51
26.6021251433
  0
ARC
  5
B6
330
5F
100
AcDbEntity
  8
D000122
  6
Continuous
 62
     7
100
AcDbCircle
 10
78.6180602645
 20
169.9973714742
 30
0.0
 40
1.25
100
AcDbArc
 50
55.4570655666
 51
58.6677485024
  0
ELLIPSE
  5
B7
330
5F
100
AcDbEntity
  8
D000122
  6
Continuous
 62
     7
100
AcDbEllipse
 10
74.8312014901
 20
176.7973714742
 30
0.0
 11
2.168404344971009E-16
 21
0.6999999999999993
 31
0.0
210
0.0
220
0.0
230
1.0
 40
0.3057306815
 41
0.000000000000001
 42
1.221730476396039
  0
ARC
  5
B9
330
5F
100
AcDbEntity
  8
D000124
  6
Continuous
 62
     7
100
AcDbCircle
 10
80.0423227427
 20
171.5233126198
 30
0.0
 40
0.3000000000000012
100
AcDbArc
 50
44.9999944355
 51
134.9999944355
  0
LINE
  5
BA
330
5F
100
AcDbEntity
  8
D000124
  6
Continuous
 62
     7
100
AcDbLine
 10
79.4059271178
 20
171.311181146
 30
0.0
 11
79.830190729
 21
171.7354446748
 31
0.0
  0
ARC
  5
BB
330
5F
100
AcDbEntity
  8
D000124
  6
Continuous
 62
     7
100
AcDbCircle
 10
79.6180591315
 20
171.099049091
 30
0.0
 40
0.3000000000000005
100
AcDbArc
 50
134.9999944355
 51
224.9999944355
  0
LINE
  5
BC
330
5F
100
AcDbEntity
  8
D000124
  6
Continuous
 62
     7
100
AcDbLine
 10
80.012628961
 20
170.280215075
 30
0.0
 11
79.4059270766
 21
170.8869170773
 31
0.0
  0
ARC
  5
BD
330
5F
100
AcDbEntity
  8
D000124
  6
Continuous
 62
     7
100
AcDbCircle
 10
79.7297862211
 20
169.99737239
 30
0.0
 40
0.4
100
AcDbArc
 50
315.0
 51
44.9999944355
  0
LINE
  5
BE
330
5F
100
AcDbEntity
  8
D000124
  6
Continuous
 62
     7
100
AcDbLine
 10
79.3180607723
 20
169.0199615163
 30
0.0
 11
80.0126289336
 21
169.7145296775
 31
0.0
  0
LINE
  5
BF
330
5F
100
AcDbEntity
  8
D000124
  6
Continuous
 62
     7
100
AcDbLine
 10
68.3180605184
 20
169.0199615163
 30
0.0
 11
68.3180605184
 21
165.0973718775
 31
0.0
  0
LINE
  5
C0
330
5F
100
AcDbEntity
  8
D000124
  6
Continuous
 62
     7
100
AcDbLine
 10
67.6234923572
 20
169.7145296775
 30
0.0
 11
68.3180605184
 21
169.0199615163
 31
0.0
  0
ARC
  5
C1
330
5F
100
AcDbEntity
  8
D000124
  6
Continuous
 62
     7
100
AcDbCircle
 10
67.9063350696
 20
169.99737239
 30
0.0
 40
0.4000000000000012
100
AcDbArc
 50
134.9999944355
 51
225.0
  0
LINE
  5
C2
330
5F
100
AcDbEntity
  8
D000124
  6
Continuous
 62
     7
100
AcDbLine
 10
68.2301939099
 20
170.8869165373
 30
0.0
 11
67.6234923846
 21
170.2802151299
 31
0.0
  0
ARC
  5
C3
330
5F
100
AcDbEntity
  8
D000124
  6
Continuous
 62
     7
100
AcDbCircle
 10
68.0180618961
 20
171.0990485923
 30
0.0
 40
0.2999999999999994
100
AcDbArc
 50
314.9999944355
 51
45.0000055645
  0
LINE
  5
C4
330
5F
100
AcDbEntity
  8
D000124
  6
Continuous
 62
     7
100
AcDbLine
 10
67.8059298
 20
171.7354446748
 30
0.0
 11
68.2301939099
 21
171.3111806473
 31
0.0
  0
ARC
  5
C5
330
5F
100
AcDbEntity
  8
D000124
  6
Continuous
 62
     7
100
AcDbCircle
 10
67.5937977862
 20
171.5233126198
 30
0.0
 40
0.3000000000000004
100
AcDbArc
 50
45.0000055645
 51
135.0682244217
  0
LINE
  5
C6
330
5F
100
AcDbEntity
  8
D000124
  6
Continuous
 62
     7
100
AcDbLine
 10
80.2544547977
 20
171.7354446336
 30
0.0
 11
80.432457686
 21
171.5574417107
 31
0.0
  0
LINE
  5
C7
330
5F
100
AcDbEntity
  8
D000124
  6
Continuous
 62
     7
100
AcDbLine
 10
79.7069743142
 20
175.0208662758
 30
0.0
 11
80.1948893781
 21
175.8659597669
 31
0.0
  0
ARC
  5
C8
330
5F
100
AcDbEntity
  8
D000124
  6
Continuous
 62
     7
100
AcDbCircle
 10
76.9180821983
 20
177.8094712159
 30
0.0
 40
0.5999999882024668
100
AcDbArc
 50
88.8973185897
 51
269.9840919063
  0
LINE
  5
C9
330
5F
100
AcDbEntity
  8
D000124
  6
Continuous
 62
     7
100
AcDbLine
 10
76.9179156092
 20
177.2094712508
 30
0.0
 11
78.718750205
 21
177.2089712516
 31
0.0
  0
ARC
  5
CA
330
5F
100
AcDbEntity
  8
D000124
  6
Continuous
 62
     7
100
AcDbCircle
 10
78.7186113807
 20
176.7089712708
 30
0.0
 40
0.5000000000000022
100
AcDbArc
 50
329.9999946341
 51
89.9840919063
  0
LINE
  5
CB
330
5F
100
AcDbEntity
  8
D000124
  6
Continuous
 62
     7
100
AcDbLine
 10
79.1516240592
 20
176.4589712303
 30
0.0
 11
78.6677438879
 21
175.6208663768
 31
0.0
  0
ARC
  5
CC
330
5F
100
AcDbEntity
  8
D000124
  6
Continuous
 62
     7
100
AcDbCircle
 10
79.187359101
 20
175.3208663263
 30
0.0
 40
0.599999999999518
100
AcDbArc
 50
149.9999944355
 51
329.9999944355
  0
ARC
  5
CD
330
5F
100
AcDbEntity
  8
D000124
  6
Continuous
 62
     7
100
AcDbCircle
 10
73.8180602645
 20
173.4973718775
 30
0.0
 40
7.800000000000004
100
AcDbArc
 50
49.952207694
 51
130.047792306
  0
LINE
  5
CE
330
5F
100
AcDbEntity
  8
D000124
  6
Continuous
 62
     7
100
AcDbLine
 10
78.4505997225
 20
178.4090295368
 30
0.0
 11
76.929628738
 21
178.4093600917
 31
0.0
  0
ARC
  5
CF
330
5F
100
AcDbEntity
  8
D000124
  6
Continuous
 62
     7
100
AcDbCircle
 10
78.4507301214
 20
179.0090295226
 30
0.0
 40
0.5999999999999998
100
AcDbArc
 50
269.9875478234
 51
49.9522076941
  0
LINE
  5
D0
330
5F
100
AcDbEntity
  8
D000124
  6
Continuous
 62
     7
100
AcDbLine
 10
80.5180594356
 20
167.2627899266
 30
0.0
 11
80.5180594356
 21
165.0973718775
 31
0.0
  0
ARC
  5
D1
330
5F
100
AcDbEntity
  8
D000124
  6
Continuous
 62
     7
100
AcDbCircle
 10
81.1180594356
 20
167.2627899266
 30
0.0
 40
0.5999999999999999
100
AcDbArc
 50
139.5009364639
 51
180.0
  0
ARC
  5
D2
330
5F
100
AcDbEntity
  8
D000124
  6
Continuous
 62
     7
100
AcDbCircle
 10
79.9180594356
 20
165.0973718775
 30
0.0
 40
0.5999986632310899
100
AcDbArc
 50
180.0
 51
0.0
  0
ARC
  5
D3
330
5F
100
AcDbEntity
  8
D000124
  6
Continuous
 62
     7
100
AcDbCircle
 10
73.8180602645
 20
173.4973718775
 30
0.0
 40
7.800000000000003
100
AcDbArc
 50
347.8478064934
 51
16.6966110964
  0
ARC
  5
D4
330
5F
100
AcDbEntity
  8
D000124
  6
Continuous
 62
     7
100
AcDbCircle
 10
80.8567217959
 20
171.9817057382
 30
0.0
 40
0.5999999999999999
100
AcDbArc
 50
224.9999944355
 51
347.8478064934
  0
ARC
  5
D5
330
5F
100
AcDbEntity
  8
D000124
  6
Continuous
 62
     7
100
AcDbCircle
 10
80.7145045913
 20
175.5659597164
 30
0.0
 40
0.5999999999999992
100
AcDbArc
 50
16.6966110964
 51
149.9999944355
  0
LINE
  5
D6
330
5F
100
AcDbEntity
  8
D000124
  6
Continuous
 62
     7
100
AcDbLine
 10
79.3180607723
 20
165.0973718775
 30
0.0
 11
79.3180607723
 21
169.0199615163
 31
0.0
  0
ARC
  5
D7
330
5F
100
AcDbEntity
  8
D000124
  6
Continuous
 62
     7
100
AcDbCircle
 10
68.4487614279
 20
175.3208663263
 30
0.0
 40
0.5999999999995183
100
AcDbArc
 50
210.0000055645
 51
30.0000055645
  0
LINE
  5
D8
330
5F
100
AcDbEntity
  8
D000124
  6
Continuous
 62
     7
100
AcDbLine
 10
68.968376641
 20
175.6208663768
 30
0.0
 11
68.4844964697
 21
176.4589712303
 31
0.0
  0
ARC
  5
D9
330
5F
100
AcDbEntity
  8
D000124
  6
Continuous
 62
     7
100
AcDbCircle
 10
68.9175091482
 20
176.7089712708
 30
0.0
 40
0.4999999999999996
100
AcDbArc
 50
90.0159080937
 51
210.0000053659
  0
LINE
  5
DA
330
5F
100
AcDbEntity
  8
D000124
  6
Continuous
 62
     7
100
AcDbLine
 10
68.9173703239
 20
177.2089712516
 30
0.0
 11
70.7182049198
 21
177.2094712508
 31
0.0
  0
ARC
  5
DB
330
5F
100
AcDbEntity
  8
D000124
  6
Continuous
 62
     7
100
AcDbCircle
 10
70.7180383306
 20
177.8094712159
 30
0.0
 40
0.5999999882024643
100
AcDbArc
 50
270.0159080937
 51
91.1026814103
  0
LINE
  5
DC
330
5F
100
AcDbEntity
  8
D000124
  6
Continuous
 62
     7
100
AcDbLine
 10
70.7064917909
 20
178.4093600917
 30
0.0
 11
69.1855208064
 21
178.4090295368
 31
0.0
  0
ARC
  5
DD
330
5F
100
AcDbEntity
  8
D000124
  6
Continuous
 62
     7
100
AcDbCircle
 10
69.1853904075
 20
179.0090295226
 30
0.0
 40
0.6000000000000008
100
AcDbArc
 50
130.0477923059
 51
270.0124521766
  0
ARC
  5
DE
330
5F
100
AcDbEntity
  8
D000124
  6
Continuous
 62
     7
100
AcDbCircle
 10
73.8180602645
 20
173.4973718775
 30
0.0
 40
9.000000000000004
100
AcDbArc
 50
319.5009364639
 51
220.4990623979
  0
ARC
  5
DF
330
5F
100
AcDbEntity
  8
D000124
  6
Continuous
 62
     7
100
AcDbCircle
 10
66.5180609695
 20
167.2627900717
 30
0.0
 40
0.6000000000000005
100
AcDbArc
 50
0.0
 51
40.4990623979
  0
LINE
  5
E0
330
5F
100
AcDbEntity
  8
D000124
  6
Continuous
 62
     7
100
AcDbLine
 10
67.1180597798
 20
165.0973722072
 30
0.0
 11
67.1180609695
 21
167.262789742
 31
0.0
  0
ARC
  5
E1
330
5F
100
AcDbEntity
  8
D000124
  6
Continuous
 62
     7
100
AcDbCircle
 10
67.7180597798
 20
165.0973718775
 30
0.0
 40
0.6000000000000002
100
AcDbArc
 50
179.9999685195
 51
0.0
  0
LINE
  5
E2
330
5F
100
AcDbEntity
  8
D000124
  6
Continuous
 62
     7
100
AcDbLine
 10
67.2036627992
 20
171.557441437
 30
0.0
 11
67.381413308
 21
171.7351919096
 31
0.0
  0
ARC
  5
E3
330
5F
100
AcDbEntity
  8
D000124
  6
Continuous
 62
     7
100
AcDbCircle
 10
66.7793987738
 20
171.981705549
 30
0.0
 40
0.5999999999999984
100
AcDbArc
 50
192.1521950464
 51
314.9999941496
  0
ARC
  5
E4
330
5F
100
AcDbEntity
  8
D000124
  6
Continuous
 62
     7
100
AcDbCircle
 10
73.8180602645
 20
173.4973718775
 30
0.0
 40
7.800000000000003
100
AcDbArc
 50
163.3033889036
 51
192.1521950464
  0
LINE
  5
E5
330
5F
100
AcDbEntity
  8
D000124
  6
Continuous
 62
     7
100
AcDbLine
 10
67.4412311508
 20
175.8659597669
 30
0.0
 11
67.9291462148
 21
175.0208662758
 31
0.0
  0
ARC
  5
E6
330
5F
100
AcDbEntity
  8
D000124
  6
Continuous
 62
     7
100
AcDbCircle
 10
66.9216159377
 20
175.5659597164
 30
0.0
 40
0.5999999999999998
100
AcDbArc
 50
30.0000055645
 51
163.3033889036
  0
LINE
  5
E9
330
5F
100
AcDbEntity
  8
DV1_Standard
  6
CENTER2
 62
     7
100
AcDbLine
 10
73.8180602645
 20
160.9973714742
 30
0.0
 11
73.8180602645
 21
170.9973714742
 31
0.0
  0
ENDBLK
  5
EB
330
5F
100
AcDbEntity
  8
0
100
AcDbBlockEnd
  0
BLOCK
  5
EE
330
ED
100
AcDbEntity
  8
0
100
AcDbBlockBegin
  2
_Oblique
 70
     0
 10
0.0
 20
0.0
 30
0.0
  3
_Oblique
  1

  0
LINE
  5
F0
330
ED
100
AcDbEntity
  8
0
  6
ByBlock
 62
     0
370
    -2
100
AcDbLine
 10
-0.5
 20
-0.5
 30
0.0
 11
0.5
 21
0.5
 31
0.0
  0
ENDBLK
  5
EF
330
ED
100
AcDbEntity
  8
0
100
AcDbBlockEnd
  0
BLOCK
  5
F2
330
F1
100
AcDbEntity
  8
0
100
AcDbBlockBegin
  2
_Dot
 70
     0
 10
0.0
 20
0.0
 30
0.0
  3
_Dot
  1

  0
LWPOLYLINE
  5
F4
330
F1
100
AcDbEntity
  8
0
  6
ByBlock
 62
     0
100
AcDbPolyline
 90
        2
 70
     1
 43
0.5
 10
-0.25
 20
0.0
 42
1.0
 10
0.25
 20
0.0
 42
1.0
  0
LINE
  5
F5
330
F1
100
AcDbEntity
  8
0
  6
ByBlock
 62
     0
370
    -2
100
AcDbLine
 10
-0.5
 20
0.0
 30
0.0
 11
-1.0
 21
0.0
 31
0.0
  0
ENDBLK
  5
F3
330
F1
100
AcDbEntity
  8
0
100
AcDbBlockEnd
  0
BLOCK
  5
FA
330
F6
100
AcDbEntity
  8
0
100
AcDbBlockBegin
  2
_SE_OPEN
 70
     0
 10
0.0
 20
0.0
 30
0.0
  3
_SE_OPEN
  1

  0
LINE
  5
F7
330
F6
100
AcDbEntity
  8
0
 62
     0
100
AcDbLine
 10
0.0
 20
0.0
 30
0.0
 11
-1.0
 21
-0.1665
 31
0.0
  0
LINE
  5
F8
330
F6
100
AcDbEntity
  8
0
 62
     0
100
AcDbLine
 10
-1.0
 20
0.1665
 30
0.0
 11
0.0
 21
0.0
 31
0.0
  0
LINE
  5
F9
330
F6
100
AcDbEntity
  8
0
 62
     0
100
AcDbLine
 10
0.0
 20
0.0
 30
0.0
 11
-1.0
 21
0.0
 31
0.0
  0
ENDBLK
  5
FB
330
F6
100
AcDbEntity
  8
0
100
AcDbBlockEnd
  0
BLOCK
  5
106
330
FF
100
AcDbEntity
  8
0
100
AcDbBlockBegin
  2
DMBLK400
 70
     0
 10
0.0
 20
0.0
 30
0.0
  3
DMBLK400
  1

  0
LWPOLYLINE
  5
100
330
FF
100
AcDbEntity
  8
Standard
  6
Continuous
 62
     7
100
AcDbPolyline
 90
        3
 70
     0
 43
0.0
 10
70.8680596959
 20
154.8998050357
 10
67.1180597798
 20
154.2748050497
 10
70.8680596959
 20
153.6498050637
  0
LWPOLYLINE
  5
101
330
FF
100
AcDbEntity
  8
Standard
  6
Continuous
 62
     7
100
AcDbPolyline
 90
        3
 70
     0
 43
0.0
 10
76.7680594523
 20
154.8998050357
 10
80.5180593685
 20
154.2748050497
 10
76.7680594523
 20
153.6498050637
  0
LINE
  5
102
330
FF
100
AcDbEntity
  8
Standard
  6
Continuous
 62
     7
100
AcDbLine
 10
67.1180597798
 20
164.3473722006
 30
0.0
 11
67.1180597798
 21
153.0248050777
 31
0.0
  0
LINE
  5
103
330
FF
100
AcDbEntity
  8
Standard
  6
Continuous
 62
     7
100
AcDbLine
 10
80.5180594356
 20
164.347371871
 30
0.0
 11
80.5180594356
 21
153.0248050777
 31
0.0
  0
LINE
  5
104
330
FF
100
AcDbEntity
  8
Standard
  6
Continuous
 62
     7
100
AcDbLine
 10
67.1180597798
 20
154.2748050497
 30
0.0
 11
80.5180593685
 21
154.2748050497
 31
0.0
  0
TEXT
  5
105
330
FF
100
AcDbEntity
  8
Standard
  6
Continuous
 62
     7
100
AcDbText
 10
71.861537835
 20
154.8998050497
 30
0.0
 40
2.5
  1
13
  7
SEACAD_Arial
 11
71.861537835
 21
157.3998050497
 31
0.0
100
AcDbText
 73
     3
  0
ENDBLK
  5
107
330
FF
100
AcDbEntity
  8
0
100
AcDbBlockEnd
  0
BLOCK
  5
10E
330
109
100
AcDbEntity
  8
0
100
AcDbBlockBegin
  2
DMBLK401
 70
     0
 10
0.0
 20
0.0
 30
0.0
  3
DMBLK401
  1

  0
LINE
  5
10A
330
109
100
AcDbEntity
  8
Standard
  6
Continuous
 62
     7
100
AcDbLine
 10
73.8180602645
 20
173.4973718775
 30
0.0
 11
90.5866876643
 21
184.6244439984
 31
0.0
  0
LWPOLYLINE
  5
10B
330
109
100
AcDbEntity
  8
Standard
  6
Continuous
 62
     7
100
AcDbPolyline
 90
        3
 70
     0
 43
0.0
 10
84.7874544544
 20
180.0261936664
 10
81.3172313877
 20
178.4735584159
 10
84.0963174506
 20
181.067745188
  0
TEXT
  5
10C
330
109
100
AcDbEntity
  8
Standard
  6
Continuous
 62
     7
100
AcDbText
 10
84.5488140878
 20
181.3680060786
 30
0.0
 40
2.5
  1
R
 50
33.5668546422
  7
SEACAD_Arial
 11
83.1665400493
 21
183.4511091684
 31
0.0
100
AcDbText
 73
     3
  0
TEXT
  5
10D
330
109
100
AcDbEntity
  8
Standard
  6
Continuous
 62
     7
100
AcDbText
 10
87.8817790314
 20
183.5796445401
 30
0.0
 40
2.5
  1
9
 50
33.5668546422
  7
SEACAD_Arial
 11
86.499504993
 21
185.6627476299
 31
0.0
100
AcDbText
 73
     3
  0
ENDBLK
  5
10F
330
109
100
AcDbEntity
  8
0
100
AcDbBlockEnd
  0
BLOCK
  5
11A
330
111
100
AcDbEntity
  8
0
100
AcDbBlockBegin
  2
DMBLK402
 70
     0
 10
0.0
 20
0.0
 30
0.0
  3
DMBLK402
  1

  0
LWPOLYLINE
  5
112
330
111
100
AcDbEntity
  8
Standard
  6
Continuous
 62
     7
100
AcDbPolyline
 90
        3
 70
     0
 43
0.0
 10
60.3086794481
 20
168.2473717937
 10
59.6836794621
 20
164.4973718775
 10
59.0586794761
 20
168.2473717937
  0
LWPOLYLINE
  5
113
330
111
100
AcDbEntity
  8
Standard
  6
Continuous
 62
     7
100
AcDbPolyline
 90
        3
 70
     0
 43
0.0
 10
60.3086794481
 20
178.7473711865
 10
59.6836794621
 20
182.4973711026
 10
59.0586794761
 20
178.7473711865
  0
LINE
  5
114
330
111
100
AcDbEntity
  8
Standard
  6
Continuous
 62
     7
100
AcDbLine
 10
66.9680596084
 20
164.4973718775
 30
0.0
 11
58.43367949
 21
164.4973718775
 31
0.0
  0
LINE
  5
115
330
111
100
AcDbEntity
  8
Standard
  6
Continuous
 62
     7
100
AcDbLine
 10
72.6381850135
 20
182.4973718775
 30
0.0
 11
58.43367949
 21
182.4973718775
 31
0.0
  0
LINE
  5
116
330
111
100
AcDbEntity
  8
Standard
  6
Continuous
 62
     7
100
AcDbLine
 10
59.6836794621
 20
164.4973718775
 30
0.0
 11
59.6836794621
 21
182.4973711026
 31
0.0
  0
TEXT
  5
117
330
111
100
AcDbEntity
  8
Standard
  6
Continuous
 62
     7
100
AcDbText
 10
59.0586794621
 20
169.5272627944
 30
0.0
 40
2.5
  1
18
 50
90.0
  7
SEACAD_Arial
 11
56.5586794621
 21
169.5272627944
 31
0.0
100
AcDbText
 73
     3
  0
TEXT
  5
118
330
111
100
AcDbEntity
  8
Standard
  6
Continuous
 62
     7
100
AcDbText
 10
56.0586794621
 20
174.6903062727
 30
0.0
 40
1.75
  1
+4
 50
90.0
  7
SEACAD_Arial
 11
54.3086794621
 21
174.6903062727
 31
0.0
100
AcDbText
 73
     3
  0
TEXT
  5
119
330
111
100
AcDbEntity
  8
Standard
  6
Continuous
 62
     7
100
AcDbText
 10
59.0586794621
 20
176.0979149683
 30
0.0
 40
1.75
  1
0
 50
90.0
  7
SEACAD_Arial
 11
57.3086794621
 21
176.0979149683
 31
0.0
100
AcDbText
 73
     3
  0
ENDBLK
  5
11B
330
111
100
AcDbEntity
  8
0
100
AcDbBlockEnd
  0
BLOCK
  5
1A3
330
11C
100
AcDbEntity
  8
0
100
AcDbBlockBegin
  2
SE1
 70
     0
 10
0.0
 20
0.0
 30
0.0
  3
SE1
  1

  0
HATCH
  5
11F
330
11C
100
AcDbEntity
  8
DV2_Füllung
  6
Continuous
 62
     7
100
AcDbHatch
 10
0.0
 20
0.0
 30
0.0
210
0.0
220
0.0
230
1.0
  2
SOLID
 70
     1
 71
     0
 91
        1
 92
        1
 93
       46
 72
     2
 10
144.1753695345792
 20
175.5659597164138
 40
0.5999999999999992
 50
210.0000055645217
 51
343.3033889036461
 73
     0
 72
     2
 10
137.2789252077752
 20
173.497371877502
 40
7.800000000000003
 50
343.3033889036473
 51
372.152193506586
 73
     0
 72
     2
 10
144.3175867392106
 20
171.9817057381787
 40
0.5999999999999999
 50
12.15219350658496
 51
135.0000055645243
 73
     0
 72
     1
 10
143.8933226292945
 20
171.557441710671
 11
143.7153197409754
 21
171.735444633565
 72
     2
 10
143.5031876860174
 20
171.5233126198111
 40
0.3000000000000012
 50
44.99999443548144
 51
134.9999944354738
 73
     1
 72
     1
 10
143.2910556722635
 20
171.7354446747692
 11
142.8667920610921
 21
171.311181146006
 72
     2
 10
143.078924074846
 20
171.099049091048
 40
0.3000000000000005
 50
134.9999944354853
 51
224.9999944354814
 73
     1
 72
     1
 10
142.8667920198879
 20
170.8869170772941
 11
143.4734939043508
 21
170.2802150749864
 72
     2
 10
143.1906511644067
 20
169.9973723899813
 40
0.4
 50
315.0000055645224
 51
405.0000000000029
 73
     0
 72
     1
 10
143.4734938768813
 20
169.7145296775066
 11
142.7789257156419
 21
169.0199615162673
 72
     1
 10
142.7789257156419
 20
169.0199615162673
 11
142.7789257156419
 21
165.0973718775021
 72
     2
 10
143.378924378873
 20
165.0973718775021
 40
0.5999986632310899
 50
180.0
 51
360.0
 73
     1
 72
     1
 10
143.9789230421041
 20
165.0973718775021
 11
143.978924378873
 21
167.2627899266434
 72
     2
 10
144.578924378873
 20
167.2627899266435
 40
0.5999999999999999
 50
179.9999999999974
 51
220.4990635361342
 73
     0
 72
     2
 10
137.2789252077752
 20
173.497371877502
 40
9.000000000000004
 50
319.500936463863
 51
580.4990623979098
 73
     1
 72
     2
 10
129.9789259128224
 20
167.2627900716639
 40
0.6000000000000005
 50
319.5009376020885
 51
359.9999999999999
 73
     0
 72
     1
 10
130.5789259128224
 20
167.2627900716639
 11
130.5789247230602
 21
165.0973722071653
 72
     2
 10
131.1789247230601
 20
165.0973718775026
 40
0.6000000000000002
 50
179.999968519534
 51
360.0
 73
     1
 72
     1
 10
131.7789247230601
 20
165.0973718775026
 11
131.7789254617086
 21
169.0199615162678
 72
     1
 10
131.7789254617086
 20
169.0199615162678
 11
131.0843573004693
 21
169.7145296775072
 72
     2
 10
131.3672000129439
 20
169.9973723899818
 40
0.4000000000000012
 50
135.0000000000029
 51
225.0000055645253
 73
     0
 72
     1
 10
131.0843573279388
 20
170.2802151299259
 11
131.691058853203
 21
170.8869165373454
 72
     2
 10
131.4789268394492
 20
171.0990485923034
 40
0.2999999999999994
 50
314.9999944354738
 51
405.0000055645224
 73
     1
 72
     1
 10
131.6910588532031
 20
171.3111806472615
 11
131.2667947432869
 21
171.7354446747692
 72
     2
 10
131.054662729533
 20
171.5233126198112
 40
0.3000000000000004
 50
45.00000556451855
 51
135.0682244216584
 73
     1
 72
     1
 10
130.8422782513581
 20
171.7351919095739
 11
130.6645277424642
 21
171.55744143698
 72
     2
 10
130.2402637170736
 20
171.9817055490133
 40
0.5999999999999984
 50
45.00000585044734
 51
167.8478049535798
 73
     0
 72
     2
 10
137.2789252077752
 20
173.497371877502
 40
7.800000000000003
 50
167.8478049535789
 51
196.6966110963527
 73
     0
 72
     2
 10
130.3824808809713
 20
175.5659597164138
 40
0.5999999999999998
 50
196.6966110963547
 51
329.9999944354782
 73
     0
 72
     1
 10
130.9020960941062
 20
175.8659597668784
 11
131.3900111580859
 21
175.020866275831
 72
     2
 10
131.9096263712204
 20
175.3208663262954
 40
0.5999999999995183
 50
210.000005564521
 51
390.0000055645233
 73
     1
 72
     1
 10
132.4292415843549
 20
175.6208663767598
 11
131.9453614130302
 21
176.4589712302929
 72
     2
 10
132.3783740915092
 20
176.7089712708458
 40
0.4999999999999996
 50
149.9999946340834
 51
269.9840919062748
 73
     0
 72
     1
 10
132.3782352672044
 20
177.2089712515736
 11
134.1790698630733
 21
177.2094712508147
 72
     2
 10
134.1789032739107
 20
177.8094712158906
 40
0.5999999882024643
 50
270.0159080937281
 51
451.1026814102604
 73
     1
 72
     1
 10
134.1673567342227
 20
178.4093600916536
 11
132.6463857497427
 21
178.4090295367713
 72
     2
 10
132.646255350855
 20
179.0090295226015
 40
0.6000000000000008
 50
89.98754782336805
 51
229.9522076940492
 73
     0
 72
     2
 10
137.2789252077752
 20
173.497371877502
 40
7.800000000000004
 50
229.9522076940484
 51
310.0477923059512
 73
     0
 72
     2
 10
141.9115950646955
 20
179.0090295226015
 40
0.5999999999999998
 50
310.0477923059487
 51
450.012452176632
 73
     0
 72
     1
 10
141.9114646658077
 20
178.4090295367714
 11
140.3904936813277
 21
178.4093600916536
 72
     2
 10
140.3789471416397
 20
177.8094712158906
 40
0.5999999882024668
 50
88.89731858974234
 51
269.9840919062719
 73
     1
 72
     1
 10
140.3787805524772
 20
177.2094712508147
 11
142.1796151483461
 21
177.2089712515736
 72
     2
 10
142.1794763240412
 20
176.7089712708458
 40
0.5000000000000022
 50
270.0159080937252
 51
390.0000053659166
 73
     0
 72
     1
 10
142.6124890025202
 20
176.4589712302929
 11
142.1286088311956
 21
175.6208663767598
 72
     2
 10
142.64822404433
 20
175.3208663262954
 40
0.599999999999518
 50
149.999994435479
 51
329.999994435478
 73
     1
 72
     1
 10
143.1678392574645
 20
175.020866275831
 11
143.6557543214443
 21
175.8659597668784
 97
        0
 75
     0
 76
     1
 98
        0
  0
HATCH
  5
120
330
11C
100
AcDbEntity
  8
DV2_Füllung
  6
Continuous
 62
     7
100
AcDbHatch
 10
0.0
 20
0.0
 30
0.0
210
0.0
220
0.0
230
1.0
  2
SOLID
 70
     1
 71
     0
 91
        1
 92
        1
 93
       20
 72
     1
 10
131.8789252077752
 20
173.49737147424
 11
131.8789252077752
 21
165.1370068197134
 72
     1
 10
131.8789252077752
 20
165.1370068197134
 11
131.8789252077752
 21
164.49737147424
 72
     1
 10
131.8789252077752
 20
164.49737147424
 11
135.7114625264448
 21
164.49737147424
 72
     1
 10
135.7114625264448
 20
164.49737147424
 11
138.8463878891057
 21
164.49737147424
 72
     1
 10
138.8463878891057
 20
164.49737147424
 11
142.6789252077753
 21
164.49737147424
 72
     1
 10
142.6789252077753
 20
164.49737147424
 11
142.6789252077753
 21
165.1370068197134
 72
     1
 10
142.6789252077753
 20
165.1370068197134
 11
142.6789252077753
 21
173.49737147424
 72
     1
 10
142.6789252077753
 20
173.49737147424
 11
138.8289252077753
 21
173.49737147424
 72
     1
 10
138.8289252077753
 20
173.49737147424
 11
138.8289252077753
 21
170.8872827856088
 72
     1
 10
138.8289252077753
 20
170.8872827856088
 11
138.4607271562413
 21
170.3614414722242
 72
     3
 10
138.5667931734193
 20
170.2099635012084
 11
-2.168404344971009E-16
 21
0.2142222010113174
 40
0.7002075382097079
 50
34.99999999998551
 51
144.9999999999942
 73
     1
 72
     1
 10
138.4607271562413
 20
170.0584855301926
 11
138.8289252077753
 21
169.5326442168081
 72
     1
 10
138.8289252077753
 20
169.5326442168081
 11
138.8289252077753
 21
167.49737147424
 72
     1
 10
138.8289252077753
 20
167.49737147424
 11
135.7289252077752
 21
167.49737147424
 72
     1
 10
135.7289252077752
 20
167.49737147424
 11
135.7289252077752
 21
169.5326442168081
 72
     1
 10
135.7289252077752
 20
169.5326442168081
 11
136.0971232593092
 21
170.0584855301926
 72
     3
 10
135.9910572421312
 20
170.2099635012084
 11
0.0
 21
-0.2142222010113174
 40
0.7002075382097097
 50
35.00000000000582
 51
145.0000000000144
 73
     1
 72
     1
 10
136.0971232593092
 20
170.3614414722243
 11
135.7289252077753
 21
170.8872827856088
 72
     1
 10
135.7289252077753
 20
170.8872827856088
 11
135.7289252077752
 21
173.49737147424
 72
     1
 10
135.7289252077752
 20
173.49737147424
 11
131.8789252077752
 21
173.49737147424
 97
        0
 75
     0
 76
     1
 98
        0
  0
HATCH
  5
121
330
11C
100
AcDbEntity
  8
DV2_Füllung
  6
Continuous
 62
     7
100
AcDbHatch
 10
0.0
 20
0.0
 30
0.0
210
0.0
220
0.0
230
1.0
  2
SOLID
 70
     1
 71
     0
 91
        1
 92
        1
 93
        9
 72
     1
 10
131.7289252077752
 20
170.49737147424
 11
131.7289252077752
 21
169.0699617702013
 72
     1
 10
131.7289252077752
 20
169.0699617702012
 11
131.7789254617087
 21
169.0199615162678
 72
     1
 10
131.7789254617087
 20
169.0199615162678
 11
131.7789254617086
 21
165.0973718775026
 72
     2
 10
131.1789247230601
 20
165.0973718775026
 40
0.6000000000000002
 50
0.0
 51
23.55634849104046
 73
     0
 72
     1
 10
131.7289252077752
 20
164.857581413111
 11
131.7289252077752
 21
164.49737147424
 72
     1
 10
131.7289252077752
 20
164.49737147424
 11
131.8789252077752
 21
164.49737147424
 72
     1
 10
131.8789252077752
 20
164.49737147424
 11
131.8789252077752
 21
165.1370068197134
 72
     1
 10
131.8789252077752
 20
165.1370068197134
 11
131.8789252077752
 21
170.49737147424
 72
     1
 10
131.8789252077752
 20
170.49737147424
 11
131.7289252077752
 21
170.49737147424
 97
        0
 75
     0
 76
     1
 98
        0
  0
HATCH
  5
123
330
11C
100
AcDbEntity
  8
DV2_Füllung
  6
Continuous
 62
     7
100
AcDbHatch
 10
0.0
 20
0.0
 30
0.0
210
0.0
220
0.0
230
1.0
  2
SOLID
 70
     1
 71
     0
 91
        1
 92
        1
 93
        9
 72
     1
 10
142.6789252077753
 20
170.49737147424
 11
142.6789252077753
 21
165.1370068197134
 72
     1
 10
142.6789252077753
 20
165.1370068197134
 11
142.6789252077753
 21
164.49737147424
 72
     1
 10
142.6789252077753
 20
164.49737147424
 11
142.8289252077753
 21
164.49737147424
 72
     1
 10
142.8289252077753
 20
164.49737147424
 11
142.8289252077753
 21
164.8575784001267
 72
     2
 10
143.378924378873
 20
165.0973718775021
 40
0.5999986632310899
 50
156.4436304236219
 51
180.0
 73
     0
 72
     1
 10
142.7789257156419
 20
165.0973718775021
 11
142.7789257156419
 21
169.0199615162673
 72
     1
 10
142.7789257156419
 20
169.0199615162673
 11
142.8289252077753
 21
169.0699610084006
 72
     1
 10
142.8289252077753
 20
169.0699610084006
 11
142.8289252077753
 21
170.49737147424
 72
     1
 10
142.8289252077753
 20
170.49737147424
 11
142.6789252077753
 21
170.49737147424
 97
        0
 75
     0
 76
     1
 98
        0
  0
HATCH
  5
124
330
11C
100
AcDbEntity
  8
DV2_Füllung
  6
Continuous
 62
     7
100
AcDbHatch
 10
0.0
 20
0.0
 30
0.0
210
0.0
220
0.0
230
1.0
  2
SOLID
 70
     1
 71
     0
 91
        1
 92
        1
 93
        7
 72
     1
 10
135.7289252077752
 20
173.49737147424
 11
135.7289252077752
 21
170.8872827856088
 72
     1
 10
135.7289252077752
 20
170.8872827856088
 11
136.0971232593092
 21
170.3614414722242
 72
     3
 10
135.9910572421312
 20
170.2099635012084
 11
0.0
 21
0.2142222010113174
 40
0.7002075382097097
 50
34.9999999999856
 51
90.0
 73
     0
 72
     1
 10
136.1410572421312
 20
170.2099635012084
 11
136.1410572421312
 21
173.2099635012084
 72
     3
 10
135.9910572421312
 20
173.2099635012084
 11
2.168404344971009E-15
 21
-0.214222201011317
 40
0.7002075382097086
 50
89.99999999999942
 51
145.0000000000041
 73
     1
 72
     1
 10
136.0971232593092
 20
173.3614414722243
 11
136.0019440472289
 21
173.49737147424
 72
     1
 10
136.0019440472289
 20
173.49737147424
 11
135.7289252077753
 21
173.49737147424
 97
        0
 75
     0
 76
     1
 98
        0
  0
HATCH
  5
125
330
11C
100
AcDbEntity
  8
DV2_Füllung
  6
Continuous
 62
     7
100
AcDbHatch
 10
0.0
 20
0.0
 30
0.0
210
0.0
220
0.0
230
1.0
  2
SOLID
 70
     1
 71
     0
 91
        1
 92
        1
 93
        7
 72
     1
 10
138.4167931734193
 20
173.2099635012084
 11
138.4167931734193
 21
170.2099635012084
 72
     3
 10
138.5667931734193
 20
170.2099635012084
 11
2.168404344971009E-16
 21
-0.2142222010113174
 40
0.7002075382097079
 50
90.00001472479236
 51
145.0000000000145
 73
     0
 72
     1
 10
138.4607271562413
 20
170.3614414722243
 11
138.8289252077752
 21
170.8872827856088
 72
     1
 10
138.8289252077752
 20
170.8872827856088
 11
138.8289252077753
 21
173.49737147424
 72
     1
 10
138.8289252077753
 20
173.49737147424
 11
138.5559063683216
 21
173.49737147424
 72
     1
 10
138.5559063683216
 20
173.49737147424
 11
138.4607271562413
 21
173.3614414722243
 72
     3
 10
138.5667931734193
 20
173.2099635012084
 11
2.168404344971009E-16
 21
0.2142222010113179
 40
0.7002075382097077
 50
34.9999999999958
 51
90.00000000000006
 73
     1
 97
        0
 75
     0
 76
     1
 98
        0
  0
HATCH
  5
126
330
11C
100
AcDbEntity
  8
DV2_Füllung
  6
Continuous
 62
     7
100
AcDbHatch
 10
0.0
 20
0.0
 30
0.0
210
0.0
220
0.0
230
1.0
  2
SOLID
 70
     1
 71
     0
 91
        1
 92
        1
 93
       24
 72
     1
 10
132.1050293878435
 20
173.49737147424
 11
135.7289252077753
 21
173.49737147424
 72
     1
 10
135.7289252077752
 20
173.49737147424
 11
136.0019440472289
 21
173.49737147424
 72
     1
 10
136.0019440472289
 20
173.49737147424
 11
136.0971232593092
 21
173.3614414722243
 72
     3
 10
135.9910572421312
 20
173.2099635012084
 11
-2.168404344971009E-15
 21
0.214222201011317
 40
0.7002075382097086
 50
34.99999999999594
 51
90.00000000000058
 73
     0
 72
     1
 10
136.1410572421312
 20
173.2099635012084
 11
136.1410572421312
 21
172.8761553450581
 72
     1
 10
136.1410572421312
 20
172.8761553450581
 11
138.4167931734193
 21
172.8761553450581
 72
     1
 10
138.4167931734193
 20
172.8761553450581
 11
138.4167931734193
 21
173.2099635090414
 72
     3
 10
138.5667931734193
 20
173.2099635012084
 11
-2.168404344971009E-16
 21
-0.2142222010113179
 40
0.7002075382097077
 50
89.99999999999991
 51
145.0000000000042
 73
     0
 72
     1
 10
138.4607271562413
 20
173.3614414722243
 11
138.5559063683216
 21
173.49737147424
 72
     1
 10
138.5559063683216
 20
173.49737147424
 11
138.8289252077753
 21
173.49737147424
 72
     1
 10
138.8289252077752
 20
173.49737147424
 11
142.452821027707
 21
173.49737147424
 72
     1
 10
142.452821027707
 20
173.49737147424
 11
141.2986677490634
 21
176.6683815459028
 72
     2
 10
140.8288214386704
 20
176.49737147424
 40
0.5000000000000022
 50
19.99999999999953
 51
90.0
 73
     1
 72
     1
 10
140.8288214386704
 20
176.99737147424
 11
138.1936130139962
 21
176.99737147424
 72
     3
 10
138.1936130139962
 20
176.49737147424
 11
1.084202172485504E-16
 21
0.5000000000000022
 40
0.3057306814586604
 50
0.0
 51
40.02986098536152
 73
     1
 72
     1
 10
138.0499665813389
 20
176.6683815459028
 11
138.0909614277163
 21
177.036785574568
 72
     3
 10
138.2920664334364
 20
176.79737147424
 11
-2.168404344971009E-16
 21
-0.6999999999999992
 40
0.3057306814586611
 50
139.9701390146379
 51
180.0
 73
     0
 72
     1
 10
138.2920664334364
 20
177.49737147424
 11
136.265783982114
 21
177.49737147424
 72
     3
 10
136.265783982114
 20
176.79737147424
 11
1.517883041479706E-15
 21
0.7000000000000079
 40
0.3057306814586578
 50
0.0
 51
40.02986098535838
 73
     0
 72
     1
 10
136.4668889878342
 20
177.036785574568
 11
136.5078838342116
 21
176.6683815459028
 72
     3
 10
136.3642374015543
 20
176.49737147424
 11
2.168404344971009E-16
 21
-0.5000000000000004
 40
0.3057306814586597
 50
139.9701390146387
 51
180.0
 73
     1
 72
     1
 10
136.3642374015543
 20
176.99737147424
 11
133.7290289768801
 21
176.99737147424
 72
     2
 10
133.7290289768801
 20
176.49737147424
 40
0.5000000000000022
 50
90.0
 51
160.0000000000005
 73
     1
 72
     1
 10
133.2591826664871
 20
176.6683815459028
 11
132.1050293878435
 21
173.49737147424
 97
        0
 75
     0
 76
     1
 98
        0
  0
HATCH
  5
127
330
11C
100
AcDbEntity
  8
DV2_Füllung
  6
Continuous
 62
     7
100
AcDbHatch
 10
0.0
 20
0.0
 30
0.0
210
0.0
220
0.0
230
1.0
  2
SOLID
 70
     1
 71
     0
 91
        1
 92
        1
 93
        4
 72
     1
 10
131.8289252077753
 20
171.0650792994431
 11
131.8289252077753
 21
170.49737147424
 72
     1
 10
131.8289252077753
 20
170.49737147424
 11
131.8789252077752
 21
170.49737147424
 72
     1
 10
131.8789252077752
 20
170.49737147424
 11
131.8789252077752
 21
171.0939570842131
 72
     2
 10
132.4789252077752
 20
169.99737147424
 40
1.25
 50
118.6854020141194
 51
121.3322514975938
 73
     1
 97
        0
 75
     0
 76
     1
 98
        0
  0
HATCH
  5
128
330
11C
100
AcDbEntity
  8
DV2_Füllung
  6
Continuous
 62
     7
100
AcDbHatch
 10
0.0
 20
0.0
 30
0.0
210
0.0
220
0.0
230
1.0
  2
SOLID
 70
     1
 71
     0
 91
        1
 92
        1
 93
       10
 72
     1
 10
135.7289252077752
 20
169.5326442168081
 11
135.7289252077752
 21
167.49737147424
 72
     1
 10
135.7289252077752
 20
167.49737147424
 11
138.8289252077753
 21
167.49737147424
 72
     1
 10
138.8289252077753
 20
167.49737147424
 11
138.8289252077753
 21
169.5326442168081
 72
     1
 10
138.8289252077753
 20
169.5326442168081
 11
138.4607271562413
 21
170.0584855301927
 72
     3
 10
138.5667931734193
 20
170.2099635012084
 11
2.168404344971009E-16
 21
-0.2142222010113174
 40
0.7002075382097079
 50
35.00000000000578
 51
90.00001472479236
 73
     0
 72
     1
 10
138.4167931734193
 20
170.2099635397578
 11
138.4167931734193
 21
170.49737147424
 72
     1
 10
138.4167931734193
 20
170.49737147424
 11
136.1410572421312
 21
170.49737147424
 72
     1
 10
136.1410572421312
 20
170.49737147424
 11
136.1410572421312
 21
170.2099635012085
 72
     3
 10
135.9910572421312
 20
170.2099635012084
 11
0.0
 21
0.2142222010113174
 40
0.7002075382097097
 50
89.99999999999997
 51
144.9999999999942
 73
     0
 72
     1
 10
136.0971232593092
 20
170.0584855301926
 11
135.7289252077752
 21
169.5326442168081
 97
        0
 75
     0
 76
     1
 98
        0
  0
HATCH
  5
129
330
11C
100
AcDbEntity
  8
DV2_Füllung
  6
Continuous
 62
     7
100
AcDbHatch
 10
0.0
 20
0.0
 30
0.0
210
0.0
220
0.0
230
1.0
  2
SOLID
 70
     1
 71
     0
 91
        1
 92
        1
 93
        4
 72
     1
 10
136.1410572421312
 20
170.49737147424
 11
138.4167931734193
 21
170.49737147424
 72
     1
 10
138.4167931734193
 20
170.49737147424
 11
138.4167931734193
 21
172.8761553450581
 72
     1
 10
138.4167931734193
 20
172.8761553450581
 11
136.1410572421312
 21
172.8761553450581
 72
     1
 10
136.1410572421312
 20
172.8761553450581
 11
136.1410572421312
 21
170.49737147424
 97
        0
 75
     0
 76
     1
 98
        0
  0
HATCH
  5
12A
330
11C
100
AcDbEntity
  8
DV2_Füllung
  6
Continuous
 62
     7
100
AcDbHatch
 10
0.0
 20
0.0
 30
0.0
210
0.0
220
0.0
230
1.0
  2
SOLID
 70
     1
 71
     0
 91
        1
 92
        1
 93
        8
 72
     1
 10
142.8289252077753
 20
170.49737147424
 11
142.8289252077753
 21
169.0699610084006
 72
     1
 10
142.8289252077753
 20
169.0699610084006
 11
143.1965991347685
 21
169.4376349353939
 72
     2
 10
142.0789252077752
 20
169.99737147424
 40
1.25
 50
333.3980684597426
 51
386.6021251432742
 73
     1
 72
     1
 10
143.1965972434067
 20
170.5571117897144
 11
142.8667920198879
 21
170.8869170772941
 72
     2
 10
143.078924074846
 20
171.099049091048
 40
0.3000000000000005
 50
135.0000055645186
 51
166.1034821777095
 73
     0
 72
     2
 10
142.0789252077752
 20
169.99737147424
 40
1.25
 50
55.45706556660554
 51
58.66774850240402
 73
     1
 72
     1
 10
142.7289252077753
 20
171.0650792994431
 11
142.7289252077753
 21
170.49737147424
 72
     1
 10
142.7289252077753
 20
170.49737147424
 11
142.8289252077753
 21
170.49737147424
 97
        0
 75
     0
 76
     1
 98
        0
  0
HATCH
  5
12B
330
11C
100
AcDbEntity
  8
DV2_Füllung
  6
Continuous
 62
     7
100
AcDbHatch
 10
0.0
 20
0.0
 30
0.0
210
0.0
220
0.0
230
1.0
  2
SOLID
 70
     1
 71
     0
 91
        1
 92
        1
 93
        4
 72
     1
 10
142.6789252077753
 20
171.0939570842131
 11
142.6789252077753
 21
170.49737147424
 72
     1
 10
142.6789252077753
 20
170.49737147424
 11
142.7289252077752
 21
170.49737147424
 72
     1
 10
142.7289252077753
 20
170.49737147424
 11
142.7289252077753
 21
171.0650792994431
 72
     2
 10
142.0789252077752
 20
169.99737147424
 40
1.25
 50
58.66774850240402
 51
61.31459798587944
 73
     1
 97
        0
 75
     0
 76
     1
 98
        0
  0
HATCH
  5
12C
330
11C
100
AcDbEntity
  8
DV2_Füllung
  6
Continuous
 62
     7
100
AcDbHatch
 10
0.0
 20
0.0
 30
0.0
210
0.0
220
0.0
230
1.0
  2
SOLID
 70
     1
 71
     0
 91
        1
 92
        1
 93
        6
 72
     1
 10
136.265783982114
 20
177.49737147424
 11
135.2789252077752
 21
177.49737147424
 72
     1
 10
135.2789252077752
 20
177.49737147424
 11
135.2789252077752
 21
176.99737147424
 72
     1
 10
135.2789252077752
 20
176.99737147424
 11
136.3642374015544
 21
176.99737147424
 72
     3
 10
136.3642374015543
 20
176.49737147424
 11
-2.168404344971009E-16
 21
0.5000000000000004
 40
0.3057306814586597
 50
0.0
 51
40.02986098536132
 73
     0
 72
     1
 10
136.5078838342116
 20
176.6683815459028
 11
136.4668889878342
 21
177.036785574568
 72
     3
 10
136.265783982114
 20
176.79737147424
 11
-1.517883041479706E-15
 21
-0.7000000000000079
 40
0.3057306814586578
 50
139.9701390146416
 51
180.0000000000001
 73
     1
 97
        0
 75
     0
 76
     1
 98
        0
  0
HATCH
  5
12D
330
11C
100
AcDbEntity
  8
DV2_Füllung
  6
Continuous
 62
     7
100
AcDbHatch
 10
0.0
 20
0.0
 30
0.0
210
0.0
220
0.0
230
1.0
  2
SOLID
 70
     1
 71
     0
 91
        1
 92
        1
 93
        6
 72
     1
 10
138.1936130011866
 20
176.99737147424
 11
139.2789252077752
 21
176.99737147424
 72
     1
 10
139.2789252077752
 20
176.99737147424
 11
139.2789252077752
 21
177.49737147424
 72
     1
 10
139.2789252077752
 20
177.49737147424
 11
138.2920664334364
 21
177.49737147424
 72
     3
 10
138.2920664334364
 20
176.79737147424
 11
2.168404344971009E-16
 21
0.6999999999999992
 40
0.3057306814586611
 50
0.0
 51
40.02986098536218
 73
     1
 72
     1
 10
138.0909614277163
 20
177.036785574568
 11
138.0499665813389
 21
176.6683815459028
 72
     3
 10
138.1936130139962
 20
176.49737147424
 11
-1.084202172485504E-16
 21
-0.5000000000000022
 40
0.3057306814586604
 50
139.9701390146385
 51
180.0
 73
     0
 97
        0
 75
     0
 76
     1
 98
        0
  0
HATCH
  5
12E
330
11C
100
AcDbEntity
  8
DV2_Füllung
  6
Continuous
 62
     7
100
AcDbHatch
 10
0.0
 20
0.0
 30
0.0
210
0.0
220
0.0
230
1.0
  2
SOLID
 70
     1
 71
     0
 91
        1
 92
        1
 93
        8
 72
     1
 10
131.8289252077753
 20
170.49737147424
 11
131.8289252077753
 21
171.0650792994432
 72
     2
 10
132.4789252077752
 20
169.99737147424
 40
1.25
 50
121.3322514975938
 51
124.5428927066062
 73
     1
 72
     2
 10
131.4789268394492
 20
171.0990485923034
 40
0.2999999999999994
 50
13.89631814112217
 51
45.00000556452621
 73
     0
 72
     1
 10
131.691058853203
 20
170.8869165373453
 11
131.3612522999618
 21
170.5571100481653
 72
     2
 10
132.4789252077752
 20
169.99737147424
 40
1.25
 50
153.3979641345951
 51
206.6018533094875
 73
     1
 72
     1
 10
131.3612505165274
 20
169.4376364614491
 11
131.7289252077752
 21
169.0699617702012
 72
     1
 10
131.7289252077752
 20
169.0699617702012
 11
131.7289252077752
 21
170.49737147424
 72
     1
 10
131.7289252077752
 20
170.49737147424
 11
131.8289252077753
 21
170.49737147424
 97
        0
 75
     0
 76
     1
 98
        0
  0
LINE
  5
12F
330
11C
100
AcDbEntity
  8
D000121
  6
Continuous
 62
     7
100
AcDbLine
 10
142.6789252078
 20
173.4973714742
 30
0.0
 11
142.6789252078
 21
165.1370068197
 31
0.0
  0
LINE
  5
130
330
11C
100
AcDbEntity
  8
D000121
  6
Continuous
 62
     7
100
AcDbLine
 10
142.6789252078
 20
165.1370068197
 30
0.0
 11
142.6789252078
 21
164.4973714742
 31
0.0
  0
LINE
  5
131
330
11C
100
AcDbEntity
  8
D000121
  6
Continuous
 62
     7
100
AcDbLine
 10
135.7289175914
 20
165.4973714742
 30
0.0
 11
138.8289328242
 21
165.4973714742
 31
0.0
  0
LINE
  5
132
330
11C
100
AcDbEntity
  8
D000121
  6
Continuous
 62
     7
100
AcDbLine
 10
138.8289252078
 20
167.4973714742
 30
0.0
 11
135.7289252078
 21
167.4973714742
 31
0.0
  0
LINE
  5
133
330
11C
100
AcDbEntity
  8
D000121
  6
Continuous
 62
     7
100
AcDbLine
 10
131.8789252078
 20
164.4973714742
 30
0.0
 11
131.8789252078
 21
165.1370068197
 31
0.0
  0
LINE
  5
134
330
11C
100
AcDbEntity
  8
D000121
  6
Continuous
 62
     7
100
AcDbLine
 10
131.8789252078
 20
173.4973714742
 30
0.0
 11
131.8789252078
 21
165.1370068197
 31
0.0
  0
LINE
  5
135
330
11C
100
AcDbEntity
  8
D000121
  6
Continuous
 62
     7
100
AcDbLine
 10
131.7289252078
 20
164.4973714742
 30
0.0
 11
131.8789252078
 21
164.4973714742
 31
0.0
  0
LINE
  5
136
330
11C
100
AcDbEntity
  8
D000121
  6
Continuous
 62
     7
100
AcDbLine
 10
142.6789252078
 20
164.4973714742
 30
0.0
 11
142.8289252078
 21
164.4973714742
 31
0.0
  0
LINE
  5
137
330
11C
100
AcDbEntity
  8
D000121
  6
Continuous
 62
     7
100
AcDbLine
 10
142.6789252078
 20
164.4973714742
 30
0.0
 11
138.8463878891
 21
164.4973714742
 31
0.0
  0
LINE
  5
138
330
11C
100
AcDbEntity
  8
D000121
  6
Continuous
 62
     7
100
AcDbLine
 10
138.8463878891
 20
164.4973714742
 30
0.0
 11
135.7114625264
 21
164.4973714742
 31
0.0
  0
LINE
  5
139
330
11C
100
AcDbEntity
  8
D000121
  6
Continuous
 62
     7
100
AcDbLine
 10
135.7114625264
 20
164.4973714742
 30
0.0
 11
131.8789252078
 21
164.4973714742
 31
0.0
  0
LINE
  5
13A
330
11C
100
AcDbEntity
  8
D000121
  6
Continuous
 62
     7
100
AcDbLine
 10
135.7289252078
 20
173.4973714742
 30
0.0
 11
136.0019440472
 21
173.4973714742
 31
0.0
  0
LINE
  5
13B
330
11C
100
AcDbEntity
  8
D000121
  6
Continuous
 62
     7
100
AcDbLine
 10
135.7289252078
 20
173.4973714742
 30
0.0
 11
131.8789252078
 21
173.4973714742
 31
0.0
  0
LINE
  5
13C
330
11C
100
AcDbEntity
  8
D000121
  6
Continuous
 62
     7
100
AcDbLine
 10
136.0971232593
 20
170.3614414722
 30
0.0
 11
135.7289252078
 21
170.8872827856
 31
0.0
  0
LINE
  5
13D
330
11C
100
AcDbEntity
  8
D000121
  6
Continuous
 62
     7
100
AcDbLine
 10
136.0971232593
 20
173.3614414722
 30
0.0
 11
136.0019440472
 21
173.4973714742
 31
0.0
  0
LINE
  5
13E
330
11C
100
AcDbEntity
  8
D000121
  6
Continuous
 62
     7
100
AcDbLine
 10
135.7289252078
 20
169.5326442168
 30
0.0
 11
136.0971232593
 21
170.0584855302
 31
0.0
  0
ELLIPSE
  5
13F
330
11C
100
AcDbEntity
  8
D000121
  6
Continuous
 62
     7
100
AcDbEllipse
 10
135.9910572421
 20
170.2099635012
 30
0.0
 11
0.0
 21
-0.2142222010113174
 31
0.0
210
0.0
220
0.0
230
1.0
 40
0.7002075382
 41
0.7853981633975566
 42
2.356194490192612
  0
ELLIPSE
  5
140
330
11C
100
AcDbEntity
  8
D000121
  6
Continuous
 62
     7
100
AcDbEllipse
 10
135.9910572421
 20
173.2099635012
 30
0.0
 11
2.168404344971009E-15
 21
-0.214222201011317
 31
0.0
210
0.0
220
0.0
230
1.0
 40
0.7002075382
 41
1.570796326794889
 42
2.356194490192419
  0
LINE
  5
141
330
11C
100
AcDbEntity
  8
D000121
  6
Continuous
 62
     7
100
AcDbLine
 10
135.7289252078
 20
170.8872827856
 30
0.0
 11
135.7289252078
 21
173.4973714742
 31
0.0
  0
LINE
  5
142
330
11C
100
AcDbEntity
  8
D000121
  6
Continuous
 62
     7
100
AcDbLine
 10
138.5559063683
 20
173.4973714742
 30
0.0
 11
138.8289252078
 21
173.4973714742
 31
0.0
  0
LINE
  5
143
330
11C
100
AcDbEntity
  8
D000121
  6
Continuous
 62
     7
100
AcDbLine
 10
142.6789252078
 20
173.4973714742
 30
0.0
 11
138.8289252078
 21
173.4973714742
 31
0.0
  0
LINE
  5
144
330
11C
100
AcDbEntity
  8
D000121
  6
Continuous
 62
     7
100
AcDbLine
 10
138.8289252078
 20
170.8872827856
 30
0.0
 11
138.4607271562
 21
170.3614414722
 31
0.0
  0
LINE
  5
145
330
11C
100
AcDbEntity
  8
D000121
  6
Continuous
 62
     7
100
AcDbLine
 10
138.5559063683
 20
173.4973714742
 30
0.0
 11
138.4607271562
 21
173.3614414722
 31
0.0
  0
LINE
  5
146
330
11C
100
AcDbEntity
  8
D000121
  6
Continuous
 62
     7
100
AcDbLine
 10
138.4607271562
 20
170.0584855302
 30
0.0
 11
138.8289252078
 21
169.5326442168
 31
0.0
  0
ELLIPSE
  5
147
330
11C
100
AcDbEntity
  8
D000121
  6
Continuous
 62
     7
100
AcDbEllipse
 10
138.5667931734
 20
170.2099635012
 30
0.0
 11
-2.168404344971009E-16
 21
0.2142222010113174
 31
0.0
210
0.0
220
0.0
230
1.0
 40
0.7002075382
 41
0.7853981633971809
 42
2.356194490192236
  0
ELLIPSE
  5
148
330
11C
100
AcDbEntity
  8
D000121
  6
Continuous
 62
     7
100
AcDbEllipse
 10
138.5667931734
 20
173.2099635012
 30
0.0
 11
2.168404344971009E-16
 21
0.2142222010113179
 31
0.0
210
0.0
220
0.0
230
1.0
 40
0.7002075382
 41
0.7853981633973719
 42
1.570796326794897
  0
LINE
  5
149
330
11C
100
AcDbEntity
  8
D000121
  6
Continuous
 62
     7
100
AcDbLine
 10
138.8289252078
 20
173.4973714742
 30
0.0
 11
138.8289252078
 21
170.8872827856
 31
0.0
  0
LINE
  5
14A
330
11C
100
AcDbEntity
  8
D000121
  6
Continuous
 62
     7
100
AcDbLine
 10
138.8352230126
 20
165.1370068197
 30
0.0
 11
138.8289328242
 21
165.4973714742
 31
0.0
  0
LINE
  5
14B
330
11C
100
AcDbEntity
  8
D000121
  6
Continuous
 62
     7
100
AcDbLine
 10
138.8289252078
 20
169.5326442168
 30
0.0
 11
138.8289252078
 21
167.4973714742
 31
0.0
  0
LINE
  5
14C
330
11C
100
AcDbEntity
  8
D000121
  6
Continuous
 62
     7
100
AcDbLine
 10
135.7289252078
 20
167.4973714742
 30
0.0
 11
135.7289252078
 21
169.5326442168
 31
0.0
  0
LINE
  5
14D
330
11C
100
AcDbEntity
  8
D000121
  6
Continuous
 62
     7
100
AcDbLine
 10
135.7289175914
 20
165.4973714742
 30
0.0
 11
135.7226274029
 21
165.1370068197
 31
0.0
  0
LINE
  5
14E
330
11C
100
AcDbEntity
  8
D000121
  6
Continuous
 62
     7
100
AcDbLine
 10
135.7226274029
 20
165.1370068197
 30
0.0
 11
135.7114625264
 21
164.4973714742
 31
0.0
  0
LINE
  5
14F
330
11C
100
AcDbEntity
  8
D000121
  6
Continuous
 62
     7
100
AcDbLine
 10
138.8463878891
 20
164.4973714742
 30
0.0
 11
138.8352230126
 21
165.1370068197
 31
0.0
  0
LINE
  5
150
330
11C
100
AcDbEntity
  8
D000121
  6
Continuous
 62
     7
100
AcDbLine
 10
136.1410572421
 20
170.4973714742
 30
0.0
 11
138.4167931734
 21
170.4973714742
 31
0.0
  0
LINE
  5
151
330
11C
100
AcDbEntity
  8
D000121
  6
Continuous
 62
     7
100
AcDbLine
 10
131.7289252078
 20
170.4973714742
 30
0.0
 11
131.8789252078
 21
170.4973714742
 31
0.0
  0
LINE
  5
152
330
11C
100
AcDbEntity
  8
D000121
  6
Continuous
 62
     7
100
AcDbLine
 10
142.6789252078
 20
170.4973714742
 30
0.0
 11
142.8289252078
 21
170.4973714742
 31
0.0
  0
LINE
  5
153
330
11C
100
AcDbEntity
  8
D000121
  6
Continuous
 62
     7
100
AcDbLine
 10
142.8289252078
 20
170.4973714742
 30
0.0
 11
142.8289252078
 21
169.0699610084
 31
0.0
  0
LINE
  5
154
330
11C
100
AcDbEntity
  8
D000121
  6
Continuous
 62
     7
100
AcDbLine
 10
142.8289252078
 20
164.8575784001
 30
0.0
 11
142.8289252078
 21
164.4973714742
 31
0.0
  0
LINE
  5
155
330
11C
100
AcDbEntity
  8
D000121
  6
Continuous
 62
     7
100
AcDbLine
 10
131.7289252078
 20
170.4973714742
 30
0.0
 11
131.7289252078
 21
169.0699617702
 31
0.0
  0
LINE
  5
156
330
11C
100
AcDbEntity
  8
D000121
  6
Continuous
 62
     7
100
AcDbLine
 10
131.7289252078
 20
164.8575814131
 30
0.0
 11
131.7289252078
 21
164.4973714742
 31
0.0
  0
LINE
  5
157
330
11C
100
AcDbEntity
  8
D000121
  6
Continuous
 62
     7
100
AcDbLine
 10
136.1410572421
 20
170.2099635012
 30
0.0
 11
136.1410572421
 21
173.2099635012
 31
0.0
  0
LINE
  5
158
330
11C
100
AcDbEntity
  8
D000121
  6
Continuous
 62
     7
100
AcDbLine
 10
138.4167931734
 20
173.2099635012
 30
0.0
 11
138.4167931734
 21
170.2099635012
 31
0.0
  0
LINE
  5
159
330
11C
100
AcDbEntity
  8
D000122
  6
Continuous
 62
     7
100
AcDbLine
 10
135.2789252078
 20
176.9973714742
 30
0.0
 11
135.2789252078
 21
177.4973714742
 31
0.0
  0
LINE
  5
15A
330
11C
100
AcDbEntity
  8
D000122
  6
Continuous
 62
     7
100
AcDbLine
 10
139.2789252078
 20
177.4973714742
 30
0.0
 11
139.2789252078
 21
176.9973714742
 31
0.0
  0
ELLIPSE
  5
15B
330
11C
100
AcDbEntity
  8
D000122
  6
Continuous
 62
     7
100
AcDbEllipse
 10
136.3642374016
 20
176.4973714742
 30
0.0
 11
2.168404344971009E-16
 21
-0.5000000000000004
 31
0.0
210
0.0
220
0.0
230
1.0
 40
0.3057306815
 41
1.919862177193763
 42
3.141592653589793
  0
LINE
  5
15C
330
11C
100
AcDbEntity
  8
D000122
  6
Continuous
 62
     7
100
AcDbLine
 10
133.7290289769
 20
176.9973714742
 30
0.0
 11
136.3642374016
 21
176.9973714742
 31
0.0
  0
ARC
  5
15D
330
11C
100
AcDbEntity
  8
D000122
  6
Continuous
 62
     7
100
AcDbCircle
 10
133.7290289769
 20
176.4973714742
 30
0.0
 40
0.5000000000000022
100
AcDbArc
 50
90.0
 51
160.0
  0
LINE
  5
15E
330
11C
100
AcDbEntity
  8
D000122
  6
Continuous
 62
     7
100
AcDbLine
 10
136.4668889878
 20
177.0367855746
 30
0.0
 11
136.5078838342
 21
176.6683815459
 31
0.0
  0
ELLIPSE
  5
15F
330
11C
100
AcDbEntity
  8
D000122
  6
Continuous
 62
     7
100
AcDbEllipse
 10
136.2657839821
 20
176.7973714742
 30
0.0
 11
-1.517883041479706E-15
 21
-0.7000000000000079
 31
0.0
210
0.0
220
0.0
230
1.0
 40
0.3057306815
 41
1.919862177193794
 42
3.1415926535898
  0
LINE
  5
160
330
11C
100
AcDbEntity
  8
D000122
  6
Continuous
 62
     7
100
AcDbLine
 10
136.2657839821
 20
177.4973714742
 30
0.0
 11
135.2789252078
 21
177.4973714742
 31
0.0
  0
LINE
  5
161
330
11C
100
AcDbEntity
  8
D000122
  6
Continuous
 62
     7
100
AcDbLine
 10
136.2657839821
 20
177.4973714742
 30
0.0
 11
138.2920664334
 21
177.4973714742
 31
0.0
  0
LINE
  5
162
330
11C
100
AcDbEntity
  8
D000122
  6
Continuous
 62
     7
100
AcDbLine
 10
139.2789252078
 20
177.4973714742
 30
0.0
 11
138.2920664334
 21
177.4973714742
 31
0.0
  0
LINE
  5
163
330
11C
100
AcDbEntity
  8
D000122
  6
Continuous
 62
     7
100
AcDbLine
 10
138.193613014
 20
176.9973714742
 30
0.0
 11
140.8288214387
 21
176.9973714742
 31
0.0
  0
LINE
  5
164
330
11C
100
AcDbEntity
  8
D000122
  6
Continuous
 62
     7
100
AcDbLine
 10
142.7289252078
 20
170.4973714742
 30
0.0
 11
142.7289252078
 21
171.0650792994
 31
0.0
  0
ARC
  5
165
330
11C
100
AcDbEntity
  8
D000122
  6
Continuous
 62
     7
100
AcDbCircle
 10
142.0789252078
 20
169.9973714742
 30
0.0
 40
1.25
100
AcDbArc
 50
58.6677485024
 51
61.3145979859
  0
LINE
  5
166
330
11C
100
AcDbEntity
  8
D000122
  6
Continuous
 62
     7
100
AcDbLine
 10
138.4167931734
 20
172.8761553451
 30
0.0
 11
136.1410572421
 21
172.8761553451
 31
0.0
  0
ARC
  5
167
330
11C
100
AcDbEntity
  8
D000122
  6
Continuous
 62
     7
100
AcDbCircle
 10
132.4789252078
 20
169.9973714742
 30
0.0
 40
1.25
100
AcDbArc
 50
118.6854020141
 51
121.3322514976
  0
LINE
  5
168
330
11C
100
AcDbEntity
  8
D000122
  6
Continuous
 62
     7
100
AcDbLine
 10
131.8289252078
 20
171.0650792994
 30
0.0
 11
131.8289252078
 21
170.4973714742
 31
0.0
  0
ELLIPSE
  5
169
330
11C
100
AcDbEntity
  8
D000122
  6
Continuous
 62
     7
100
AcDbEllipse
 10
138.193613014
 20
176.4973714742
 30
0.0
 11
1.084202172485504E-16
 21
0.5000000000000022
 31
0.0
210
0.0
220
0.0
230
1.0
 40
0.3057306815
 41
0.0
 42
1.221730476396032
  0
ARC
  5
16A
330
11C
100
AcDbEntity
  8
D000122
  6
Continuous
 62
     7
100
AcDbCircle
 10
140.8288214387
 20
176.4973714742
 30
0.0
 40
0.5000000000000022
100
AcDbArc
 50
20.0
 51
90.0
  0
LINE
  5
16B
330
11C
100
AcDbEntity
  8
D000122
  6
Continuous
 62
     7
100
AcDbLine
 10
138.0909614277
 20
177.0367855746
 30
0.0
 11
138.0499665813
 21
176.6683815459
 31
0.0
  0
LINE
  5
16C
330
11C
100
AcDbEntity
  8
D000122
  6
Continuous
 62
     7
100
AcDbLine
 10
133.2591826665
 20
176.6683815459
 30
0.0
 11
132.1050293878
 21
173.4973714742
 31
0.0
  0
LINE
  5
16D
330
11C
100
AcDbEntity
  8
D000122
  6
Continuous
 62
     7
100
AcDbLine
 10
142.4528210277
 20
173.4973714742
 30
0.0
 11
141.2986677491
 21
176.6683815459
 31
0.0
  0
ARC
  5
16E
330
11C
100
AcDbEntity
  8
D000122
  6
Continuous
 62
     7
100
AcDbCircle
 10
132.4789252078
 20
169.9973714742
 30
0.0
 40
1.25
100
AcDbArc
 50
121.3322514976
 51
124.5428927066
  0
ARC
  5
16F
330
11C
100
AcDbEntity
  8
D000122
  6
Continuous
 62
     7
100
AcDbCircle
 10
132.4789252078
 20
169.9973714742
 30
0.0
 40
1.25
100
AcDbArc
 50
153.3979641346
 51
206.6018533095
  0
ARC
  5
170
330
11C
100
AcDbEntity
  8
D000122
  6
Continuous
 62
     7
100
AcDbCircle
 10
142.0789252078
 20
169.9973714742
 30
0.0
 40
1.25
100
AcDbArc
 50
333.3980684597
 51
26.6021251433
  0
ARC
  5
171
330
11C
100
AcDbEntity
  8
D000122
  6
Continuous
 62
     7
100
AcDbCircle
 10
142.0789252078
 20
169.9973714742
 30
0.0
 40
1.25
100
AcDbArc
 50
55.4570655666
 51
58.6677485024
  0
ELLIPSE
  5
172
330
11C
100
AcDbEntity
  8
D000122
  6
Continuous
 62
     7
100
AcDbEllipse
 10
138.2920664334
 20
176.7973714742
 30
0.0
 11
2.168404344971009E-16
 21
0.6999999999999993
 31
0.0
210
0.0
220
0.0
230
1.0
 40
0.3057306815
 41
0.000000000000001
 42
1.221730476396039
  0
ARC
  5
173
330
11C
100
AcDbEntity
  8
D000124
  6
Continuous
 62
     7
100
AcDbCircle
 10
143.503187686
 20
171.5233126198
 30
0.0
 40
0.3000000000000012
100
AcDbArc
 50
44.9999944355
 51
134.9999944355
  0
LINE
  5
174
330
11C
100
AcDbEntity
  8
D000124
  6
Continuous
 62
     7
100
AcDbLine
 10
142.8667920611
 20
171.311181146
 30
0.0
 11
143.2910556723
 21
171.7354446748
 31
0.0
  0
ARC
  5
175
330
11C
100
AcDbEntity
  8
D000124
  6
Continuous
 62
     7
100
AcDbCircle
 10
143.0789240748
 20
171.099049091
 30
0.0
 40
0.3000000000000005
100
AcDbArc
 50
134.9999944355
 51
224.9999944355
  0
LINE
  5
176
330
11C
100
AcDbEntity
  8
D000124
  6
Continuous
 62
     7
100
AcDbLine
 10
143.4734939044
 20
170.280215075
 30
0.0
 11
142.8667920199
 21
170.8869170773
 31
0.0
  0
ARC
  5
177
330
11C
100
AcDbEntity
  8
D000124
  6
Continuous
 62
     7
100
AcDbCircle
 10
143.1906511644
 20
169.99737239
 30
0.0
 40
0.4
100
AcDbArc
 50
315.0
 51
44.9999944355
  0
LINE
  5
178
330
11C
100
AcDbEntity
  8
D000124
  6
Continuous
 62
     7
100
AcDbLine
 10
142.7789257156
 20
169.0199615163
 30
0.0
 11
143.4734938769
 21
169.7145296775
 31
0.0
  0
LINE
  5
179
330
11C
100
AcDbEntity
  8
D000124
  6
Continuous
 62
     7
100
AcDbLine
 10
131.7789254617
 20
169.0199615163
 30
0.0
 11
131.7789254617
 21
165.0973718775
 31
0.0
  0
LINE
  5
17A
330
11C
100
AcDbEntity
  8
D000124
  6
Continuous
 62
     7
100
AcDbLine
 10
131.0843573005
 20
169.7145296775
 30
0.0
 11
131.7789254617
 21
169.0199615163
 31
0.0
  0
ARC
  5
17B
330
11C
100
AcDbEntity
  8
D000124
  6
Continuous
 62
     7
100
AcDbCircle
 10
131.3672000129
 20
169.99737239
 30
0.0
 40
0.4000000000000012
100
AcDbArc
 50
134.9999944355
 51
225.0
  0
LINE
  5
17C
330
11C
100
AcDbEntity
  8
D000124
  6
Continuous
 62
     7
100
AcDbLine
 10
131.6910588532
 20
170.8869165373
 30
0.0
 11
131.0843573279
 21
170.2802151299
 31
0.0
  0
ARC
  5
17D
330
11C
100
AcDbEntity
  8
D000124
  6
Continuous
 62
     7
100
AcDbCircle
 10
131.4789268394
 20
171.0990485923
 30
0.0
 40
0.2999999999999994
100
AcDbArc
 50
314.9999944355
 51
45.0000055645
  0
LINE
  5
17E
330
11C
100
AcDbEntity
  8
D000124
  6
Continuous
 62
     7
100
AcDbLine
 10
131.2667947433
 20
171.7354446748
 30
0.0
 11
131.6910588532
 21
171.3111806473
 31
0.0
  0
ARC
  5
17F
330
11C
100
AcDbEntity
  8
D000124
  6
Continuous
 62
     7
100
AcDbCircle
 10
131.0546627295
 20
171.5233126198
 30
0.0
 40
0.3000000000000004
100
AcDbArc
 50
45.0000055645
 51
135.0682244217
  0
LINE
  5
180
330
11C
100
AcDbEntity
  8
D000124
  6
Continuous
 62
     7
100
AcDbLine
 10
143.715319741
 20
171.7354446336
 30
0.0
 11
143.8933226293
 21
171.5574417107
 31
0.0
  0
LINE
  5
181
330
11C
100
AcDbEntity
  8
D000124
  6
Continuous
 62
     7
100
AcDbLine
 10
143.1678392575
 20
175.0208662758
 30
0.0
 11
143.6557543214
 21
175.8659597669
 31
0.0
  0
ARC
  5
182
330
11C
100
AcDbEntity
  8
D000124
  6
Continuous
 62
     7
100
AcDbCircle
 10
140.3789471416
 20
177.8094712159
 30
0.0
 40
0.5999999882024668
100
AcDbArc
 50
88.8973185897
 51
269.9840919063
  0
LINE
  5
183
330
11C
100
AcDbEntity
  8
D000124
  6
Continuous
 62
     7
100
AcDbLine
 10
140.3787805525
 20
177.2094712508
 30
0.0
 11
142.1796151483
 21
177.2089712516
 31
0.0
  0
ARC
  5
184
330
11C
100
AcDbEntity
  8
D000124
  6
Continuous
 62
     7
100
AcDbCircle
 10
142.179476324
 20
176.7089712708
 30
0.0
 40
0.5000000000000022
100
AcDbArc
 50
329.9999946341
 51
89.9840919063
  0
LINE
  5
185
330
11C
100
AcDbEntity
  8
D000124
  6
Continuous
 62
     7
100
AcDbLine
 10
142.6124890025
 20
176.4589712303
 30
0.0
 11
142.1286088312
 21
175.6208663768
 31
0.0
  0
ARC
  5
186
330
11C
100
AcDbEntity
  8
D000124
  6
Continuous
 62
     7
100
AcDbCircle
 10
142.6482240443
 20
175.3208663263
 30
0.0
 40
0.599999999999518
100
AcDbArc
 50
149.9999944355
 51
329.9999944355
  0
ARC
  5
187
330
11C
100
AcDbEntity
  8
D000124
  6
Continuous
 62
     7
100
AcDbCircle
 10
137.2789252078
 20
173.4973718775
 30
0.0
 40
7.800000000000004
100
AcDbArc
 50
49.952207694
 51
130.047792306
  0
LINE
  5
188
330
11C
100
AcDbEntity
  8
D000124
  6
Continuous
 62
     7
100
AcDbLine
 10
141.9114646658
 20
178.4090295368
 30
0.0
 11
140.3904936813
 21
178.4093600917
 31
0.0
  0
ARC
  5
189
330
11C
100
AcDbEntity
  8
D000124
  6
Continuous
 62
     7
100
AcDbCircle
 10
141.9115950647
 20
179.0090295226
 30
0.0
 40
0.5999999999999998
100
AcDbArc
 50
269.9875478234
 51
49.9522076941
  0
LINE
  5
18A
330
11C
100
AcDbEntity
  8
D000124
  6
Continuous
 62
     7
100
AcDbLine
 10
143.9789243789
 20
167.2627899266
 30
0.0
 11
143.9789243789
 21
165.0973718775
 31
0.0
  0
ARC
  5
18B
330
11C
100
AcDbEntity
  8
D000124
  6
Continuous
 62
     7
100
AcDbCircle
 10
144.5789243789
 20
167.2627899266
 30
0.0
 40
0.5999999999999999
100
AcDbArc
 50
139.5009364639
 51
180.0
  0
ARC
  5
18C
330
11C
100
AcDbEntity
  8
D000124
  6
Continuous
 62
     7
100
AcDbCircle
 10
143.3789243789
 20
165.0973718775
 30
0.0
 40
0.5999986632310899
100
AcDbArc
 50
180.0
 51
0.0
  0
ARC
  5
18D
330
11C
100
AcDbEntity
  8
D000124
  6
Continuous
 62
     7
100
AcDbCircle
 10
137.2789252078
 20
173.4973718775
 30
0.0
 40
7.800000000000003
100
AcDbArc
 50
347.8478064934
 51
16.6966110964
  0
ARC
  5
18E
330
11C
100
AcDbEntity
  8
D000124
  6
Continuous
 62
     7
100
AcDbCircle
 10
144.3175867392
 20
171.9817057382
 30
0.0
 40
0.5999999999999999
100
AcDbArc
 50
224.9999944355
 51
347.8478064934
  0
ARC
  5
18F
330
11C
100
AcDbEntity
  8
D000124
  6
Continuous
 62
     7
100
AcDbCircle
 10
144.1753695346
 20
175.5659597164
 30
0.0
 40
0.5999999999999992
100
AcDbArc
 50
16.6966110964
 51
149.9999944355
  0
LINE
  5
190
330
11C
100
AcDbEntity
  8
D000124
  6
Continuous
 62
     7
100
AcDbLine
 10
142.7789257156
 20
165.0973718775
 30
0.0
 11
142.7789257156
 21
169.0199615163
 31
0.0
  0
ARC
  5
191
330
11C
100
AcDbEntity
  8
D000124
  6
Continuous
 62
     7
100
AcDbCircle
 10
131.9096263712
 20
175.3208663263
 30
0.0
 40
0.5999999999995183
100
AcDbArc
 50
210.0000055645
 51
30.0000055645
  0
LINE
  5
192
330
11C
100
AcDbEntity
  8
D000124
  6
Continuous
 62
     7
100
AcDbLine
 10
132.4292415844
 20
175.6208663768
 30
0.0
 11
131.945361413
 21
176.4589712303
 31
0.0
  0
ARC
  5
193
330
11C
100
AcDbEntity
  8
D000124
  6
Continuous
 62
     7
100
AcDbCircle
 10
132.3783740915
 20
176.7089712708
 30
0.0
 40
0.4999999999999996
100
AcDbArc
 50
90.0159080937
 51
210.0000053659
  0
LINE
  5
194
330
11C
100
AcDbEntity
  8
D000124
  6
Continuous
 62
     7
100
AcDbLine
 10
132.3782352672
 20
177.2089712516
 30
0.0
 11
134.1790698631
 21
177.2094712508
 31
0.0
  0
ARC
  5
195
330
11C
100
AcDbEntity
  8
D000124
  6
Continuous
 62
     7
100
AcDbCircle
 10
134.1789032739
 20
177.8094712159
 30
0.0
 40
0.5999999882024643
100
AcDbArc
 50
270.0159080937
 51
91.1026814103
  0
LINE
  5
196
330
11C
100
AcDbEntity
  8
D000124
  6
Continuous
 62
     7
100
AcDbLine
 10
134.1673567342
 20
178.4093600917
 30
0.0
 11
132.6463857497
 21
178.4090295368
 31
0.0
  0
ARC
  5
197
330
11C
100
AcDbEntity
  8
D000124
  6
Continuous
 62
     7
100
AcDbCircle
 10
132.6462553509
 20
179.0090295226
 30
0.0
 40
0.6000000000000008
100
AcDbArc
 50
130.047792306
 51
270.0124521766
  0
ARC
  5
198
330
11C
100
AcDbEntity
  8
D000124
  6
Continuous
 62
     7
100
AcDbCircle
 10
137.2789252078
 20
173.4973718775
 30
0.0
 40
9.000000000000004
100
AcDbArc
 50
319.5009364639
 51
220.4990623979
  0
ARC
  5
199
330
11C
100
AcDbEntity
  8
D000124
  6
Continuous
 62
     7
100
AcDbCircle
 10
129.9789259128
 20
167.2627900717
 30
0.0
 40
0.6000000000000005
100
AcDbArc
 50
0.0
 51
40.4990623979
  0
LINE
  5
19A
330
11C
100
AcDbEntity
  8
D000124
  6
Continuous
 62
     7
100
AcDbLine
 10
130.5789247231
 20
165.0973722072
 30
0.0
 11
130.5789259128
 21
167.262789742
 31
0.0
  0
ARC
  5
19B
330
11C
100
AcDbEntity
  8
D000124
  6
Continuous
 62
     7
100
AcDbCircle
 10
131.1789247231
 20
165.0973718775
 30
0.0
 40
0.6000000000000002
100
AcDbArc
 50
179.9999685195
 51
0.0
  0
LINE
  5
19C
330
11C
100
AcDbEntity
  8
D000124
  6
Continuous
 62
     7
100
AcDbLine
 10
130.6645277425
 20
171.557441437
 30
0.0
 11
130.8422782514
 21
171.7351919096
 31
0.0
  0
ARC
  5
19D
330
11C
100
AcDbEntity
  8
D000124
  6
Continuous
 62
     7
100
AcDbCircle
 10
130.2402637171
 20
171.981705549
 30
0.0
 40
0.5999999999999984
100
AcDbArc
 50
192.1521950464
 51
314.9999941496
  0
ARC
  5
19E
330
11C
100
AcDbEntity
  8
D000124
  6
Continuous
 62
     7
100
AcDbCircle
 10
137.2789252078
 20
173.4973718775
 30
0.0
 40
7.800000000000003
100
AcDbArc
 50
163.3033889036
 51
192.1521950464
  0
LINE
  5
19F
330
11C
100
AcDbEntity
  8
D000124
  6
Continuous
 62
     7
100
AcDbLine
 10
130.9020960941
 20
175.8659597669
 30
0.0
 11
131.3900111581
 21
175.0208662758
 31
0.0
  0
ARC
  5
1A0
330
11C
100
AcDbEntity
  8
D000124
  6
Continuous
 62
     7
100
AcDbCircle
 10
130.382480881
 20
175.5659597164
 30
0.0
 40
0.5999999999999998
100
AcDbArc
 50
30.0000055645
 51
163.3033889036
  0
LINE
  5
1A2
330
11C
100
AcDbEntity
  8
DV2_Standard
  6
CENTER2
 62
     7
100
AcDbLine
 10
137.2789252078
 20
160.9973714742
 30
0.0
 11
137.2789252078
 21
170.9973714742
 31
0.0
  0
ENDBLK
  5
1A4
330
11C
100
AcDbEntity
  8
0
100
AcDbBlockEnd
  0
ENDSEC
  0
SECTION
  2
ENTITIES
  0
INSERT
  5
60
330
1F
100
AcDbEntity
  8
Standard
100
AcDbBlockReference
  2
SE
 10
0.0
 20
0.0
 30
0.0
  0
DIMENSION
  5
FE
330
1F
100
AcDbEntity
  8
Standard
  6
Continuous
 62
     7
100
AcDbDimension
  2
DMBLK400
 10
67.1180597798
 20
154.2748050497
 30
0.0
 11
73.8180595741
 21
154.2748050497
 31
0.0
 70
   161
  1
\A1;<>
 71
     5
 42
-1.0
 73
     0
 74
     0
 75
     0
  3
E-Katalog
100
AcDbAlignedDimension
 13
67.1180597798
 23
165.0973722072
 33
0.0
 14
80.5180594356
 24
165.0973718775
 34
0.0
  0
DIMENSION
  5
108
330
1F
100
AcDbEntity
  8
Standard
  6
Continuous
 62
     7
100
AcDbDimension
  2
DMBLK401
 10
73.8180602645
 20
173.4973718775
 30
0.0
 11
84.1652965159
 21
180.3634343927
 31
0.0
 70
   164
  1
\A1;<>
 71
     5
 42
-1.0
 73
     0
 74
     0
 75
     0
  3
E-Katalog
100
AcDbRadialDimension
 15
81.3172313877
 25
178.4735584159
 35
0.0
 40
0.0
1001
ACAD
1000
DSTYLE
1002
{
1070
   271
1070
     2
1070
   283
1070
     1
1070
     0
1002
}
  0
DIMENSION
  5
110
330
1F
100
AcDbEntity
  8
Standard
  6
Continuous
 62
     7
100
AcDbDimension
  2
DMBLK402
 10
59.6836794621
 20
182.4973718775
 30
0.0
 11
59.6836794621
 21
173.4973714901
 31
0.0
 70
   160
  1
\A1;<>{\H0.7x; \S+4^ 0;}
 71
     5
 42
-1.0
 73
     0
 74
     0
 75
     0
  3
E-Katalog
100
AcDbAlignedDimension
 13
67.7180596149
 23
164.4973718775
 33
0.0
 14
73.8180603539
 24
182.4973718775
 34
0.0
 50
90.0
100
AcDbRotatedDimension
1001
ACAD
1000
DSTYLE
1002
{
1070
   271
1070
     2
1070
     0
1002
}
  0
INSERT
  5
11D
330
1F
100
AcDbEntity
  8
Standard
100
AcDbBlockReference
  2
SE1
 10
0.0
 20
0.0
 30
0.0
  0
MTEXT
  5
1A6
330
1F
100
AcDbEntity
  8
Default
100
AcDbMText
 10
139.6221177889
 20
28.161474171
 30
0.0
 40
2.5
 41
60.0887616677
 46
5.4782708696
 71
     4
 72
     1
  1
{\fSolid Edge ISO|b0||i0||c0|p34;\C7;\H2.5;\W1.;BU-18K+}
 73
     1
 44
1.0
1001
ACAD
1000
ACAD_MTEXT_DEFINED_HEIGHT_BEGIN
1070
    46
1040
5.4782708696
1000
ACAD_MTEXT_DEFINED_HEIGHT_END
  0
LINE
  5
1A7
330
1F
100
AcDbEntity
  8
Default
  6
Continuous
 62
     7
100
AcDbLine
 10
138.2000000051
 20
9.9999999541
 30
0.0
 11
138.2000000051
 21
34.3502211504
 31
0.0
  0
MTEXT
  5
1A8
330
1F
100
AcDbEntity
  8
Default
100
AcDbMText
 10
122.5168744495
 20
17.5485405285
 30
0.0
 40
2.2
 41
15.7520375387
 46
4.0615484615
 71
     1
 72
     1
  1
{\fCiutadella Regular|b0||i0||c0|p34;\C7;\H2.2;\W0.5776;Maßst.}{\fCiutadella Regular|b0||i0||c0|p34;\C7;\H1.5;\W0.5776;/ scale}
 73
     1
 44
1.0
1001
ACAD
1000
ACAD_MTEXT_DEFINED_HEIGHT_BEGIN
1070
    46
1040
4.0615484615
1000
ACAD_MTEXT_DEFINED_HEIGHT_END
  0
MTEXT
  5
1A9
330
1F
100
AcDbEntity
  8
Default
100
AcDbMText
 10
148.2238718478
 20
15.907103298
 30
0.0
 40
2.2
 41
18.1206027323
 46
4.0615484615
 71
     5
 72
     1
  1
{\fCiutadella Regular|b0||i0||c0|p34;\C7;\H2.2;\W0.5776;Art. Nr.}{\fCiutadella Regular|b0||i0||c0|p34;\C7;\H1.5;\W0.5776;/ art. no.}
 73
     1
 44
1.0
1001
ACAD
1000
ACAD_MTEXT_DEFINED_HEIGHT_BEGIN
1070
    46
1040
4.0615484615
1000
ACAD_MTEXT_DEFINED_HEIGHT_END
  0
MTEXT
  5
1AA
330
1F
100
AcDbEntity
  8
Default
100
AcDbMText
 10
139.5512791446
 20
32.9682471949
 30
0.0
 40
2.2
 41
21.7100432289
 46
4.0615484615
 71
     1
 72
     1
  1
{\fCiutadella Regular|b0||i0||c0|p34;\C7;\H2.2;\W0.82;Benennung}{\fCiutadella Regular|b0||i0||c0|p34;\C7;\H1.5;\W0.82;/ title}
 73
     1
 44
1.0
1001
ACAD
1000
ACAD_MTEXT_DEFINED_HEIGHT_BEGIN
1070
    46
1040
4.0615484615
1000
ACAD_MTEXT_DEFINED_HEIGHT_END
  0
LINE
  5
1AB
330
1F
100
AcDbEntity
  8
Default
  6
Continuous
 62
     7
100
AcDbLine
 10
9.9999999859
 20
25.9987912971
 30
0.0
 11
199.9999999859
 21
25.9987912971
 31
0.0
  0
LINE
  5
1AC
330
1F
100
AcDbEntity
  8
Default
  6
Continuous
 62
     7
100
AcDbLine
 10
138.2000000051
 20
34.3502211504
 30
0.0
 11
199.9999999859
 21
34.3502211504
 31
0.0
  0
MTEXT
  5
1AD
330
1F
100
AcDbEntity
  8
Default
100
AcDbMText
 10
139.7786414766
 20
12.1030055624
 30
0.0
 40
3.0
 41
18.7991063348
 46
5.0845858028
 71
     4
 72
     1
  1
{\fSolid Edge ISO|b0||i0||c0|p34;\C7;\H3.;\W1.;5-320}
 73
     1
 44
1.0
1001
ACAD
1000
ACAD_MTEXT_DEFINED_HEIGHT_BEGIN
1070
    46
1040
5.0845858028
1000
ACAD_MTEXT_DEFINED_HEIGHT_END
  0
MTEXT
  5
1AE
330
1F
100
AcDbEntity
  8
Standard
100
AcDbMText
 10
128.2243715112
 20
21.9523050455
 30
0.0
 40
2.5
 41
4.125011
 46
4.0909190909
 71
     1
 72
     1
  1
{\fSolid Edge ISO|b0||i0||c0|p34;\C7;\H2.5;\W1.;mm}
 73
     1
 44
1.0
1001
ACAD
1000
ACAD_MTEXT_DEFINED_HEIGHT_BEGIN
1070
    46
1040
4.0909190909
1000
ACAD_MTEXT_DEFINED_HEIGHT_END
  0
LINE
  5
1AF
330
1F
100
AcDbEntity
  8
Standard
  6
Continuous
 62
     7
100
AcDbLine
 10
138.2000000051
 20
18.2287912793
 30
0.0
 11
106.3095894048
 21
18.2287912793
 31
0.0
  0
LINE
  5
1B0
330
1F
100
AcDbEntity
  8
Standard
  6
Continuous
 62
     7
100
AcDbLine
 10
106.3095894048
 20
25.9987912971
 30
0.0
 11
106.3095894048
 21
9.9999999541
 31
0.0
  0
MTEXT
  5
1B1
330
1F
100
AcDbEntity
  8
Standard
100
AcDbMText
 10
106.9145404388
 20
25.2290846617
 30
0.0
 40
2.2
 41
14.4015494615
 46
4.0615484615
 71
     1
 72
     1
  1
{\fCiutadella Regular|b0||i0||c0|p34;\C7;\H2.2;\W0.5776;freig.}{\fCiutadella Regular|b0||i0||c0|p34;\C7;\H1.5;\W0.5776;/ appr.}
 73
     1
 44
1.0
1001
ACAD
1000
ACAD_MTEXT_DEFINED_HEIGHT_BEGIN
1070
    46
1040
4.0615484615
1000
ACAD_MTEXT_DEFINED_HEIGHT_END
  0
MTEXT
  5
1B2
330
1F
100
AcDbEntity
  8
Default
100
AcDbMText
 10
107.6188207159
 20
17.6037681847
 30
0.0
 40
2.2
 41
13.1956831311
 46
4.0615484615
 71
     1
 72
     1
  1
{\fCiutadella Regular|b0||i0||c0|p34;\C7;\H2.2;\W0.5776;Blatt}{\fCiutadella Regular|b0||i0||c0|p34;\C7;\H1.5;\W0.5776;/ sheet}
 73
     1
 44
1.0
1001
ACAD
1000
ACAD_MTEXT_DEFINED_HEIGHT_BEGIN
1070
    46
1040
4.0615484615
1000
ACAD_MTEXT_DEFINED_HEIGHT_END
  0
MTEXT
  5
1B3
330
1F
100
AcDbEntity
  8
Standard
100
AcDbMText
 10
112.0531670475
 20
14.2192192227
 30
0.0
 40
3.0
 41
3.750011
 46
4.9091009091
 71
     1
 72
     1
  1
{\fSolid Edge ISO|b0||i0||c0|p34;\C7;\H3.;\W1.;A4}
 73
     1
 44
1.0
1001
ACAD
1000
ACAD_MTEXT_DEFINED_HEIGHT_BEGIN
1070
    46
1040
4.9091009091
1000
ACAD_MTEXT_DEFINED_HEIGHT_END
  0
MTEXT
  5
1B4
330
1F
100
AcDbEntity
  8
Default
100
AcDbMText
 10
107.1395513873
 20
20.4081738308
 30
0.0
 40
2.2
 41
14.7330465525
 46
3.6
 71
     4
 72
     1
  1
{\fSolid Edge ISO|b0||i0||c0|p34;\C7;\H2.2;\W1.;02.11.2023}
 73
     1
 44
1.0
1001
ACAD
1000
ACAD_MTEXT_DEFINED_HEIGHT_BEGIN
1070
    46
1040
3.6
1000
ACAD_MTEXT_DEFINED_HEIGHT_END
  0
MTEXT
  5
1B5
330
1F
100
AcDbEntity
  8
Standard
100
AcDbMText
 10
10.6587314417
 20
33.7981133176
 30
0.0
 40
1.2
 41
127.5412685634
 46
8.1685527897
 71
     1
 72
     1
  3
{\fCiutadella Regular|b0||i0||c0|p34;\C7;\H1.2;\W0.82;Weitergabe sowie Vervielfältigung dieser vertraulichen Unterlage(n), Verwertung und Mitteilung ihres Inhalts nicht ohne unsere vorherige schriftliche Genehmigung gestattet. \P}{\fCiutadella Regula
  3
r|b0||i0||c0|p34;\C7;\H1.2;\W0.82;Zuwiderhandlungen verpflichten zu Schadenersatz. Alle Rechte für den Fall der Patenterteilung oder Gebrauchsmuster-Eintragung vorbehalten.\P}{\fCiutadella Regular|b0||i0||c0|p34;\C7;\H1.;\W0.82;The copying, use, dist
  3
ribution or disclosure of the confidential and proprietary information contained in this document(s) is strictly prohibited without prior written consent. Any breach shall subject the \P}{\fCiutadella Regular|b0||i0||c0|p34;\C7;\H1.;\W0.82;infringing
  1
 party to remedies. The owner reserves all rights in the event of the grant of a patent or the registration of a utility model or design.}
 73
     1
 44
0.9
1001
ACAD
1000
ACAD_MTEXT_DEFINED_HEIGHT_BEGIN
1070
    46
1040
8.1685527897
1000
ACAD_MTEXT_DEFINED_HEIGHT_END
  0
MTEXT
  5
1B6
330
1F
100
AcDbEntity
  8
Default
100
AcDbMText
 10
139.5531289039
 20
20.5520608538
 30
0.0
 40
2.5
 41
59.872727305
 46
4.6153946154
 71
     4
 72
     1
  1
{\fSolid Edge ISO|b0||i0||c0|p34;\C7;\H2.5;\W1.;technische Zeichnung mkt}
 73
     1
 44
1.0
1001
ACAD
1000
ACAD_MTEXT_DEFINED_HEIGHT_BEGIN
1070
    46
1040
4.6153946154
1000
ACAD_MTEXT_DEFINED_HEIGHT_END
  0
MTEXT
  5
1B7
330
1F
100
AcDbEntity
  8
Default
100
AcDbMText
 10
139.645932934
 20
25.5772390452
 30
0.0
 40
2.2
 41
33.0612482929
 46
4.0615484615
 71
     1
 72
     1
  1
{\fCiutadella Regular|b0||i0||c0|p34;\C7;\H2.2;\W0.82;Zeichnungsart}{\fCiutadella Regular|b0||i0||c0|p34;\C7;\H1.5;\W0.82;/ drawing type}
 73
     1
 44
1.0
1001
ACAD
1000
ACAD_MTEXT_DEFINED_HEIGHT_BEGIN
1070
    46
1040
4.0615484615
1000
ACAD_MTEXT_DEFINED_HEIGHT_END
  0
MTEXT
  5
1B8
330
1F
100
AcDbEntity
  8
Standard
100
AcDbMText
 10
122.722860057
 20
25.1473558409
 30
0.0
 40
2.2
 41
15.8428315128
 46
4.0615484615
 71
     1
 72
     1
  1
{\fCiutadella Regular|b0||i0||c0|p34;\C7;\H2.2;\W0.5776;Einheit}{\fCiutadella Regular|b0||i0||c0|p34;\C7;\H1.5;\W0.5776;/ unit}
 73
     1
 44
1.0
1001
ACAD
1000
ACAD_MTEXT_DEFINED_HEIGHT_BEGIN
1070
    46
1040
4.0615484615
1000
ACAD_MTEXT_DEFINED_HEIGHT_END
  0
LINE
  5
1B9
330
1F
100
AcDbEntity
  8
Standard
  6
Continuous
 62
     7
100
AcDbLine
 10
122.1841943695
 20
25.9987912971
 30
0.0
 11
122.1841943695
 21
10.0
 31
0.0
  0
LINE
  5
1BA
330
1F
100
AcDbEntity
  8
Standard
  6
Continuous
 62
     7
100
AcDbLine
 10
138.2000000051
 20
18.2287912793
 30
0.0
 11
200.0
 21
18.2287912793
 31
0.0
  0
LINE
  5
1BB
330
1F
100
AcDbEntity
  8
Standard
  6
Continuous
 62
     7
100
AcDbLine
 10
138.2000000051
 20
34.3502211504
 30
0.0
 11
10.0
 21
34.3502211504
 31
0.0
  0
LINE
  5
1BD
330
1F
100
AcDbEntity
  8
Skizziergeometrie(DIN)
  6
Continuous
 62
     7
100
AcDbLine
 10
10.0
 20
287.0
 30
0.0
 11
200.0
 21
287.0
 31
0.0
  0
LINE
  5
1BE
330
1F
100
AcDbEntity
  8
Skizziergeometrie(DIN)
  6
Continuous
 62
     7
100
AcDbLine
 10
200.0
 20
287.0
 30
0.0
 11
200.0
 21
9.9999926436
 31
0.0
  0
LINE
  5
1BF
330
1F
100
AcDbEntity
  8
Skizziergeometrie(DIN)
  6
Continuous
 62
     7
100
AcDbLine
 10
200.0
 20
9.9999926436
 30
0.0
 11
10.0
 21
9.9999926436
 31
0.0
  0
LINE
  5
1C0
330
1F
100
AcDbEntity
  8
Skizziergeometrie(DIN)
  6
Continuous
 62
     7
100
AcDbLine
 10
10.0
 20
10.0
 30
0.0
 11
10.0
 21
287.0
 31
0.0
  0
MTEXT
  5
1C1
330
1F
100
AcDbEntity
  8
Standard
100
AcDbMText
 10
128.0497037033
 20
14.0490458538
 30
0.0
 40
3.0
 41
3.225011
 46
4.9091009091
 71
     1
 72
     1
  1
{\fSolid Edge ISO|b0||i0||c0|p34;\C7;\H3.;\W1.;1:1}
 73
     1
 44
1.0
1001
ACAD
1000
ACAD_MTEXT_DEFINED_HEIGHT_BEGIN
1070
    46
1040
4.9091009091
1000
ACAD_MTEXT_DEFINED_HEIGHT_END
  0
IMAGE
  5
1C5
330
1F
100
AcDbEntity
  8
0
 92
      140
310
8C000000010000008400000006000000050000000E64D78BE9972B40BC01B030F29425400000000000000000559114E8E5774740BC01B030F29425400000000000000000559114E8E5774740017F9619FA7E384000000000000000000E64D78BE9972B40017F9619FA7E384000000000000000000E64D78BE9972B40BC01B0
310
30F29425400000000000000000
100
AcDbRasterImage
 90
        0
 10
13.7967036915
 20
10.7909102645
 30
0.0
 11
0.07742990654205607
 21
0.0
 31
0.0
 12
0.0
 22
0.07742990654205609
 32
0.0
 13
428.0
 23
177.0
340
1C4
 70
     7
280
     0
281
    50
282
    50
283
     0
360
1C6
 71
     1
 91
        2
 14
-0.5
 24
-0.5
 14
427.5
 24
176.5
  0
ENDSEC
  0
SECTION
  2
OBJECTS
  0
DICTIONARY
  5
C
330
0
100
AcDbDictionary
281
     1
  3
ACAD_DETAILVIEWSTYLE
350
202
  3
ACAD_GROUP
350
D
  3
ACAD_IMAGE_DICT
350
1C3
  3
ACAD_IMAGE_VARS
350
1C2
  3
ACAD_LAYOUT
350
1A
  3
ACAD_MATERIAL
350
43
  3
ACAD_MLEADERSTYLE
350
5B
  3
ACAD_MLINESTYLE
350
17
  3
ACAD_PLOTSETTINGS
350
19
  3
ACAD_PLOTSTYLENAME
350
E
  3
ACAD_SCALELIST
350
47
  3
ACAD_SECTIONVIEWSTYLE
350
203
  3
ACAD_TABLESTYLE
350
59
  3
ACAD_VISUALSTYLE
350
2A
  3
ACDB_RECOMPOSE_DATA
350
1FF
  3
AcDbVariableDictionary
350
1C7
  0
SUN
  5
5D
330
29
100
AcDbSun
 90
        1
290
     0
 63
     7
421
 16777215
 40
1.0
291
     1
 91
  2455826
 92
 54000000
292
     0
 70
     2
 71
   256
280
     1
  0
IMAGEDEF_REACTOR
  5
1C6
330
1C5
100
AcDbRasterImageDefReactor
 90
        2
330
1C5
  0
DICTIONARY
  5
202
102
{ACAD_REACTORS
330
C
102
}
330
C
100
AcDbDictionary
281
     1
  0
DICTIONARY
  5
D
102
{ACAD_REACTORS
330
C
102
}
330
C
100
AcDbDictionary
281
     1
  0
DICTIONARY
  5
1C3
102
{ACAD_REACTORS
330
C
102
}
330
C
100
AcDbDictionary
281
     1
  3
BU-18K+-1x_1.bmp
350
1C4
  0
RASTERVARIABLES
  5
1C2
102
{ACAD_REACTORS
330
C
102
}
330
C
100
AcDbRasterVariables
 90
        0
 70
     1
 71
     1
 72
     1
  0
DICTIONARY
  5
1A
102
{ACAD_REACTORS
330
C
102
}
330
C
100
AcDbDictionary
281
     1
  3
Layout1
350
1E
  3
Model
350
22
  0
DICTIONARY
  5
43
102
{ACAD_REACTORS
330
C
102
}
330
C
100
AcDbDictionary
281
     1
  3
ByBlock
350
45
  3
ByLayer
350
44
  3
Global
350
46
  0
DICTIONARY
  5
5B
102
{ACAD_REACTORS
330
C
102
}
330
C
100
AcDbDictionary
281
     1
  3
Standard
350
5C
  0
DICTIONARY
  5
17
102
{ACAD_REACTORS
330
C
102
}
330
C
100
AcDbDictionary
281
     1
  3
Standard
350
18
  0
DICTIONARY
  5
19
102
{ACAD_REACTORS
330
C
102
}
330
C
100
AcDbDictionary
281
     1
  0
ACDBDICTIONARYWDFLT
  5
E
102
{ACAD_REACTORS
330
C
102
}
330
C
100
AcDbDictionary
281
     1
  3
Normal
350
F
100
AcDbDictionaryWithDefault
340
F
  0
DICTIONARY
  5
47
102
{ACAD_REACTORS
330
C
102
}
330
C
100
AcDbDictionary
281
     1
  3
A0
350
48
  3
A1
350
49
  3
A2
350
4A
  3
A3
350
4B
  3
A4
350
4C
  3
A5
350
4D
  3
A6
350
4E
  3
A7
350
4F
  3
A8
350
50
  3
A9
350
51
  3
B0
350
52
  3
B1
350
53
  3
B2
350
54
  3
B3
350
55
  3
B4
350
56
  3
B5
350
57
  3
B6
350
58
  0
DICTIONARY
  5
203
102
{ACAD_REACTORS
330
C
102
}
330
C
100
AcDbDictionary
281
     1
  0
DICTIONARY
  5
59
102
{ACAD_REACTORS
330
C
102
}
330
C
100
AcDbDictionary
281
     1
  3
Standard
350
5A
  0
DICTIONARY
  5
2A
102
{ACAD_REACTORS
330
C
102
}
330
C
100
AcDbDictionary
281
     1
  3
2dWireframe
350
2F
  3
Basic
350
32
  3
Brighten
350
36
  3
ColorChange
350
3A
  3
Conceptual
350
34
  3
Dim
350
35
  3
EdgeColorOff
350
3D
  3
Facepattern
350
39
  3
Flat
350
2B
  3
FlatWithEdges
350
2C
  3
Gouraud
350
2D
  3
GouraudWithEdges
350
2E
  3
Hidden
350
31
  3
JitterOff
350
3B
  3
Linepattern
350
38
  3
OverhangOff
350
3C
  3
Realistic
350
33
  3
Shaded
350
42
  3
Shaded with edges
350
41
  3
Shades of Gray
350
3E
  3
Sketchy
350
3F
  3
Thicken
350
37
  3
Wireframe
350
30
  3
X-Ray
350
40
  0
XRECORD
  5
1FF
102
{ACAD_REACTORS
330
C
102
}
330
C
100
AcDbXrecord
280
     1
 90
        1
330
5A
  0
DICTIONARY
  5
1C7
102
{ACAD_REACTORS
330
C
102
}
330
C
100
AcDbDictionary
281
     1
  3
CANNOSCALE
350
1C8
  3
CENTEREXE
350
204
  3
CENTERLTYPEFILE
350
205
  3
CMLEADERSTYLE
350
201
  3
CTABLESTYLE
350
200
  3
XCLIPFRAME
350
1C9
  0
IMAGEDEF
  5
1C4
102
{ACAD_REACTORS
330
1C3
330
1C6
102
}
330
1C3
100
AcDbRasterImageDef
 90
        0
  1
BU-18K+-1x_1.bmp
 10
428.0
 20
177.0
 11
0.002336448598130841
 21
0.002336448598130841
280
     1
281
     5
  0
LAYOUT
  5
1E
102
{ACAD_REACTORS
330
1A
102
}
330
1A
100
AcDbPlotSettings
  1

  2
none_device
  4

  6

 40
0.0
 41
0.0
 42
0.0
 43
0.0
 44
0.0
 45
0.0
 46
0.0
 47
0.0
 48
0.0
 49
0.0
140
0.0
141
0.0
142
1.0
143
1.0
 70
   688
 72
     1
 73
     0
 74
     5
  7

 75
    16
 76
     0
 77
     2
 78
   300
147
1.0
148
0.0
149
0.0
100
AcDbLayout
  1
Layout1
 70
     1
 71
     1
 10
0.0
 20
0.0
 11
210.0
 21
297.0
 12
0.0
 22
0.0
 32
0.0
 14
0.0
 24
0.0
 34
0.0
 15
210.0
 25
297.0
 35
0.0
146
0.0
 13
0.0
 23
0.0
 33
0.0
 16
1.0
 26
0.0
 36
0.0
 17
0.0
 27
1.0
 37
0.0
 76
     0
330
1B
  0
LAYOUT
  5
22
102
{ACAD_REACTORS
330
1A
102
}
330
1A
100
AcDbPlotSettings
  1

  2
none_device
  4
Letter_(8.50_x_11.00_Inches)
  6

 40
6.35
 41
6.35
 42
6.35000508
 43
6.35000508
 44
215.9
 45
279.4
 46
0.0
 47
0.0
 48
0.0
 49
0.0
140
0.0
141
0.0
142
1.0
143
1.0
 70
  1712
 72
     1
 73
     0
 74
     0
  7

 75
     0
 76
     0
 77
     2
 78
   300
147
1.0
148
0.0
149
0.0
100
AcDbLayout
  1
Model
 70
     1
 71
     0
 10
0.0
 20
0.0
 11
210.0
 21
297.0
 12
0.0
 22
0.0
 32
0.0
 14
0.0
 24
0.0
 34
0.0
 15
210.0
 25
297.0
 35
0.0
146
0.0
 13
0.0
 23
0.0
 33
0.0
 16
1.0
 26
0.0
 36
0.0
 17
0.0
 27
1.0
 37
0.0
 76
     0
330
1F
331
29
  0
MATERIAL
  5
45
102
{ACAD_REACTORS
330
43
102
}
330
43
100
AcDbMaterial
  1
ByBlock
 72
     1
 94
      127
  0
MATERIAL
  5
44
102
{ACAD_REACTORS
330
43
102
}
330
43
100
AcDbMaterial
  1
ByLayer
 72
     1
 94
      127
  0
MATERIAL
  5
46
102
{ACAD_REACTORS
330
43
102
}
330
43
100
AcDbMaterial
  1
Global
 72
     1
 94
      127
  0
MLEADERSTYLE
  5
5C
102
{ACAD_REACTORS
330
5B
102
}
102
{ACAD_XDICTIONARY
360
1FD
102
}
330
5B
100
AcDbMLeaderStyle
170
     2
171
     1
172
     0
 90
        2
 40
0.0
 41
0.0
173
     1
 91
-1056964608
340
14
 92
       -2
290
     1
 42
2.0
291
     1
 43
8.0
  3
Standard
341
0
 44
4.0
300

342
11
174
     1
178
     6
175
     1
176
     0
 93
-1056964608
 45
4.0
292
     0
297
     0
 46
4.0
343
0
 94
-1056964608
 47
1.0
 49
1.0
140
1.0
293
     1
141
0.0
294
     1
177
     0
142
1.0
295
     0
296
     0
143
3.75
1001
ACAD_MLEADERVER
1070
     2
  0
MLINESTYLE
  5
18
102
{ACAD_REACTORS
330
17
102
}
330
17
100
AcDbMlineStyle
  2
Standard
 70
     0
  3

 62
   256
 51
90.0
 52
90.0
 71
     2
 49
0.5
 62
   256
  6
BYLAYER
 49
-0.5
 62
   256
  6
BYLAYER
  0
ACDBPLACEHOLDER
  5
F
102
{ACAD_REACTORS
330
E
102
}
330
E
  0
SCALE
  5
48
102
{ACAD_REACTORS
330
47
102
}
330
47
100
AcDbScale
 70
     0
300
1:1
140
1.0
141
1.0
290
     1
  0
SCALE
  5
49
102
{ACAD_REACTORS
330
47
102
}
330
47
100
AcDbScale
 70
     0
300
1:2
140
1.0
141
2.0
290
     0
  0
SCALE
  5
4A
102
{ACAD_REACTORS
330
47
102
}
330
47
100
AcDbScale
 70
     0
300
1:4
140
1.0
141
4.0
290
     0
  0
SCALE
  5
4B
102
{ACAD_REACTORS
330
47
102
}
330
47
100
AcDbScale
 70
     0
300
1:5
140
1.0
141
5.0
290
     0
  0
SCALE
  5
4C
102
{ACAD_REACTORS
330
47
102
}
330
47
100
AcDbScale
 70
     0
300
1:8
140
1.0
141
8.0
290
     0
  0
SCALE
  5
4D
102
{ACAD_REACTORS
330
47
102
}
330
47
100
AcDbScale
 70
     0
300
1:10
140
1.0
141
10.0
290
     0
  0
SCALE
  5
4E
102
{ACAD_REACTORS
330
47
102
}
330
47
100
AcDbScale
 70
     0
300
1:16
140
1.0
141
16.0
290
     0
  0
SCALE
  5
4F
102
{ACAD_REACTORS
330
47
102
}
330
47
100
AcDbScale
 70
     0
300
1:20
140
1.0
141
20.0
290
     0
  0
SCALE
  5
50
102
{ACAD_REACTORS
330
47
102
}
330
47
100
AcDbScale
 70
     0
300
1:30
140
1.0
141
30.0
290
     0
  0
SCALE
  5
51
102
{ACAD_REACTORS
330
47
102
}
330
47
100
AcDbScale
 70
     0
300
1:40
140
1.0
141
40.0
290
     0
  0
SCALE
  5
52
102
{ACAD_REACTORS
330
47
102
}
330
47
100
AcDbScale
 70
     0
300
1:50
140
1.0
141
50.0
290
     0
  0
SCALE
  5
53
102
{ACAD_REACTORS
330
47
102
}
330
47
100
AcDbScale
 70
     0
300
1:100
140
1.0
141
100.0
290
     0
  0
SCALE
  5
54
102
{ACAD_REACTORS
330
47
102
}
330
47
100
AcDbScale
 70
     0
300
2:1
140
2.0
141
1.0
290
     0
  0
SCALE
  5
55
102
{ACAD_REACTORS
330
47
102
}
330
47
100
AcDbScale
 70
     0
300
4:1
140
4.0
141
1.0
290
     0
  0
SCALE
  5
56
102
{ACAD_REACTORS
330
47
102
}
330
47
100
AcDbScale
 70
     0
300
8:1
140
8.0
141
1.0
290
     0
  0
SCALE
  5
57
102
{ACAD_REACTORS
330
47
102
}
330
47
100
AcDbScale
 70
     0
300
10:1
140
10.0
141
1.0
290
     0
  0
SCALE
  5
58
102
{ACAD_REACTORS
330
47
102
}
330
47
100
AcDbScale
 70
     0
300
100:1
140
100.0
141
1.0
290
     0
  0
TABLESTYLE
  5
5A
102
{ACAD_REACTORS
330
59
102
}
102
{ACAD_XDICTIONARY
360
1FA
102
}
330
59
100
AcDbTableStyle
  3
Standard
 70
     0
 71
     0
 40
0.06
 41
0.06
280
     0
281
     0
  7
Standard
140
4.5
170
     2
 62
     0
 63
   257
283
     0
 90
        4
 91
        0
  1

274
    -2
284
     1
 64
     0
275
    -2
285
     1
 65
     0
276
    -2
286
     1
 66
     0
277
    -2
287
     1
 67
     0
278
    -2
288
     1
 68
     0
279
    -2
289
     1
 69
     0
  7
Standard
140
6.0
170
     5
 62
     0
 63
   257
283
     0
 90
        4
 91
        0
  1

274
    -2
284
     1
 64
     0
275
    -2
285
     1
 65
     0
276
    -2
286
     1
 66
     0
277
    -2
287
     1
 67
     0
278
    -2
288
     1
 68
     0
279
    -2
289
     1
 69
     0
  7
Standard
140
4.5
170
     5
 62
     0
 63
   257
283
     0
 90
        4
 91
        0
  1

274
    -2
284
     1
 64
     0
275
    -2
285
     1
 65
     0
276
    -2
286
     1
 66
     0
277
    -2
287
     1
 67
     0
278
    -2
288
     1
 68
     0
279
    -2
289
     1
 69
     0
  0
VISUALSTYLE
  5
2F
102
{ACAD_REACTORS
330
2A
102
}
102
{ACAD_XDICTIONARY
360
1D2
102
}
330
2A
100
AcDbVisualStyle
  2
2dWireframe
 70
     4
 71
     0
 72
     2
 73
     0
 90
        0
 40
0.6
 41
30.0
 62
     5
 63
     7
421
 16777215
 74
     1
 91
        4
 64
     7
 65
   257
 75
     1
175
     1
 42
1.0
 92
        0
 66
   257
 43
1.0
 76
     1
 77
     6
 78
     2
 67
     7
 79
     5
170
     0
171
     0
290
     0
174
     0
 93
        1
 44
0.0
173
     0
291
     0
 45
0.0
  0
VISUALSTYLE
  5
32
102
{ACAD_REACTORS
330
2A
102
}
102
{ACAD_XDICTIONARY
360
1D8
102
}
330
2A
100
AcDbVisualStyle
  2
Basic
 70
     7
 71
     1
 72
     0
 73
     1
 90
        0
 40
0.6
 41
30.0
 62
     5
 63
     7
421
 16777215
 74
     0
 91
        4
 64
     7
 65
   257
 75
     1
175
     1
 42
1.0
 92
        8
 66
     7
 43
1.0
 76
     1
 77
     6
 78
     2
 67
     7
 79
     5
170
     0
171
     0
290
     0
174
     0
 93
        1
 44
0.0
173
     0
291
     1
 45
0.0
  0
VISUALSTYLE
  5
36
102
{ACAD_REACTORS
330
2A
102
}
102
{ACAD_XDICTIONARY
360
1E0
102
}
330
2A
100
AcDbVisualStyle
  2
Brighten
 70
    12
 71
     2
 72
     2
 73
     0
 90
        0
 40
0.6
 41
30.0
 62
     5
 63
     7
421
 16777215
 74
     1
 91
        4
 64
     7
 65
   257
 75
     1
175
     1
 42
1.0
 92
        8
 66
     7
 43
1.0
 76
     1
 77
     6
 78
     2
 67
     7
 79
     5
170
     0
171
     0
290
     0
174
     0
 93
        1
 44
50.0
173
     0
291
     1
 45
0.0
  0
VISUALSTYLE
  5
3A
102
{ACAD_REACTORS
330
2A
102
}
102
{ACAD_XDICTIONARY
360
1E8
102
}
330
2A
100
AcDbVisualStyle
  2
ColorChange
 70
    16
 71
     2
 72
     2
 73
     3
 90
        0
 40
0.6
 41
30.0
 62
     5
 63
     8
421
  8421504
 74
     1
 91
        4
 64
     7
 65
   257
 75
     1
175
     1
 42
1.0
 92
        8
 66
     8
424
  8421504
 43
1.0
 76
     1
 77
     6
 78
     2
 67
     7
 79
     5
170
     0
171
     0
290
     0
174
     0
 93
        1
 44
0.0
173
     0
291
     1
 45
0.0
  0
VISUALSTYLE
  5
34
102
{ACAD_REACTORS
330
2A
102
}
102
{ACAD_XDICTIONARY
360
1DC
102
}
330
2A
100
AcDbVisualStyle
  2
Conceptual
 70
     9
 71
     3
 72
     2
 73
     0
 90
        0
 40
0.6
 41
30.0
 62
     5
 63
     7
421
 16777215
 74
     2
 91
        2
 64
     7
 65
   257
 75
     1
175
     1
 42
179.0
 92
        8
 66
     7
 43
1.0
 76
     1
 77
     6
 78
     2
 67
     7
 79
     3
170
     0
171
     0
290
     0
174
     0
 93
        1
 44
0.0
173
     0
291
     0
 45
0.0
  0
VISUALSTYLE
  5
35
102
{ACAD_REACTORS
330
2A
102
}
102
{ACAD_XDICTIONARY
360
1DE
102
}
330
2A
100
AcDbVisualStyle
  2
Dim
 70
    11
 71
     2
 72
     2
 73
     0
 90
        0
 40
0.6
 41
30.0
 62
     5
 63
     7
421
 16777215
 74
     1
 91
        4
 64
     7
 65
   257
 75
     1
175
     1
 42
1.0
 92
        8
 66
     7
 43
1.0
 76
     1
 77
     6
 78
     2
 67
     7
 79
     5
170
     0
171
     0
290
     0
174
     0
 93
        1
 44
-50.0
173
     0
291
     1
 45
0.0
  0
VISUALSTYLE
  5
3D
102
{ACAD_REACTORS
330
2A
102
}
102
{ACAD_XDICTIONARY
360
1EE
102
}
330
2A
100
AcDbVisualStyle
  2
EdgeColorOff
 70
    22
 71
     2
 72
     2
 73
     0
 90
        0
 40
0.6
 41
30.0
 62
     5
 63
     7
421
 16777215
 74
     1
 91
        4
 64
     7
 65
   257
 75
     1
175
     1
 42
1.0
 92
        8
 66
     7
 43
1.0
 76
     1
 77
     6
 78
     2
 67
     7
 79
     5
170
     0
171
     0
290
     0
174
     0
 93
        1
 44
0.0
173
     0
291
     1
 45
0.0
  0
VISUALSTYLE
  5
39
102
{ACAD_REACTORS
330
2A
102
}
102
{ACAD_XDICTIONARY
360
1E6
102
}
330
2A
100
AcDbVisualStyle
  2
Facepattern
 70
    15
 71
     2
 72
     2
 73
     0
 90
        0
 40
0.6
 41
30.0
 62
     5
 63
     7
421
 16777215
 74
     1
 91
        4
 64
     7
 65
   257
 75
     1
175
     1
 42
1.0
 92
        8
 66
     7
 43
1.0
 76
     1
 77
     6
 78
     2
 67
     7
 79
     5
170
     0
171
     0
290
     0
174
     0
 93
        1
 44
0.0
173
     0
291
     1
 45
0.0
  0
VISUALSTYLE
  5
2B
102
{ACAD_REACTORS
330
2A
102
}
102
{ACAD_XDICTIONARY
360
1CA
102
}
330
2A
100
AcDbVisualStyle
  2
Flat
 70
     0
 71
     2
 72
     1
 73
     1
 90
        2
 40
0.6
 41
30.0
 62
     5
 63
     7
421
 16777215
 74
     0
 91
        0
 64
     7
 65
   257
 75
     1
175
     1
 42
1.0
 92
        8
 66
     7
 43
1.0
 76
     1
 77
     6
 78
     2
 67
     7
 79
     5
170
     0
171
     0
290
     0
174
     0
 93
       13
 44
0.0
173
     0
291
     1
 45
0.0
  0
VISUALSTYLE
  5
2C
102
{ACAD_REACTORS
330
2A
102
}
102
{ACAD_XDICTIONARY
360
1CC
102
}
330
2A
100
AcDbVisualStyle
  2
FlatWithEdges
 70
     1
 71
     2
 72
     1
 73
     1
 90
        2
 40
0.6
 41
30.0
 62
     5
 63
     7
421
 16777215
 74
     1
 91
        0
 64
     7
 65
   257
 75
     1
175
     1
 42
1.0
 92
        0
 66
   257
 43
1.0
 76
     1
 77
     6
 78
     2
 67
     7
 79
     5
170
     0
171
     0
290
     0
174
     0
 93
       13
 44
0.0
173
     0
291
     1
 45
0.0
  0
VISUALSTYLE
  5
2D
102
{ACAD_REACTORS
330
2A
102
}
102
{ACAD_XDICTIONARY
360
1CE
102
}
330
2A
100
AcDbVisualStyle
  2
Gouraud
 70
     2
 71
     2
 72
     2
 73
     1
 90
        2
 40
0.6
 41
30.0
 62
     5
 63
     7
421
 16777215
 74
     0
 91
        0
 64
     7
 65
   257
 75
     1
175
     1
 42
1.0
 92
        0
 66
     7
 43
1.0
 76
     1
 77
     6
 78
     2
 67
     7
 79
     5
170
     0
171
     0
290
     0
174
     0
 93
       13
 44
0.0
173
     0
291
     1
 45
0.0
  0
VISUALSTYLE
  5
2E
102
{ACAD_REACTORS
330
2A
102
}
102
{ACAD_XDICTIONARY
360
1D0
102
}
330
2A
100
AcDbVisualStyle
  2
GouraudWithEdges
 70
     3
 71
     2
 72
     2
 73
     1
 90
        2
 40
0.6
 41
30.0
 62
     5
 63
     7
421
 16777215
 74
     1
 91
        0
 64
     7
 65
   257
 75
     1
175
     1
 42
1.0
 92
        0
 66
   257
 43
1.0
 76
     1
 77
     6
 78
     2
 67
     7
 79
     5
170
     0
171
     0
290
     0
174
     0
 93
       13
 44
0.0
173
     0
291
     1
 45
0.0
  0
VISUALSTYLE
  5
31
102
{ACAD_REACTORS
330
2A
102
}
102
{ACAD_XDICTIONARY
360
1D6
102
}
330
2A
100
AcDbVisualStyle
  2
Hidden
 70
     6
 71
     1
 72
     2
 73
     2
 90
        0
 40
0.6
 41
30.0
 62
     5
 63
     7
421
 16777215
 74
     2
 91
        2
 64
     7
 65
   257
 75
     2
175
     1
 42
40.0
 92
        0
 66
   257
 43
1.0
 76
     1
 77
     6
 78
     2
 67
     7
 79
     3
170
     0
171
     0
290
     0
174
     0
 93
        1
 44
0.0
173
     0
291
     0
 45
0.0
  0
VISUALSTYLE
  5
3B
102
{ACAD_REACTORS
330
2A
102
}
102
{ACAD_XDICTIONARY
360
1EA
102
}
330
2A
100
AcDbVisualStyle
  2
JitterOff
 70
    20
 71
     2
 72
     2
 73
     0
 90
        0
 40
0.6
 41
30.0
 62
     5
 63
     7
421
 16777215
 74
     1
 91
        4
 64
     7
 65
   257
 75
     1
175
     1
 42
1.0
 92
       10
 66
     7
 43
1.0
 76
     1
 77
     6
 78
     2
 67
     7
 79
     5
170
     0
171
     0
290
     0
174
     0
 93
        1
 44
0.0
173
     0
291
     1
 45
0.0
  0
VISUALSTYLE
  5
38
102
{ACAD_REACTORS
330
2A
102
}
102
{ACAD_XDICTIONARY
360
1E4
102
}
330
2A
100
AcDbVisualStyle
  2
Linepattern
 70
    14
 71
     2
 72
     2
 73
     0
 90
        0
 40
0.6
 41
30.0
 62
     5
 63
     7
421
 16777215
 74
     1
 91
        4
 64
     7
 65
   257
 75
     7
175
     7
 42
1.0
 92
        8
 66
     7
 43
1.0
 76
     1
 77
     6
 78
     2
 67
     7
 79
     5
170
     0
171
     0
290
     0
174
     0
 93
        1
 44
0.0
173
     0
291
     1
 45
0.0
  0
VISUALSTYLE
  5
3C
102
{ACAD_REACTORS
330
2A
102
}
102
{ACAD_XDICTIONARY
360
1EC
102
}
330
2A
100
AcDbVisualStyle
  2
OverhangOff
 70
    21
 71
     2
 72
     2
 73
     0
 90
        0
 40
0.6
 41
30.0
 62
     5
 63
     7
421
 16777215
 74
     1
 91
        4
 64
     7
 65
   257
 75
     1
175
     1
 42
1.0
 92
        9
 66
     7
 43
1.0
 76
     1
 77
     6
 78
     2
 67
     7
 79
     5
170
     0
171
     0
290
     0
174
     0
 93
        1
 44
0.0
173
     0
291
     1
 45
0.0
  0
VISUALSTYLE
  5
33
102
{ACAD_REACTORS
330
2A
102
}
102
{ACAD_XDICTIONARY
360
1DA
102
}
330
2A
100
AcDbVisualStyle
  2
Realistic
 70
     8
 71
     2
 72
     3
 73
     0
 90
        2
 40
0.6
 41
30.0
 62
     5
 63
     7
421
 16777215
 74
     0
 91
        0
 64
     7
 65
   257
 75
     1
175
     1
 42
1.0
 92
        8
 66
   257
 43
1.0
 76
     1
 77
     6
 78
     2
 67
     7
 79
     3
170
     0
171
     0
290
     0
174
     0
 93
       13
 44
0.0
173
     0
291
     0
 45
0.0
  0
VISUALSTYLE
  5
42
102
{ACAD_REACTORS
330
2A
102
}
102
{ACAD_XDICTIONARY
360
1F8
102
}
330
2A
100
AcDbVisualStyle
  2
Shaded
 70
    27
 71
     2
 72
     2
 73
     1
 90
        2
 40
0.6
 41
30.0
 62
     5
 63
     7
421
 16777215
 74
     0
 91
        4
 64
     7
 65
   257
 75
     1
175
     1
 42
1.0
 92
        8
 66
   257
 43
1.0
 76
     1
 77
     6
 78
     2
 67
     8
425
  7895160
 79
     3
170
     0
171
     0
290
     0
174
     0
 93
        5
 44
0.0
173
     0
291
     0
 45
0.0
  0
VISUALSTYLE
  5
41
102
{ACAD_REACTORS
330
2A
102
}
102
{ACAD_XDICTIONARY
360
1F6
102
}
330
2A
100
AcDbVisualStyle
  2
Shaded with edges
 70
    26
 71
     2
 72
     2
 73
     1
 90
        2
 40
0.6
 41
30.0
 62
     5
 63
     7
421
 16777215
 74
     1
 91
       10
 64
     7
 65
   257
 75
     2
175
     1
 42
1.0
 92
        8
 66
   257
 43
1.0
 76
     1
 77
     6
 78
     2
 67
     7
 79
     3
170
     0
171
     0
290
     0
174
     0
 93
        5
 44
0.0
173
     0
291
     0
 45
0.0
  0
VISUALSTYLE
  5
3E
102
{ACAD_REACTORS
330
2A
102
}
102
{ACAD_XDICTIONARY
360
1F0
102
}
330
2A
100
AcDbVisualStyle
  2
Shades of Gray
 70
    23
 71
     2
 72
     2
 73
     3
 90
        0
 40
0.6
 41
30.0
 62
     5
 63
     7
421
 16777215
 74
     2
 91
        2
 64
     7
 65
     7
 75
     1
175
     1
 42
40.0
 92
        8
 66
     7
 43
1.0
 76
     1
 77
     6
 78
     2
 67
     7
 79
     3
170
     0
171
     0
290
     0
174
     0
 93
        1
 44
0.0
173
     0
291
     0
 45
0.0
  0
VISUALSTYLE
  5
3F
102
{ACAD_REACTORS
330
2A
102
}
102
{ACAD_XDICTIONARY
360
1F2
102
}
330
2A
100
AcDbVisualStyle
  2
Sketchy
 70
    24
 71
     1
 72
     2
 73
     2
 90
        0
 40
0.6
 41
30.0
 62
     5
 63
     7
421
 16777215
 74
     2
 91
        2
 64
     7
 65
     7
 75
     1
175
     1
 42
40.0
 92
       11
 66
     7
 43
1.0
 76
     1
 77
     6
 78
     2
 67
     7
 79
     6
170
     0
171
     0
290
     0
174
     0
 93
        1
 44
0.0
173
     0
291
     0
 45
0.0
  0
VISUALSTYLE
  5
37
102
{ACAD_REACTORS
330
2A
102
}
102
{ACAD_XDICTIONARY
360
1E2
102
}
330
2A
100
AcDbVisualStyle
  2
Thicken
 70
    13
 71
     2
 72
     2
 73
     0
 90
        0
 40
0.6
 41
30.0
 62
     5
 63
     7
421
 16777215
 74
     1
 91
        4
 64
     7
 65
   257
 75
     1
175
     1
 42
1.0
 92
       12
 66
     7
 43
1.0
 76
     1
 77
     6
 78
     2
 67
     7
 79
     5
170
     0
171
     0
290
     0
174
     0
 93
        1
 44
0.0
173
     0
291
     1
 45
0.0
  0
VISUALSTYLE
  5
30
102
{ACAD_REACTORS
330
2A
102
}
102
{ACAD_XDICTIONARY
360
1D4
102
}
330
2A
100
AcDbVisualStyle
  2
Wireframe
 70
     5
 71
     0
 72
     2
 73
     0
 90
        0
 40
0.6
 41
30.0
 62
     5
 63
     7
421
 16777215
 74
     1
 91
        4
 64
     7
 65
   257
 75
     1
175
     1
 42
1.0
 92
        0
 66
   257
 43
1.0
 76
     1
 77
     6
 78
     2
 67
     7
 79
     3
170
     0
171
     0
290
     0
174
     0
 93
        1
 44
0.0
173
     0
291
     0
 45
0.0
  0
VISUALSTYLE
  5
40
102
{ACAD_REACTORS
330
2A
102
}
102
{ACAD_XDICTIONARY
360
1F4
102
}
330
2A
100
AcDbVisualStyle
  2
X-Ray
 70
    25
 71
     2
 72
     2
 73
     1
 90
        1
 40
0.5
 41
30.0
 62
     5
 63
     7
421
 16777215
 74
     1
 91
        0
 64
     7
 65
   257
 75
     1
175
     1
 42
1.0
 92
        8
 66
     7
 43
1.0
 76
     1
 77
     6
 78
     2
 67
     7
 79
     3
170
     0
171
     0
290
     0
174
     0
 93
       13
 44
0.0
173
     0
291
     0
 45
0.0
  0
DICTIONARYVAR
  5
1C8
102
{ACAD_REACTORS
330
1C7
102
}
330
1C7
100
DictionaryVariables
280
     0
  1
1:1
  0
DICTIONARYVAR
  5
204
102
{ACAD_REACTORS
330
1C7
102
}
330
1C7
100
DictionaryVariables
280
     0
  1
3.500000
  0
DICTIONARYVAR
  5
205
102
{ACAD_REACTORS
330
1C7
102
}
330
1C7
100
DictionaryVariables
280
     0
  1
acadiso.lin
  0
DICTIONARYVAR
  5
201
102
{ACAD_REACTORS
330
1C7
102
}
330
1C7
100
DictionaryVariables
280
     0
  1
Standard
  0
DICTIONARYVAR
  5
200
102
{ACAD_REACTORS
330
1C7
102
}
330
1C7
100
DictionaryVariables
280
     0
  1
Standard
  0
DICTIONARYVAR
  5
1C9
102
{ACAD_REACTORS
330
1C7
102
}
330
1C7
100
DictionaryVariables
280
     0
  1
2
  0
DICTIONARY
  5
1FD
330
5C
100
AcDbDictionary
280
     1
281
     1
  3
ACAD_XREC_ROUNDTRIP
360
1FE
  0
DICTIONARY
  5
1FA
330
5A
100
AcDbDictionary
280
     1
281
     1
  3
ACAD_ROUNDTRIP_2008_TABLESTYLE_CELLSTYLEMAP
360
1FB
  0
DICTIONARY
  5
1D2
330
2F
100
AcDbDictionary
280
     1
281
     1
  3
ACAD_XREC_ROUNDTRIP
360
1D3
  0
DICTIONARY
  5
1D8
330
32
100
AcDbDictionary
280
     1
281
     1
  3
ACAD_XREC_ROUNDTRIP
360
1D9
  0
DICTIONARY
  5
1E0
330
36
100
AcDbDictionary
280
     1
281
     1
  3
ACAD_XREC_ROUNDTRIP
360
1E1
  0
DICTIONARY
  5
1E8
330
3A
100
AcDbDictionary
280
     1
281
     1
  3
ACAD_XREC_ROUNDTRIP
360
1E9
  0
DICTIONARY
  5
1DC
330
34
100
AcDbDictionary
280
     1
281
     1
  3
ACAD_XREC_ROUNDTRIP
360
1DD
  0
DICTIONARY
  5
1DE
330
35
100
AcDbDictionary
280
     1
281
     1
  3
ACAD_XREC_ROUNDTRIP
360
1DF
  0
DICTIONARY
  5
1EE
330
3D
100
AcDbDictionary
280
     1
281
     1
  3
ACAD_XREC_ROUNDTRIP
360
1EF
  0
DICTIONARY
  5
1E6
330
39
100
AcDbDictionary
280
     1
281
     1
  3
ACAD_XREC_ROUNDTRIP
360
1E7
  0
DICTIONARY
  5
1CA
330
2B
100
AcDbDictionary
280
     1
281
     1
  3
ACAD_XREC_ROUNDTRIP
360
1CB
  0
DICTIONARY
  5
1CC
330
2C
100
AcDbDictionary
280
     1
281
     1
  3
ACAD_XREC_ROUNDTRIP
360
1CD
  0
DICTIONARY
  5
1CE
330
2D
100
AcDbDictionary
280
     1
281
     1
  3
ACAD_XREC_ROUNDTRIP
360
1CF
  0
DICTIONARY
  5
1D0
330
2E
100
AcDbDictionary
280
     1
281
     1
  3
ACAD_XREC_ROUNDTRIP
360
1D1
  0
DICTIONARY
  5
1D6
330
31
100
AcDbDictionary
280
     1
281
     1
  3
ACAD_XREC_ROUNDTRIP
360
1D7
  0
DICTIONARY
  5
1EA
330
3B
100
AcDbDictionary
280
     1
281
     1
  3
ACAD_XREC_ROUNDTRIP
360
1EB
  0
DICTIONARY
  5
1E4
330
38
100
AcDbDictionary
280
     1
281
     1
  3
ACAD_XREC_ROUNDTRIP
360
1E5
  0
DICTIONARY
  5
1EC
330
3C
100
AcDbDictionary
280
     1
281
     1
  3
ACAD_XREC_ROUNDTRIP
360
1ED
  0
DICTIONARY
  5
1DA
330
33
100
AcDbDictionary
280
     1
281
     1
  3
ACAD_XREC_ROUNDTRIP
360
1DB
  0
DICTIONARY
  5
1F8
330
42
100
AcDbDictionary
280
     1
281
     1
  3
ACAD_XREC_ROUNDTRIP
360
1F9
  0
DICTIONARY
  5
1F6
330
41
100
AcDbDictionary
280
     1
281
     1
  3
ACAD_XREC_ROUNDTRIP
360
1F7
  0
DICTIONARY
  5
1F0
330
3E
100
AcDbDictionary
280
     1
281
     1
  3
ACAD_XREC_ROUNDTRIP
360
1F1
  0
DICTIONARY
  5
1F2
330
3F
100
AcDbDictionary
280
     1
281
     1
  3
ACAD_XREC_ROUNDTRIP
360
1F3
  0
DICTIONARY
  5
1E2
330
37
100
AcDbDictionary
280
     1
281
     1
  3
ACAD_XREC_ROUNDTRIP
360
1E3
  0
DICTIONARY
  5
1D4
330
30
100
AcDbDictionary
280
     1
281
     1
  3
ACAD_XREC_ROUNDTRIP
360
1D5
  0
DICTIONARY
  5
1F4
330
40
100
AcDbDictionary
280
     1
281
     1
  3
ACAD_XREC_ROUNDTRIP
360
1F5
  0
XRECORD
  5
1FE
102
{ACAD_REACTORS
330
1FD
102
}
330
1FD
100
AcDbXrecord
280
     1
102
ACAD_ROUNDTRIP_2010_MLEADER_STYLE
  0
CELLSTYLEMAP
  5
1FB
102
{ACAD_REACTORS
330
1FA
102
}
330
1FA
100
AcDbCellStyleMap
 90
        3
300
CELLSTYLE
  1
TABLEFORMAT_BEGIN
 90
        5
170
     1
 91
        0
 92
    32768
 62
   257
 93
        1
300
CONTENTFORMAT
  1
CONTENTFORMAT_BEGIN
 90
        0
 91
        0
 92
        4
 93
        0
300

 40
0.0
140
1.0
 94
        5
 62
     0
340
11
144
6.0
309
CONTENTFORMAT_END
171
     1
301
MARGIN
  1
CELLMARGIN_BEGIN
 40
1.5
 40
1.5
 40
1.5
 40
1.5
 40
1.5
 40
1.5
309
CELLMARGIN_END
 94
        6
 95
        1
302
GRIDFORMAT
  1
GRIDFORMAT_BEGIN
 90
        0
 91
        1
 62
     0
 92
       -2
340
14
 93
        0
 40
0.045
309
GRIDFORMAT_END
 95
        2
302
GRIDFORMAT
  1
GRIDFORMAT_BEGIN
 90
        0
 91
        1
 62
     0
 92
       -2
340
14
 93
        0
 40
0.045
309
GRIDFORMAT_END
 95
        4
302
GRIDFORMAT
  1
GRIDFORMAT_BEGIN
 90
        0
 91
        1
 62
     0
 92
       -2
340
14
 93
        0
 40
0.045
309
GRIDFORMAT_END
 95
        8
302
GRIDFORMAT
  1
GRIDFORMAT_BEGIN
 90
        0
 91
        1
 62
     0
 92
       -2
340
14
 93
        0
 40
0.045
309
GRIDFORMAT_END
 95
       16
302
GRIDFORMAT
  1
GRIDFORMAT_BEGIN
 90
        0
 91
        1
 62
     0
 92
       -2
340
14
 93
        0
 40
0.045
309
GRIDFORMAT_END
 95
       32
302
GRIDFORMAT
  1
GRIDFORMAT_BEGIN
 90
        0
 91
        1
 62
     0
 92
       -2
340
14
 93
        0
 40
0.045
309
GRIDFORMAT_END
309
TABLEFORMAT_END
  1
CELLSTYLE_BEGIN
 90
        1
 91
        1
300
_TITLE
309
CELLSTYLE_END
300
CELLSTYLE
  1
TABLEFORMAT_BEGIN
 90
        5
170
     1
 91
        0
 92
        0
 62
   257
 93
        1
300
CONTENTFORMAT
  1
CONTENTFORMAT_BEGIN
 90
        0
 91
        0
 92
        4
 93
        0
300

 40
0.0
140
1.0
 94
        5
 62
     0
340
11
144
4.5
309
CONTENTFORMAT_END
171
     1
301
MARGIN
  1
CELLMARGIN_BEGIN
 40
1.5
 40
1.5
 40
1.5
 40
1.5
 40
1.5
 40
1.5
309
CELLMARGIN_END
 94
        6
 95
        1
302
GRIDFORMAT
  1
GRIDFORMAT_BEGIN
 90
        0
 91
        1
 62
     0
 92
       -2
340
14
 93
        0
 40
0.045
309
GRIDFORMAT_END
 95
        2
302
GRIDFORMAT
  1
GRIDFORMAT_BEGIN
 90
        0
 91
        1
 62
     0
 92
       -2
340
14
 93
        0
 40
0.045
309
GRIDFORMAT_END
 95
        4
302
GRIDFORMAT
  1
GRIDFORMAT_BEGIN
 90
        0
 91
        1
 62
     0
 92
       -2
340
14
 93
        0
 40
0.045
309
GRIDFORMAT_END
 95
        8
302
GRIDFORMAT
  1
GRIDFORMAT_BEGIN
 90
        0
 91
        1
 62
     0
 92
       -2
340
14
 93
        0
 40
0.045
309
GRIDFORMAT_END
 95
       16
302
GRIDFORMAT
  1
GRIDFORMAT_BEGIN
 90
        0
 91
        1
 62
     0
 92
       -2
340
14
 93
        0
 40
0.045
309
GRIDFORMAT_END
 95
       32
302
GRIDFORMAT
  1
GRIDFORMAT_BEGIN
 90
        0
 91
        1
 62
     0
 92
       -2
340
14
 93
        0
 40
0.045
309
GRIDFORMAT_END
309
TABLEFORMAT_END
  1
CELLSTYLE_BEGIN
 90
        2
 91
        1
300
_HEADER
309
CELLSTYLE_END
300
CELLSTYLE
  1
TABLEFORMAT_BEGIN
 90
        5
170
     1
 91
        0
 92
        0
 62
   257
 93
        1
300
CONTENTFORMAT
  1
CONTENTFORMAT_BEGIN
 90
        0
 91
        0
 92
        4
 93
        0
300

 40
0.0
140
1.0
 94
        2
 62
     0
340
11
144
4.5
309
CONTENTFORMAT_END
171
     1
301
MARGIN
  1
CELLMARGIN_BEGIN
 40
1.5
 40
1.5
 40
1.5
 40
1.5
 40
1.5
 40
1.5
309
CELLMARGIN_END
 94
        6
 95
        1
302
GRIDFORMAT
  1
GRIDFORMAT_BEGIN
 90
        0
 91
        1
 62
     0
 92
       -2
340
14
 93
        0
 40
0.045
309
GRIDFORMAT_END
 95
        2
302
GRIDFORMAT
  1
GRIDFORMAT_BEGIN
 90
        0
 91
        1
 62
     0
 92
       -2
340
14
 93
        0
 40
0.045
309
GRIDFORMAT_END
 95
        4
302
GRIDFORMAT
  1
GRIDFORMAT_BEGIN
 90
        0
 91
        1
 62
     0
 92
       -2
340
14
 93
        0
 40
0.045
309
GRIDFORMAT_END
 95
        8
302
GRIDFORMAT
  1
GRIDFORMAT_BEGIN
 90
        0
 91
        1
 62
     0
 92
       -2
340
14
 93
        0
 40
0.045
309
GRIDFORMAT_END
 95
       16
302
GRIDFORMAT
  1
GRIDFORMAT_BEGIN
 90
        0
 91
        1
 62
     0
 92
       -2
340
14
 93
        0
 40
0.045
309
GRIDFORMAT_END
 95
       32
302
GRIDFORMAT
  1
GRIDFORMAT_BEGIN
 90
        0
 91
        1
 62
     0
 92
       -2
340
14
 93
        0
 40
0.045
309
GRIDFORMAT_END
309
TABLEFORMAT_END
  1
CELLSTYLE_BEGIN
 90
        3
 91
        2
300
_DATA
309
CELLSTYLE_END
  0
XRECORD
  5
1D3
102
{ACAD_REACTORS
330
1D2
102
}
330
1D2
100
AcDbXrecord
280
     1
102
RTVSPropertyOp0
 70
     1
102
RTVSPropertyOp1
 70
     1
102
RTVSPropertyOp2
 70
     1
102
RTVSPropertyOp3
 70
     1
102
RTVSPropertyOp4
 70
     1
102
RTVSPropertyOp5
 70
     1
102
RTVSPropertyOp6
 70
     1
102
RTVSPropertyOp7
 70
     1
102
RTVSPropertyOp8
 70
     1
102
RTVSPropertyOp9
 70
     1
102
RTVSPropertyOp10
 70
     1
102
RTVSPropertyOp11
 70
     1
102
RTVSPropertyOp12
 70
     1
102
RTVSPropertyOp13
 70
     1
102
RTVSPropertyOp14
 70
     1
102
RTVSPropertyOp15
 70
     1
102
RTVSPropertyOp16
 70
     1
102
RTVSPropertyOp17
 70
     1
102
RTVSPropertyOp18
 70
     1
102
RTVSPropertyOp19
 70
     1
102
RTVSPropertyOp20
 70
     1
102
RTVSPropertyOp21
 70
     1
102
RTVSPropertyOp22
 70
     1
102
RTVSPropertyOp23
 70
     1
102
RTVSPropertyOp24
 70
     1
102
RTVSPropertyOp25
 70
     1
102
RTVSPropertyOp26
 70
     1
102
RTVSPropertyOp27
 70
     1
102
RTVSPropertyOp28
 70
     1
102
RTVSPropertyOp29
 70
     1
102
RTVSPropertyOp30
 70
     1
102
RTVSPropertyOp31
 70
     1
102
RTVSPropertyOp32
 70
     1
102
RTVSPropertyOp33
 70
     1
102
RTVSPropertyOp34
 70
     1
102
RTVSPropertyOp35
 70
     1
102
RTVSPropertyOp36
 70
     1
102
RTVSPropertyOp37
 70
     1
102
RTVSPropertyOp38
 70
     1
102
RTVSPropertyOp39
 70
     1
102
RTVSPropertyOp40
 70
     1
102
RTVSPropertyOp41
 70
     1
102
RTVSPropertyOp42
 70
     1
102
RTVSPropertyOp43
 70
     1
102
RTVSPropertyOp44
 70
     1
102
RTVSPropertyOp45
 70
     1
102
RTVSPropertyOp46
 70
     1
102
RTVSPropertyOp47
 70
     1
102
RTVSPropertyOp48
 70
     1
102
RTVSPropertyOp49
 70
     1
102
RTVSPropertyOp50
 70
     1
102
RTVSPropertyOp51
 70
     0
102
RTVSPropertyOp52
 70
     0
102
RTVSPropertyOp53
 70
     1
102
RTVSPropertyOp54
 70
     1
102
RTVSPropertyOp55
 70
     1
102
RTVSPropertyOp56
 70
     1
102
RTVSPropertyOp57
 70
     1
102
RTVSPost2010Prop28
280
     1
102
RTVSPost2010PropOp28
 70
     1
102
RTVSPost2010Prop29
280
     1
102
RTVSPost2010PropOp29
 70
     1
102
RTVSPost2010Prop30
280
     0
102
RTVSPost2010PropOp30
 70
     1
102
RTVSPost2010Prop31
280
     0
102
RTVSPost2010PropOp31
 70
     1
102
RTVSPost2010Prop32
280
     0
102
RTVSPost2010PropOp32
 70
     1
102
RTVSPost2010Prop33
280
     0
102
RTVSPost2010PropOp33
 70
     1
102
RTVSPost2010Prop34
280
     0
102
RTVSPost2010PropOp34
 70
     1
102
RTVSPost2010Prop35
280
     0
102
RTVSPost2010PropOp35
 70
     1
102
RTVSPost2010Prop36
280
     0
102
RTVSPost2010PropOp36
 70
     1
102
RTVSPost2010Prop37
 90
       50
102
RTVSPost2010PropOp37
 70
     1
102
RTVSPost2010Prop38
140
0.0
102
RTVSPost2010PropOp38
 70
     1
102
RTVSPost2010Prop39
140
1.0
102
RTVSPost2010PropOp39
 70
     1
102
RTVSPost2010Prop40
 90
        0
102
RTVSPost2010PropOp40
 70
     1
102
RTVSPost2010Prop41ColorIndex
 90
       18
102
RTVSPost2010Prop41ColorRGB
 90
        0
102
RTVSPost2010PropOp41
 70
     1
102
RTVSPost2010Prop42
 90
       50
102
RTVSPost2010PropOp42
 70
     1
102
RTVSPost2010Prop43
 90
        3
102
RTVSPost2010PropOp43
 70
     1
102
RTVSPost2010Prop44ColorIndex
 90
        5
102
RTVSPost2010Prop44ColorRGB
 90
      255
102
RTVSPost2010PropOp44
 70
     1
102
RTVSPost2010Prop45
280
     0
102
RTVSPost2010PropOp45
 70
     1
102
RTVSPost2010Prop46
 90
       50
102
RTVSPost2010PropOp46
 70
     1
102
RTVSPost2010Prop47
 90
       50
102
RTVSPost2010PropOp47
 70
     1
102
RTVSPost2010Prop48
 90
       50
102
RTVSPost2010PropOp48
 70
     1
102
RTVSPost2010Prop49
280
     0
102
RTVSPost2010PropOp49
 70
     1
102
RTVSPost2010Prop50
 90
       50
102
RTVSPost2010PropOp50
 70
     1
102
RTVSPost2010Prop51ColorIndex
 90
      256
102
RTVSPost2010Prop51ColorRGB
 90
-16777216
102
RTVSPost2010PropOp51
 70
     0
102
RTVSPost2010Prop52
140
1.0
102
RTVSPost2010PropOp52
 70
     0
102
RTVSPost2010Prop53
 90
        2
102
RTVSPost2010PropOp53
 70
     1
102
RTVSPost2010Prop54
  1
strokes_ogs.tif
102
RTVSPost2010PropOp54
 70
     1
102
RTVSPost2010Prop55
280
     0
102
RTVSPost2010PropOp55
 70
     1
102
RTVSPost2010Prop56
140
1.0
102
RTVSPost2010PropOp56
 70
     1
102
RTVSPost2010Prop57
140
1.0
102
RTVSPost2010PropOp57
 70
     1
  0
XRECORD
  5
1D9
102
{ACAD_REACTORS
330
1D8
102
}
330
1D8
100
AcDbXrecord
280
     1
102
RTVSPropertyOp0
 70
     1
102
RTVSPropertyOp1
 70
     1
102
RTVSPropertyOp2
 70
     1
102
RTVSPropertyOp3
 70
     1
102
RTVSPropertyOp4
 70
     1
102
RTVSPropertyOp5
 70
     1
102
RTVSPropertyOp6
 70
     1
102
RTVSPropertyOp7
 70
     1
102
RTVSPropertyOp8
 70
     1
102
RTVSPropertyOp9
 70
     1
102
RTVSPropertyOp10
 70
     1
102
RTVSPropertyOp11
 70
     1
102
RTVSPropertyOp12
 70
     1
102
RTVSPropertyOp13
 70
     1
102
RTVSPropertyOp14
 70
     1
102
RTVSPropertyOp15
 70
     1
102
RTVSPropertyOp16
 70
     1
102
RTVSPropertyOp17
 70
     1
102
RTVSPropertyOp18
 70
     1
102
RTVSPropertyOp19
 70
     1
102
RTVSPropertyOp20
 70
     1
102
RTVSPropertyOp21
 70
     1
102
RTVSPropertyOp22
 70
     1
102
RTVSPropertyOp23
 70
     1
102
RTVSPropertyOp24
 70
     1
102
RTVSPropertyOp25
 70
     1
102
RTVSPropertyOp26
 70
     1
102
RTVSPropertyOp27
 70
     1
102
RTVSPropertyOp28
 70
     1
102
RTVSPropertyOp29
 70
     1
102
RTVSPropertyOp30
 70
     1
102
RTVSPropertyOp31
 70
     1
102
RTVSPropertyOp32
 70
     1
102
RTVSPropertyOp33
 70
     1
102
RTVSPropertyOp34
 70
     1
102
RTVSPropertyOp35
 70
     1
102
RTVSPropertyOp36
 70
     1
102
RTVSPropertyOp37
 70
     1
102
RTVSPropertyOp38
 70
     1
102
RTVSPropertyOp39
 70
     1
102
RTVSPropertyOp40
 70
     1
102
RTVSPropertyOp41
 70
     1
102
RTVSPropertyOp42
 70
     1
102
RTVSPropertyOp43
 70
     1
102
RTVSPropertyOp44
 70
     1
102
RTVSPropertyOp45
 70
     1
102
RTVSPropertyOp46
 70
     1
102
RTVSPropertyOp47
 70
     1
102
RTVSPropertyOp48
 70
     1
102
RTVSPropertyOp49
 70
     1
102
RTVSPropertyOp50
 70
     1
102
RTVSPropertyOp51
 70
     0
102
RTVSPropertyOp52
 70
     0
102
RTVSPropertyOp53
 70
     1
102
RTVSPropertyOp54
 70
     1
102
RTVSPropertyOp55
 70
     1
102
RTVSPropertyOp56
 70
     1
102
RTVSPropertyOp57
 70
     1
102
RTVSPost2010Prop28
280
     0
102
RTVSPost2010PropOp28
 70
     1
102
RTVSPost2010Prop29
280
     1
102
RTVSPost2010PropOp29
 70
     1
102
RTVSPost2010Prop30
280
     1
102
RTVSPost2010PropOp30
 70
     1
102
RTVSPost2010Prop31
280
     0
102
RTVSPost2010PropOp31
 70
     1
102
RTVSPost2010Prop32
280
     0
102
RTVSPost2010PropOp32
 70
     1
102
RTVSPost2010Prop33
280
     0
102
RTVSPost2010PropOp33
 70
     1
102
RTVSPost2010Prop34
280
     0
102
RTVSPost2010PropOp34
 70
     1
102
RTVSPost2010Prop35
280
     0
102
RTVSPost2010PropOp35
 70
     1
102
RTVSPost2010Prop36
280
     0
102
RTVSPost2010PropOp36
 70
     1
102
RTVSPost2010Prop37
 90
       50
102
RTVSPost2010PropOp37
 70
     1
102
RTVSPost2010Prop38
140
0.0
102
RTVSPost2010PropOp38
 70
     1
102
RTVSPost2010Prop39
140
1.0
102
RTVSPost2010PropOp39
 70
     1
102
RTVSPost2010Prop40
 90
        0
102
RTVSPost2010PropOp40
 70
     1
102
RTVSPost2010Prop41ColorIndex
 90
       18
102
RTVSPost2010Prop41ColorRGB
 90
        0
102
RTVSPost2010PropOp41
 70
     1
102
RTVSPost2010Prop42
 90
       50
102
RTVSPost2010PropOp42
 70
     1
102
RTVSPost2010Prop43
 90
        3
102
RTVSPost2010PropOp43
 70
     1
102
RTVSPost2010Prop44ColorIndex
 90
        5
102
RTVSPost2010Prop44ColorRGB
 90
      255
102
RTVSPost2010PropOp44
 70
     1
102
RTVSPost2010Prop45
280
     0
102
RTVSPost2010PropOp45
 70
     1
102
RTVSPost2010Prop46
 90
       50
102
RTVSPost2010PropOp46
 70
     1
102
RTVSPost2010Prop47
 90
       50
102
RTVSPost2010PropOp47
 70
     1
102
RTVSPost2010Prop48
 90
       50
102
RTVSPost2010PropOp48
 70
     1
102
RTVSPost2010Prop49
280
     0
102
RTVSPost2010PropOp49
 70
     1
102
RTVSPost2010Prop50
 90
       50
102
RTVSPost2010PropOp50
 70
     1
102
RTVSPost2010Prop51ColorIndex
 90
      256
102
RTVSPost2010Prop51ColorRGB
 90
-16777216
102
RTVSPost2010PropOp51
 70
     0
102
RTVSPost2010Prop52
140
1.0
102
RTVSPost2010PropOp52
 70
     0
102
RTVSPost2010Prop53
 90
        2
102
RTVSPost2010PropOp53
 70
     1
102
RTVSPost2010Prop54
  1
strokes_ogs.tif
102
RTVSPost2010PropOp54
 70
     1
102
RTVSPost2010Prop55
280
     0
102
RTVSPost2010PropOp55
 70
     1
102
RTVSPost2010Prop56
140
1.0
102
RTVSPost2010PropOp56
 70
     1
102
RTVSPost2010Prop57
140
1.0
102
RTVSPost2010PropOp57
 70
     1
  0
XRECORD
  5
1E1
102
{ACAD_REACTORS
330
1E0
102
}
330
1E0
100
AcDbXrecord
280
     1
102
RTVSPropertyOp0
 70
     1
102
RTVSPropertyOp1
 70
     1
102
RTVSPropertyOp2
 70
     1
102
RTVSPropertyOp3
 70
     1
102
RTVSPropertyOp4
 70
     1
102
RTVSPropertyOp5
 70
     1
102
RTVSPropertyOp6
 70
     1
102
RTVSPropertyOp7
 70
     1
102
RTVSPropertyOp8
 70
     1
102
RTVSPropertyOp9
 70
     1
102
RTVSPropertyOp10
 70
     1
102
RTVSPropertyOp11
 70
     1
102
RTVSPropertyOp12
 70
     1
102
RTVSPropertyOp13
 70
     1
102
RTVSPropertyOp14
 70
     1
102
RTVSPropertyOp15
 70
     1
102
RTVSPropertyOp16
 70
     1
102
RTVSPropertyOp17
 70
     1
102
RTVSPropertyOp18
 70
     1
102
RTVSPropertyOp19
 70
     1
102
RTVSPropertyOp20
 70
     1
102
RTVSPropertyOp21
 70
     1
102
RTVSPropertyOp22
 70
     1
102
RTVSPropertyOp23
 70
     1
102
RTVSPropertyOp24
 70
     1
102
RTVSPropertyOp25
 70
     1
102
RTVSPropertyOp26
 70
     1
102
RTVSPropertyOp27
 70
     1
102
RTVSPropertyOp28
 70
     1
102
RTVSPropertyOp29
 70
     1
102
RTVSPropertyOp30
 70
     1
102
RTVSPropertyOp31
 70
     1
102
RTVSPropertyOp32
 70
     1
102
RTVSPropertyOp33
 70
     1
102
RTVSPropertyOp34
 70
     1
102
RTVSPropertyOp35
 70
     1
102
RTVSPropertyOp36
 70
     1
102
RTVSPropertyOp37
 70
     1
102
RTVSPropertyOp38
 70
     1
102
RTVSPropertyOp39
 70
     1
102
RTVSPropertyOp40
 70
     1
102
RTVSPropertyOp41
 70
     1
102
RTVSPropertyOp42
 70
     1
102
RTVSPropertyOp43
 70
     1
102
RTVSPropertyOp44
 70
     1
102
RTVSPropertyOp45
 70
     1
102
RTVSPropertyOp46
 70
     1
102
RTVSPropertyOp47
 70
     1
102
RTVSPropertyOp48
 70
     1
102
RTVSPropertyOp49
 70
     1
102
RTVSPropertyOp50
 70
     1
102
RTVSPropertyOp51
 70
     0
102
RTVSPropertyOp52
 70
     0
102
RTVSPropertyOp53
 70
     1
102
RTVSPropertyOp54
 70
     1
102
RTVSPropertyOp55
 70
     1
102
RTVSPropertyOp56
 70
     1
102
RTVSPropertyOp57
 70
     1
102
RTVSPost2010Prop28
280
     0
102
RTVSPost2010PropOp28
 70
     1
102
RTVSPost2010Prop29
280
     1
102
RTVSPost2010PropOp29
 70
     1
102
RTVSPost2010Prop30
280
     1
102
RTVSPost2010PropOp30
 70
     1
102
RTVSPost2010Prop31
280
     0
102
RTVSPost2010PropOp31
 70
     1
102
RTVSPost2010Prop32
280
     0
102
RTVSPost2010PropOp32
 70
     1
102
RTVSPost2010Prop33
280
     0
102
RTVSPost2010PropOp33
 70
     1
102
RTVSPost2010Prop34
280
     0
102
RTVSPost2010PropOp34
 70
     1
102
RTVSPost2010Prop35
280
     0
102
RTVSPost2010PropOp35
 70
     1
102
RTVSPost2010Prop36
280
     0
102
RTVSPost2010PropOp36
 70
     1
102
RTVSPost2010Prop37
 90
       50
102
RTVSPost2010PropOp37
 70
     1
102
RTVSPost2010Prop38
140
0.0
102
RTVSPost2010PropOp38
 70
     1
102
RTVSPost2010Prop39
140
1.0
102
RTVSPost2010PropOp39
 70
     1
102
RTVSPost2010Prop40
 90
        0
102
RTVSPost2010PropOp40
 70
     1
102
RTVSPost2010Prop41ColorIndex
 90
       18
102
RTVSPost2010Prop41ColorRGB
 90
        0
102
RTVSPost2010PropOp41
 70
     1
102
RTVSPost2010Prop42
 90
       50
102
RTVSPost2010PropOp42
 70
     1
102
RTVSPost2010Prop43
 90
        3
102
RTVSPost2010PropOp43
 70
     1
102
RTVSPost2010Prop44ColorIndex
 90
        5
102
RTVSPost2010Prop44ColorRGB
 90
      255
102
RTVSPost2010PropOp44
 70
     1
102
RTVSPost2010Prop45
280
     0
102
RTVSPost2010PropOp45
 70
     1
102
RTVSPost2010Prop46
 90
       50
102
RTVSPost2010PropOp46
 70
     1
102
RTVSPost2010Prop47
 90
       50
102
RTVSPost2010PropOp47
 70
     1
102
RTVSPost2010Prop48
 90
       50
102
RTVSPost2010PropOp48
 70
     1
102
RTVSPost2010Prop49
280
     0
102
RTVSPost2010PropOp49
 70
     1
102
RTVSPost2010Prop50
 90
       50
102
RTVSPost2010PropOp50
 70
     1
102
RTVSPost2010Prop51ColorIndex
 90
      256
102
RTVSPost2010Prop51ColorRGB
 90
-16777216
102
RTVSPost2010PropOp51
 70
     0
102
RTVSPost2010Prop52
140
1.0
102
RTVSPost2010PropOp52
 70
     0
102
RTVSPost2010Prop53
 90
        2
102
RTVSPost2010PropOp53
 70
     1
102
RTVSPost2010Prop54
  1
strokes_ogs.tif
102
RTVSPost2010PropOp54
 70
     1
102
RTVSPost2010Prop55
280
     0
102
RTVSPost2010PropOp55
 70
     1
102
RTVSPost2010Prop56
140
1.0
102
RTVSPost2010PropOp56
 70
     1
102
RTVSPost2010Prop57
140
1.0
102
RTVSPost2010PropOp57
 70
     1
  0
XRECORD
  5
1E9
102
{ACAD_REACTORS
330
1E8
102
}
330
1E8
100
AcDbXrecord
280
     1
102
RTVSPropertyOp0
 70
     1
102
RTVSPropertyOp1
 70
     1
102
RTVSPropertyOp2
 70
     1
102
RTVSPropertyOp3
 70
     1
102
RTVSPropertyOp4
 70
     1
102
RTVSPropertyOp5
 70
     1
102
RTVSPropertyOp6
 70
     1
102
RTVSPropertyOp7
 70
     1
102
RTVSPropertyOp8
 70
     1
102
RTVSPropertyOp9
 70
     1
102
RTVSPropertyOp10
 70
     1
102
RTVSPropertyOp11
 70
     1
102
RTVSPropertyOp12
 70
     1
102
RTVSPropertyOp13
 70
     1
102
RTVSPropertyOp14
 70
     1
102
RTVSPropertyOp15
 70
     1
102
RTVSPropertyOp16
 70
     1
102
RTVSPropertyOp17
 70
     1
102
RTVSPropertyOp18
 70
     1
102
RTVSPropertyOp19
 70
     1
102
RTVSPropertyOp20
 70
     1
102
RTVSPropertyOp21
 70
     1
102
RTVSPropertyOp22
 70
     1
102
RTVSPropertyOp23
 70
     1
102
RTVSPropertyOp24
 70
     1
102
RTVSPropertyOp25
 70
     1
102
RTVSPropertyOp26
 70
     1
102
RTVSPropertyOp27
 70
     1
102
RTVSPropertyOp28
 70
     1
102
RTVSPropertyOp29
 70
     1
102
RTVSPropertyOp30
 70
     1
102
RTVSPropertyOp31
 70
     1
102
RTVSPropertyOp32
 70
     1
102
RTVSPropertyOp33
 70
     1
102
RTVSPropertyOp34
 70
     1
102
RTVSPropertyOp35
 70
     1
102
RTVSPropertyOp36
 70
     1
102
RTVSPropertyOp37
 70
     1
102
RTVSPropertyOp38
 70
     1
102
RTVSPropertyOp39
 70
     1
102
RTVSPropertyOp40
 70
     1
102
RTVSPropertyOp41
 70
     1
102
RTVSPropertyOp42
 70
     1
102
RTVSPropertyOp43
 70
     1
102
RTVSPropertyOp44
 70
     1
102
RTVSPropertyOp45
 70
     1
102
RTVSPropertyOp46
 70
     1
102
RTVSPropertyOp47
 70
     1
102
RTVSPropertyOp48
 70
     1
102
RTVSPropertyOp49
 70
     1
102
RTVSPropertyOp50
 70
     1
102
RTVSPropertyOp51
 70
     0
102
RTVSPropertyOp52
 70
     0
102
RTVSPropertyOp53
 70
     1
102
RTVSPropertyOp54
 70
     1
102
RTVSPropertyOp55
 70
     1
102
RTVSPropertyOp56
 70
     1
102
RTVSPropertyOp57
 70
     1
102
RTVSPost2010Prop28
280
     0
102
RTVSPost2010PropOp28
 70
     1
102
RTVSPost2010Prop29
280
     1
102
RTVSPost2010PropOp29
 70
     1
102
RTVSPost2010Prop30
280
     1
102
RTVSPost2010PropOp30
 70
     1
102
RTVSPost2010Prop31
280
     0
102
RTVSPost2010PropOp31
 70
     1
102
RTVSPost2010Prop32
280
     0
102
RTVSPost2010PropOp32
 70
     1
102
RTVSPost2010Prop33
280
     0
102
RTVSPost2010PropOp33
 70
     1
102
RTVSPost2010Prop34
280
     0
102
RTVSPost2010PropOp34
 70
     1
102
RTVSPost2010Prop35
280
     0
102
RTVSPost2010PropOp35
 70
     1
102
RTVSPost2010Prop36
280
     0
102
RTVSPost2010PropOp36
 70
     1
102
RTVSPost2010Prop37
 90
       50
102
RTVSPost2010PropOp37
 70
     1
102
RTVSPost2010Prop38
140
0.0
102
RTVSPost2010PropOp38
 70
     1
102
RTVSPost2010Prop39
140
1.0
102
RTVSPost2010PropOp39
 70
     1
102
RTVSPost2010Prop40
 90
        0
102
RTVSPost2010PropOp40
 70
     1
102
RTVSPost2010Prop41ColorIndex
 90
       18
102
RTVSPost2010Prop41ColorRGB
 90
        0
102
RTVSPost2010PropOp41
 70
     1
102
RTVSPost2010Prop42
 90
       50
102
RTVSPost2010PropOp42
 70
     1
102
RTVSPost2010Prop43
 90
        3
102
RTVSPost2010PropOp43
 70
     1
102
RTVSPost2010Prop44ColorIndex
 90
        5
102
RTVSPost2010Prop44ColorRGB
 90
      255
102
RTVSPost2010PropOp44
 70
     1
102
RTVSPost2010Prop45
280
     0
102
RTVSPost2010PropOp45
 70
     1
102
RTVSPost2010Prop46
 90
       50
102
RTVSPost2010PropOp46
 70
     1
102
RTVSPost2010Prop47
 90
       50
102
RTVSPost2010PropOp47
 70
     1
102
RTVSPost2010Prop48
 90
       50
102
RTVSPost2010PropOp48
 70
     1
102
RTVSPost2010Prop49
280
     0
102
RTVSPost2010PropOp49
 70
     1
102
RTVSPost2010Prop50
 90
       50
102
RTVSPost2010PropOp50
 70
     1
102
RTVSPost2010Prop51ColorIndex
 90
      256
102
RTVSPost2010Prop51ColorRGB
 90
-16777216
102
RTVSPost2010PropOp51
 70
     0
102
RTVSPost2010Prop52
140
1.0
102
RTVSPost2010PropOp52
 70
     0
102
RTVSPost2010Prop53
 90
        2
102
RTVSPost2010PropOp53
 70
     1
102
RTVSPost2010Prop54
  1
strokes_ogs.tif
102
RTVSPost2010PropOp54
 70
     1
102
RTVSPost2010Prop55
280
     0
102
RTVSPost2010PropOp55
 70
     1
102
RTVSPost2010Prop56
140
1.0
102
RTVSPost2010PropOp56
 70
     1
102
RTVSPost2010Prop57
140
1.0
102
RTVSPost2010PropOp57
 70
     1
  0
XRECORD
  5
1DD
102
{ACAD_REACTORS
330
1DC
102
}
330
1DC
100
AcDbXrecord
280
     1
102
RTVSPropertyOp0
 70
     1
102
RTVSPropertyOp1
 70
     1
102
RTVSPropertyOp2
 70
     1
102
RTVSPropertyOp3
 70
     1
102
RTVSPropertyOp4
 70
     1
102
RTVSPropertyOp5
 70
     1
102
RTVSPropertyOp6
 70
     1
102
RTVSPropertyOp7
 70
     1
102
RTVSPropertyOp8
 70
     1
102
RTVSPropertyOp9
 70
     1
102
RTVSPropertyOp10
 70
     1
102
RTVSPropertyOp11
 70
     1
102
RTVSPropertyOp12
 70
     1
102
RTVSPropertyOp13
 70
     1
102
RTVSPropertyOp14
 70
     1
102
RTVSPropertyOp15
 70
     1
102
RTVSPropertyOp16
 70
     1
102
RTVSPropertyOp17
 70
     1
102
RTVSPropertyOp18
 70
     1
102
RTVSPropertyOp19
 70
     1
102
RTVSPropertyOp20
 70
     1
102
RTVSPropertyOp21
 70
     1
102
RTVSPropertyOp22
 70
     1
102
RTVSPropertyOp23
 70
     1
102
RTVSPropertyOp24
 70
     1
102
RTVSPropertyOp25
 70
     1
102
RTVSPropertyOp26
 70
     1
102
RTVSPropertyOp27
 70
     1
102
RTVSPropertyOp28
 70
     1
102
RTVSPropertyOp29
 70
     1
102
RTVSPropertyOp30
 70
     1
102
RTVSPropertyOp31
 70
     1
102
RTVSPropertyOp32
 70
     1
102
RTVSPropertyOp33
 70
     1
102
RTVSPropertyOp34
 70
     1
102
RTVSPropertyOp35
 70
     1
102
RTVSPropertyOp36
 70
     1
102
RTVSPropertyOp37
 70
     1
102
RTVSPropertyOp38
 70
     1
102
RTVSPropertyOp39
 70
     1
102
RTVSPropertyOp40
 70
     1
102
RTVSPropertyOp41
 70
     1
102
RTVSPropertyOp42
 70
     1
102
RTVSPropertyOp43
 70
     1
102
RTVSPropertyOp44
 70
     1
102
RTVSPropertyOp45
 70
     1
102
RTVSPropertyOp46
 70
     1
102
RTVSPropertyOp47
 70
     1
102
RTVSPropertyOp48
 70
     1
102
RTVSPropertyOp49
 70
     1
102
RTVSPropertyOp50
 70
     1
102
RTVSPropertyOp51
 70
     0
102
RTVSPropertyOp52
 70
     0
102
RTVSPropertyOp53
 70
     1
102
RTVSPropertyOp54
 70
     1
102
RTVSPropertyOp55
 70
     1
102
RTVSPropertyOp56
 70
     1
102
RTVSPropertyOp57
 70
     1
102
RTVSPost2010Prop28
280
     0
102
RTVSPost2010PropOp28
 70
     1
102
RTVSPost2010Prop29
280
     1
102
RTVSPost2010PropOp29
 70
     1
102
RTVSPost2010Prop30
280
     1
102
RTVSPost2010PropOp30
 70
     1
102
RTVSPost2010Prop31
280
     0
102
RTVSPost2010PropOp31
 70
     1
102
RTVSPost2010Prop32
280
     0
102
RTVSPost2010PropOp32
 70
     1
102
RTVSPost2010Prop33
280
     0
102
RTVSPost2010PropOp33
 70
     1
102
RTVSPost2010Prop34
280
     0
102
RTVSPost2010PropOp34
 70
     1
102
RTVSPost2010Prop35
280
     0
102
RTVSPost2010PropOp35
 70
     1
102
RTVSPost2010Prop36
280
     0
102
RTVSPost2010PropOp36
 70
     1
102
RTVSPost2010Prop37
 90
       50
102
RTVSPost2010PropOp37
 70
     1
102
RTVSPost2010Prop38
140
0.0
102
RTVSPost2010PropOp38
 70
     1
102
RTVSPost2010Prop39
140
1.0
102
RTVSPost2010PropOp39
 70
     1
102
RTVSPost2010Prop40
 90
        0
102
RTVSPost2010PropOp40
 70
     1
102
RTVSPost2010Prop41ColorIndex
 90
       18
102
RTVSPost2010Prop41ColorRGB
 90
        0
102
RTVSPost2010PropOp41
 70
     1
102
RTVSPost2010Prop42
 90
       50
102
RTVSPost2010PropOp42
 70
     1
102
RTVSPost2010Prop43
 90
        3
102
RTVSPost2010PropOp43
 70
     1
102
RTVSPost2010Prop44ColorIndex
 90
        5
102
RTVSPost2010Prop44ColorRGB
 90
      255
102
RTVSPost2010PropOp44
 70
     1
102
RTVSPost2010Prop45
280
     0
102
RTVSPost2010PropOp45
 70
     1
102
RTVSPost2010Prop46
 90
       50
102
RTVSPost2010PropOp46
 70
     1
102
RTVSPost2010Prop47
 90
       50
102
RTVSPost2010PropOp47
 70
     1
102
RTVSPost2010Prop48
 90
       50
102
RTVSPost2010PropOp48
 70
     1
102
RTVSPost2010Prop49
280
     0
102
RTVSPost2010PropOp49
 70
     1
102
RTVSPost2010Prop50
 90
       50
102
RTVSPost2010PropOp50
 70
     1
102
RTVSPost2010Prop51ColorIndex
 90
      256
102
RTVSPost2010Prop51ColorRGB
 90
-16777216
102
RTVSPost2010PropOp51
 70
     0
102
RTVSPost2010Prop52
140
1.0
102
RTVSPost2010PropOp52
 70
     0
102
RTVSPost2010Prop53
 90
        2
102
RTVSPost2010PropOp53
 70
     1
102
RTVSPost2010Prop54
  1
strokes_ogs.tif
102
RTVSPost2010PropOp54
 70
     1
102
RTVSPost2010Prop55
280
     0
102
RTVSPost2010PropOp55
 70
     1
102
RTVSPost2010Prop56
140
1.0
102
RTVSPost2010PropOp56
 70
     1
102
RTVSPost2010Prop57
140
1.0
102
RTVSPost2010PropOp57
 70
     1
  0
XRECORD
  5
1DF
102
{ACAD_REACTORS
330
1DE
102
}
330
1DE
100
AcDbXrecord
280
     1
102
RTVSPropertyOp0
 70
     1
102
RTVSPropertyOp1
 70
     1
102
RTVSPropertyOp2
 70
     1
102
RTVSPropertyOp3
 70
     1
102
RTVSPropertyOp4
 70
     1
102
RTVSPropertyOp5
 70
     1
102
RTVSPropertyOp6
 70
     1
102
RTVSPropertyOp7
 70
     1
102
RTVSPropertyOp8
 70
     1
102
RTVSPropertyOp9
 70
     1
102
RTVSPropertyOp10
 70
     1
102
RTVSPropertyOp11
 70
     1
102
RTVSPropertyOp12
 70
     1
102
RTVSPropertyOp13
 70
     1
102
RTVSPropertyOp14
 70
     1
102
RTVSPropertyOp15
 70
     1
102
RTVSPropertyOp16
 70
     1
102
RTVSPropertyOp17
 70
     1
102
RTVSPropertyOp18
 70
     1
102
RTVSPropertyOp19
 70
     1
102
RTVSPropertyOp20
 70
     1
102
RTVSPropertyOp21
 70
     1
102
RTVSPropertyOp22
 70
     1
102
RTVSPropertyOp23
 70
     1
102
RTVSPropertyOp24
 70
     1
102
RTVSPropertyOp25
 70
     1
102
RTVSPropertyOp26
 70
     1
102
RTVSPropertyOp27
 70
     1
102
RTVSPropertyOp28
 70
     1
102
RTVSPropertyOp29
 70
     1
102
RTVSPropertyOp30
 70
     1
102
RTVSPropertyOp31
 70
     1
102
RTVSPropertyOp32
 70
     1
102
RTVSPropertyOp33
 70
     1
102
RTVSPropertyOp34
 70
     1
102
RTVSPropertyOp35
 70
     1
102
RTVSPropertyOp36
 70
     1
102
RTVSPropertyOp37
 70
     1
102
RTVSPropertyOp38
 70
     1
102
RTVSPropertyOp39
 70
     1
102
RTVSPropertyOp40
 70
     1
102
RTVSPropertyOp41
 70
     1
102
RTVSPropertyOp42
 70
     1
102
RTVSPropertyOp43
 70
     1
102
RTVSPropertyOp44
 70
     1
102
RTVSPropertyOp45
 70
     1
102
RTVSPropertyOp46
 70
     1
102
RTVSPropertyOp47
 70
     1
102
RTVSPropertyOp48
 70
     1
102
RTVSPropertyOp49
 70
     1
102
RTVSPropertyOp50
 70
     1
102
RTVSPropertyOp51
 70
     0
102
RTVSPropertyOp52
 70
     0
102
RTVSPropertyOp53
 70
     1
102
RTVSPropertyOp54
 70
     1
102
RTVSPropertyOp55
 70
     1
102
RTVSPropertyOp56
 70
     1
102
RTVSPropertyOp57
 70
     1
102
RTVSPost2010Prop28
280
     0
102
RTVSPost2010PropOp28
 70
     1
102
RTVSPost2010Prop29
280
     1
102
RTVSPost2010PropOp29
 70
     1
102
RTVSPost2010Prop30
280
     1
102
RTVSPost2010PropOp30
 70
     1
102
RTVSPost2010Prop31
280
     0
102
RTVSPost2010PropOp31
 70
     1
102
RTVSPost2010Prop32
280
     0
102
RTVSPost2010PropOp32
 70
     1
102
RTVSPost2010Prop33
280
     0
102
RTVSPost2010PropOp33
 70
     1
102
RTVSPost2010Prop34
280
     0
102
RTVSPost2010PropOp34
 70
     1
102
RTVSPost2010Prop35
280
     0
102
RTVSPost2010PropOp35
 70
     1
102
RTVSPost2010Prop36
280
     0
102
RTVSPost2010PropOp36
 70
     1
102
RTVSPost2010Prop37
 90
       50
102
RTVSPost2010PropOp37
 70
     1
102
RTVSPost2010Prop38
140
0.0
102
RTVSPost2010PropOp38
 70
     1
102
RTVSPost2010Prop39
140
1.0
102
RTVSPost2010PropOp39
 70
     1
102
RTVSPost2010Prop40
 90
        0
102
RTVSPost2010PropOp40
 70
     1
102
RTVSPost2010Prop41ColorIndex
 90
       18
102
RTVSPost2010Prop41ColorRGB
 90
        0
102
RTVSPost2010PropOp41
 70
     1
102
RTVSPost2010Prop42
 90
       50
102
RTVSPost2010PropOp42
 70
     1
102
RTVSPost2010Prop43
 90
        3
102
RTVSPost2010PropOp43
 70
     1
102
RTVSPost2010Prop44ColorIndex
 90
        5
102
RTVSPost2010Prop44ColorRGB
 90
      255
102
RTVSPost2010PropOp44
 70
     1
102
RTVSPost2010Prop45
280
     0
102
RTVSPost2010PropOp45
 70
     1
102
RTVSPost2010Prop46
 90
       50
102
RTVSPost2010PropOp46
 70
     1
102
RTVSPost2010Prop47
 90
       50
102
RTVSPost2010PropOp47
 70
     1
102
RTVSPost2010Prop48
 90
       50
102
RTVSPost2010PropOp48
 70
     1
102
RTVSPost2010Prop49
280
     0
102
RTVSPost2010PropOp49
 70
     1
102
RTVSPost2010Prop50
 90
       50
102
RTVSPost2010PropOp50
 70
     1
102
RTVSPost2010Prop51ColorIndex
 90
      256
102
RTVSPost2010Prop51ColorRGB
 90
-16777216
102
RTVSPost2010PropOp51
 70
     0
102
RTVSPost2010Prop52
140
1.0
102
RTVSPost2010PropOp52
 70
     0
102
RTVSPost2010Prop53
 90
        2
102
RTVSPost2010PropOp53
 70
     1
102
RTVSPost2010Prop54
  1
strokes_ogs.tif
102
RTVSPost2010PropOp54
 70
     1
102
RTVSPost2010Prop55
280
     0
102
RTVSPost2010PropOp55
 70
     1
102
RTVSPost2010Prop56
140
1.0
102
RTVSPost2010PropOp56
 70
     1
102
RTVSPost2010Prop57
140
1.0
102
RTVSPost2010PropOp57
 70
     1
  0
XRECORD
  5
1EF
102
{ACAD_REACTORS
330
1EE
102
}
330
1EE
100
AcDbXrecord
280
     1
102
RTVSPropertyOp0
 70
     0
102
RTVSPropertyOp1
 70
     0
102
RTVSPropertyOp2
 70
     0
102
RTVSPropertyOp3
 70
     0
102
RTVSPropertyOp4
 70
     0
102
RTVSPropertyOp5
 70
     0
102
RTVSPropertyOp6
 70
     0
102
RTVSPropertyOp7
 70
     0
102
RTVSPropertyOp8
 70
     0
102
RTVSPropertyOp9
 70
     0
102
RTVSPropertyOp10
 70
     0
102
RTVSPropertyOp11
 70
     0
102
RTVSPropertyOp12
 70
     0
102
RTVSPropertyOp13
 70
     0
102
RTVSPropertyOp14
 70
     2
102
RTVSPropertyOp15
 70
     0
102
RTVSPropertyOp16
 70
     0
102
RTVSPropertyOp17
 70
     0
102
RTVSPropertyOp18
 70
     0
102
RTVSPropertyOp19
 70
     0
102
RTVSPropertyOp20
 70
     0
102
RTVSPropertyOp21
 70
     0
102
RTVSPropertyOp22
 70
     0
102
RTVSPropertyOp23
 70
     0
102
RTVSPropertyOp24
 70
     0
102
RTVSPropertyOp25
 70
     0
102
RTVSPropertyOp26
 70
     0
102
RTVSPropertyOp27
 70
     0
102
RTVSPropertyOp28
 70
     0
102
RTVSPropertyOp29
 70
     0
102
RTVSPropertyOp30
 70
     0
102
RTVSPropertyOp31
 70
     0
102
RTVSPropertyOp32
 70
     0
102
RTVSPropertyOp33
 70
     0
102
RTVSPropertyOp34
 70
     0
102
RTVSPropertyOp35
 70
     0
102
RTVSPropertyOp36
 70
     0
102
RTVSPropertyOp37
 70
     0
102
RTVSPropertyOp38
 70
     0
102
RTVSPropertyOp39
 70
     0
102
RTVSPropertyOp40
 70
     0
102
RTVSPropertyOp41
 70
     0
102
RTVSPropertyOp42
 70
     0
102
RTVSPropertyOp43
 70
     0
102
RTVSPropertyOp44
 70
     0
102
RTVSPropertyOp45
 70
     0
102
RTVSPropertyOp46
 70
     0
102
RTVSPropertyOp47
 70
     0
102
RTVSPropertyOp48
 70
     0
102
RTVSPropertyOp49
 70
     0
102
RTVSPropertyOp50
 70
     0
102
RTVSPropertyOp51
 70
     0
102
RTVSPropertyOp52
 70
     0
102
RTVSPropertyOp53
 70
     0
102
RTVSPropertyOp54
 70
     0
102
RTVSPropertyOp55
 70
     0
102
RTVSPropertyOp56
 70
     0
102
RTVSPropertyOp57
 70
     0
102
RTVSPost2010Prop28
280
     0
102
RTVSPost2010PropOp28
 70
     0
102
RTVSPost2010Prop29
280
     1
102
RTVSPost2010PropOp29
 70
     0
102
RTVSPost2010Prop30
280
     1
102
RTVSPost2010PropOp30
 70
     0
102
RTVSPost2010Prop31
280
     0
102
RTVSPost2010PropOp31
 70
     0
102
RTVSPost2010Prop32
280
     0
102
RTVSPost2010PropOp32
 70
     0
102
RTVSPost2010Prop33
280
     0
102
RTVSPost2010PropOp33
 70
     0
102
RTVSPost2010Prop34
280
     0
102
RTVSPost2010PropOp34
 70
     0
102
RTVSPost2010Prop35
280
     0
102
RTVSPost2010PropOp35
 70
     0
102
RTVSPost2010Prop36
280
     0
102
RTVSPost2010PropOp36
 70
     0
102
RTVSPost2010Prop37
 90
       50
102
RTVSPost2010PropOp37
 70
     0
102
RTVSPost2010Prop38
140
0.0
102
RTVSPost2010PropOp38
 70
     0
102
RTVSPost2010Prop39
140
1.0
102
RTVSPost2010PropOp39
 70
     0
102
RTVSPost2010Prop40
 90
        0
102
RTVSPost2010PropOp40
 70
     0
102
RTVSPost2010Prop41ColorIndex
 90
       18
102
RTVSPost2010Prop41ColorRGB
 90
        0
102
RTVSPost2010PropOp41
 70
     0
102
RTVSPost2010Prop42
 90
       50
102
RTVSPost2010PropOp42
 70
     0
102
RTVSPost2010Prop43
 90
        3
102
RTVSPost2010PropOp43
 70
     0
102
RTVSPost2010Prop44ColorIndex
 90
        5
102
RTVSPost2010Prop44ColorRGB
 90
      255
102
RTVSPost2010PropOp44
 70
     0
102
RTVSPost2010Prop45
280
     0
102
RTVSPost2010PropOp45
 70
     0
102
RTVSPost2010Prop46
 90
       50
102
RTVSPost2010PropOp46
 70
     0
102
RTVSPost2010Prop47
 90
       50
102
RTVSPost2010PropOp47
 70
     0
102
RTVSPost2010Prop48
 90
       50
102
RTVSPost2010PropOp48
 70
     0
102
RTVSPost2010Prop49
280
     0
102
RTVSPost2010PropOp49
 70
     0
102
RTVSPost2010Prop50
 90
       50
102
RTVSPost2010PropOp50
 70
     0
102
RTVSPost2010Prop51ColorIndex
 90
      256
102
RTVSPost2010Prop51ColorRGB
 90
-16777216
102
RTVSPost2010PropOp51
 70
     0
102
RTVSPost2010Prop52
140
1.0
102
RTVSPost2010PropOp52
 70
     0
102
RTVSPost2010Prop53
 90
        2
102
RTVSPost2010PropOp53
 70
     0
102
RTVSPost2010Prop54
  1
strokes_ogs.tif
102
RTVSPost2010PropOp54
 70
     0
102
RTVSPost2010Prop55
280
     0
102
RTVSPost2010PropOp55
 70
     0
102
RTVSPost2010Prop56
140
1.0
102
RTVSPost2010PropOp56
 70
     0
102
RTVSPost2010Prop57
140
1.0
102
RTVSPost2010PropOp57
 70
     0
  0
XRECORD
  5
1E7
102
{ACAD_REACTORS
330
1E6
102
}
330
1E6
100
AcDbXrecord
280
     1
102
RTVSPropertyOp0
 70
     1
102
RTVSPropertyOp1
 70
     1
102
RTVSPropertyOp2
 70
     1
102
RTVSPropertyOp3
 70
     1
102
RTVSPropertyOp4
 70
     1
102
RTVSPropertyOp5
 70
     1
102
RTVSPropertyOp6
 70
     1
102
RTVSPropertyOp7
 70
     1
102
RTVSPropertyOp8
 70
     1
102
RTVSPropertyOp9
 70
     1
102
RTVSPropertyOp10
 70
     1
102
RTVSPropertyOp11
 70
     1
102
RTVSPropertyOp12
 70
     1
102
RTVSPropertyOp13
 70
     1
102
RTVSPropertyOp14
 70
     1
102
RTVSPropertyOp15
 70
     1
102
RTVSPropertyOp16
 70
     1
102
RTVSPropertyOp17
 70
     1
102
RTVSPropertyOp18
 70
     1
102
RTVSPropertyOp19
 70
     1
102
RTVSPropertyOp20
 70
     1
102
RTVSPropertyOp21
 70
     1
102
RTVSPropertyOp22
 70
     1
102
RTVSPropertyOp23
 70
     1
102
RTVSPropertyOp24
 70
     1
102
RTVSPropertyOp25
 70
     1
102
RTVSPropertyOp26
 70
     1
102
RTVSPropertyOp27
 70
     1
102
RTVSPropertyOp28
 70
     1
102
RTVSPropertyOp29
 70
     1
102
RTVSPropertyOp30
 70
     1
102
RTVSPropertyOp31
 70
     1
102
RTVSPropertyOp32
 70
     1
102
RTVSPropertyOp33
 70
     1
102
RTVSPropertyOp34
 70
     1
102
RTVSPropertyOp35
 70
     1
102
RTVSPropertyOp36
 70
     1
102
RTVSPropertyOp37
 70
     1
102
RTVSPropertyOp38
 70
     1
102
RTVSPropertyOp39
 70
     1
102
RTVSPropertyOp40
 70
     1
102
RTVSPropertyOp41
 70
     1
102
RTVSPropertyOp42
 70
     1
102
RTVSPropertyOp43
 70
     1
102
RTVSPropertyOp44
 70
     1
102
RTVSPropertyOp45
 70
     1
102
RTVSPropertyOp46
 70
     1
102
RTVSPropertyOp47
 70
     1
102
RTVSPropertyOp48
 70
     1
102
RTVSPropertyOp49
 70
     1
102
RTVSPropertyOp50
 70
     1
102
RTVSPropertyOp51
 70
     0
102
RTVSPropertyOp52
 70
     0
102
RTVSPropertyOp53
 70
     1
102
RTVSPropertyOp54
 70
     1
102
RTVSPropertyOp55
 70
     1
102
RTVSPropertyOp56
 70
     1
102
RTVSPropertyOp57
 70
     1
102
RTVSPost2010Prop28
280
     0
102
RTVSPost2010PropOp28
 70
     1
102
RTVSPost2010Prop29
280
     1
102
RTVSPost2010PropOp29
 70
     1
102
RTVSPost2010Prop30
280
     1
102
RTVSPost2010PropOp30
 70
     1
102
RTVSPost2010Prop31
280
     0
102
RTVSPost2010PropOp31
 70
     1
102
RTVSPost2010Prop32
280
     0
102
RTVSPost2010PropOp32
 70
     1
102
RTVSPost2010Prop33
280
     0
102
RTVSPost2010PropOp33
 70
     1
102
RTVSPost2010Prop34
280
     0
102
RTVSPost2010PropOp34
 70
     1
102
RTVSPost2010Prop35
280
     0
102
RTVSPost2010PropOp35
 70
     1
102
RTVSPost2010Prop36
280
     0
102
RTVSPost2010PropOp36
 70
     1
102
RTVSPost2010Prop37
 90
       50
102
RTVSPost2010PropOp37
 70
     1
102
RTVSPost2010Prop38
140
0.0
102
RTVSPost2010PropOp38
 70
     1
102
RTVSPost2010Prop39
140
1.0
102
RTVSPost2010PropOp39
 70
     1
102
RTVSPost2010Prop40
 90
        0
102
RTVSPost2010PropOp40
 70
     1
102
RTVSPost2010Prop41ColorIndex
 90
       18
102
RTVSPost2010Prop41ColorRGB
 90
        0
102
RTVSPost2010PropOp41
 70
     1
102
RTVSPost2010Prop42
 90
       50
102
RTVSPost2010PropOp42
 70
     1
102
RTVSPost2010Prop43
 90
        3
102
RTVSPost2010PropOp43
 70
     1
102
RTVSPost2010Prop44ColorIndex
 90
        5
102
RTVSPost2010Prop44ColorRGB
 90
      255
102
RTVSPost2010PropOp44
 70
     1
102
RTVSPost2010Prop45
280
     0
102
RTVSPost2010PropOp45
 70
     1
102
RTVSPost2010Prop46
 90
       50
102
RTVSPost2010PropOp46
 70
     1
102
RTVSPost2010Prop47
 90
       50
102
RTVSPost2010PropOp47
 70
     1
102
RTVSPost2010Prop48
 90
       50
102
RTVSPost2010PropOp48
 70
     1
102
RTVSPost2010Prop49
280
     0
102
RTVSPost2010PropOp49
 70
     1
102
RTVSPost2010Prop50
 90
       50
102
RTVSPost2010PropOp50
 70
     1
102
RTVSPost2010Prop51ColorIndex
 90
      256
102
RTVSPost2010Prop51ColorRGB
 90
-16777216
102
RTVSPost2010PropOp51
 70
     0
102
RTVSPost2010Prop52
140
1.0
102
RTVSPost2010PropOp52
 70
     0
102
RTVSPost2010Prop53
 90
        2
102
RTVSPost2010PropOp53
 70
     1
102
RTVSPost2010Prop54
  1
strokes_ogs.tif
102
RTVSPost2010PropOp54
 70
     1
102
RTVSPost2010Prop55
280
     0
102
RTVSPost2010PropOp55
 70
     1
102
RTVSPost2010Prop56
140
1.0
102
RTVSPost2010PropOp56
 70
     1
102
RTVSPost2010Prop57
140
1.0
102
RTVSPost2010PropOp57
 70
     1
  0
XRECORD
  5
1CB
102
{ACAD_REACTORS
330
1CA
102
}
330
1CA
100
AcDbXrecord
280
     1
102
RTVSPropertyOp0
 70
     1
102
RTVSPropertyOp1
 70
     1
102
RTVSPropertyOp2
 70
     1
102
RTVSPropertyOp3
 70
     1
102
RTVSPropertyOp4
 70
     1
102
RTVSPropertyOp5
 70
     1
102
RTVSPropertyOp6
 70
     1
102
RTVSPropertyOp7
 70
     1
102
RTVSPropertyOp8
 70
     1
102
RTVSPropertyOp9
 70
     1
102
RTVSPropertyOp10
 70
     1
102
RTVSPropertyOp11
 70
     1
102
RTVSPropertyOp12
 70
     1
102
RTVSPropertyOp13
 70
     1
102
RTVSPropertyOp14
 70
     1
102
RTVSPropertyOp15
 70
     1
102
RTVSPropertyOp16
 70
     1
102
RTVSPropertyOp17
 70
     1
102
RTVSPropertyOp18
 70
     1
102
RTVSPropertyOp19
 70
     1
102
RTVSPropertyOp20
 70
     1
102
RTVSPropertyOp21
 70
     1
102
RTVSPropertyOp22
 70
     1
102
RTVSPropertyOp23
 70
     1
102
RTVSPropertyOp24
 70
     1
102
RTVSPropertyOp25
 70
     1
102
RTVSPropertyOp26
 70
     1
102
RTVSPropertyOp27
 70
     1
102
RTVSPropertyOp28
 70
     1
102
RTVSPropertyOp29
 70
     1
102
RTVSPropertyOp30
 70
     1
102
RTVSPropertyOp31
 70
     1
102
RTVSPropertyOp32
 70
     1
102
RTVSPropertyOp33
 70
     1
102
RTVSPropertyOp34
 70
     1
102
RTVSPropertyOp35
 70
     1
102
RTVSPropertyOp36
 70
     1
102
RTVSPropertyOp37
 70
     1
102
RTVSPropertyOp38
 70
     1
102
RTVSPropertyOp39
 70
     1
102
RTVSPropertyOp40
 70
     1
102
RTVSPropertyOp41
 70
     1
102
RTVSPropertyOp42
 70
     1
102
RTVSPropertyOp43
 70
     1
102
RTVSPropertyOp44
 70
     1
102
RTVSPropertyOp45
 70
     1
102
RTVSPropertyOp46
 70
     1
102
RTVSPropertyOp47
 70
     1
102
RTVSPropertyOp48
 70
     1
102
RTVSPropertyOp49
 70
     1
102
RTVSPropertyOp50
 70
     1
102
RTVSPropertyOp51
 70
     0
102
RTVSPropertyOp52
 70
     0
102
RTVSPropertyOp53
 70
     1
102
RTVSPropertyOp54
 70
     1
102
RTVSPropertyOp55
 70
     1
102
RTVSPropertyOp56
 70
     1
102
RTVSPropertyOp57
 70
     1
102
RTVSPost2010Prop28
280
     0
102
RTVSPost2010PropOp28
 70
     1
102
RTVSPost2010Prop29
280
     1
102
RTVSPost2010PropOp29
 70
     1
102
RTVSPost2010Prop30
280
     1
102
RTVSPost2010PropOp30
 70
     1
102
RTVSPost2010Prop31
280
     0
102
RTVSPost2010PropOp31
 70
     1
102
RTVSPost2010Prop32
280
     0
102
RTVSPost2010PropOp32
 70
     1
102
RTVSPost2010Prop33
280
     0
102
RTVSPost2010PropOp33
 70
     1
102
RTVSPost2010Prop34
280
     0
102
RTVSPost2010PropOp34
 70
     1
102
RTVSPost2010Prop35
280
     0
102
RTVSPost2010PropOp35
 70
     1
102
RTVSPost2010Prop36
280
     0
102
RTVSPost2010PropOp36
 70
     1
102
RTVSPost2010Prop37
 90
       50
102
RTVSPost2010PropOp37
 70
     1
102
RTVSPost2010Prop38
140
0.0
102
RTVSPost2010PropOp38
 70
     1
102
RTVSPost2010Prop39
140
1.0
102
RTVSPost2010PropOp39
 70
     1
102
RTVSPost2010Prop40
 90
        0
102
RTVSPost2010PropOp40
 70
     1
102
RTVSPost2010Prop41ColorIndex
 90
       18
102
RTVSPost2010Prop41ColorRGB
 90
        0
102
RTVSPost2010PropOp41
 70
     1
102
RTVSPost2010Prop42
 90
       50
102
RTVSPost2010PropOp42
 70
     1
102
RTVSPost2010Prop43
 90
        3
102
RTVSPost2010PropOp43
 70
     1
102
RTVSPost2010Prop44ColorIndex
 90
        5
102
RTVSPost2010Prop44ColorRGB
 90
      255
102
RTVSPost2010PropOp44
 70
     1
102
RTVSPost2010Prop45
280
     0
102
RTVSPost2010PropOp45
 70
     1
102
RTVSPost2010Prop46
 90
       50
102
RTVSPost2010PropOp46
 70
     1
102
RTVSPost2010Prop47
 90
       50
102
RTVSPost2010PropOp47
 70
     1
102
RTVSPost2010Prop48
 90
       50
102
RTVSPost2010PropOp48
 70
     1
102
RTVSPost2010Prop49
280
     0
102
RTVSPost2010PropOp49
 70
     1
102
RTVSPost2010Prop50
 90
       50
102
RTVSPost2010PropOp50
 70
     1
102
RTVSPost2010Prop51ColorIndex
 90
      256
102
RTVSPost2010Prop51ColorRGB
 90
-16777216
102
RTVSPost2010PropOp51
 70
     0
102
RTVSPost2010Prop52
140
1.0
102
RTVSPost2010PropOp52
 70
     0
102
RTVSPost2010Prop53
 90
        2
102
RTVSPost2010PropOp53
 70
     1
102
RTVSPost2010Prop54
  1
strokes_ogs.tif
102
RTVSPost2010PropOp54
 70
     1
102
RTVSPost2010Prop55
280
     0
102
RTVSPost2010PropOp55
 70
     1
102
RTVSPost2010Prop56
140
1.0
102
RTVSPost2010PropOp56
 70
     1
102
RTVSPost2010Prop57
140
1.0
102
RTVSPost2010PropOp57
 70
     1
  0
XRECORD
  5
1CD
102
{ACAD_REACTORS
330
1CC
102
}
330
1CC
100
AcDbXrecord
280
     1
102
RTVSPropertyOp0
 70
     1
102
RTVSPropertyOp1
 70
     1
102
RTVSPropertyOp2
 70
     1
102
RTVSPropertyOp3
 70
     1
102
RTVSPropertyOp4
 70
     1
102
RTVSPropertyOp5
 70
     1
102
RTVSPropertyOp6
 70
     1
102
RTVSPropertyOp7
 70
     1
102
RTVSPropertyOp8
 70
     1
102
RTVSPropertyOp9
 70
     1
102
RTVSPropertyOp10
 70
     1
102
RTVSPropertyOp11
 70
     1
102
RTVSPropertyOp12
 70
     1
102
RTVSPropertyOp13
 70
     1
102
RTVSPropertyOp14
 70
     1
102
RTVSPropertyOp15
 70
     1
102
RTVSPropertyOp16
 70
     1
102
RTVSPropertyOp17
 70
     1
102
RTVSPropertyOp18
 70
     1
102
RTVSPropertyOp19
 70
     1
102
RTVSPropertyOp20
 70
     1
102
RTVSPropertyOp21
 70
     1
102
RTVSPropertyOp22
 70
     1
102
RTVSPropertyOp23
 70
     1
102
RTVSPropertyOp24
 70
     1
102
RTVSPropertyOp25
 70
     1
102
RTVSPropertyOp26
 70
     1
102
RTVSPropertyOp27
 70
     1
102
RTVSPropertyOp28
 70
     1
102
RTVSPropertyOp29
 70
     1
102
RTVSPropertyOp30
 70
     1
102
RTVSPropertyOp31
 70
     1
102
RTVSPropertyOp32
 70
     1
102
RTVSPropertyOp33
 70
     1
102
RTVSPropertyOp34
 70
     1
102
RTVSPropertyOp35
 70
     1
102
RTVSPropertyOp36
 70
     1
102
RTVSPropertyOp37
 70
     1
102
RTVSPropertyOp38
 70
     1
102
RTVSPropertyOp39
 70
     1
102
RTVSPropertyOp40
 70
     1
102
RTVSPropertyOp41
 70
     1
102
RTVSPropertyOp42
 70
     1
102
RTVSPropertyOp43
 70
     1
102
RTVSPropertyOp44
 70
     1
102
RTVSPropertyOp45
 70
     1
102
RTVSPropertyOp46
 70
     1
102
RTVSPropertyOp47
 70
     1
102
RTVSPropertyOp48
 70
     1
102
RTVSPropertyOp49
 70
     1
102
RTVSPropertyOp50
 70
     1
102
RTVSPropertyOp51
 70
     0
102
RTVSPropertyOp52
 70
     0
102
RTVSPropertyOp53
 70
     1
102
RTVSPropertyOp54
 70
     1
102
RTVSPropertyOp55
 70
     1
102
RTVSPropertyOp56
 70
     1
102
RTVSPropertyOp57
 70
     1
102
RTVSPost2010Prop28
280
     0
102
RTVSPost2010PropOp28
 70
     1
102
RTVSPost2010Prop29
280
     1
102
RTVSPost2010PropOp29
 70
     1
102
RTVSPost2010Prop30
280
     1
102
RTVSPost2010PropOp30
 70
     1
102
RTVSPost2010Prop31
280
     0
102
RTVSPost2010PropOp31
 70
     1
102
RTVSPost2010Prop32
280
     0
102
RTVSPost2010PropOp32
 70
     1
102
RTVSPost2010Prop33
280
     0
102
RTVSPost2010PropOp33
 70
     1
102
RTVSPost2010Prop34
280
     0
102
RTVSPost2010PropOp34
 70
     1
102
RTVSPost2010Prop35
280
     0
102
RTVSPost2010PropOp35
 70
     1
102
RTVSPost2010Prop36
280
     0
102
RTVSPost2010PropOp36
 70
     1
102
RTVSPost2010Prop37
 90
       50
102
RTVSPost2010PropOp37
 70
     1
102
RTVSPost2010Prop38
140
0.0
102
RTVSPost2010PropOp38
 70
     1
102
RTVSPost2010Prop39
140
1.0
102
RTVSPost2010PropOp39
 70
     1
102
RTVSPost2010Prop40
 90
        0
102
RTVSPost2010PropOp40
 70
     1
102
RTVSPost2010Prop41ColorIndex
 90
       18
102
RTVSPost2010Prop41ColorRGB
 90
        0
102
RTVSPost2010PropOp41
 70
     1
102
RTVSPost2010Prop42
 90
       50
102
RTVSPost2010PropOp42
 70
     1
102
RTVSPost2010Prop43
 90
        3
102
RTVSPost2010PropOp43
 70
     1
102
RTVSPost2010Prop44ColorIndex
 90
        5
102
RTVSPost2010Prop44ColorRGB
 90
      255
102
RTVSPost2010PropOp44
 70
     1
102
RTVSPost2010Prop45
280
     0
102
RTVSPost2010PropOp45
 70
     1
102
RTVSPost2010Prop46
 90
       50
102
RTVSPost2010PropOp46
 70
     1
102
RTVSPost2010Prop47
 90
       50
102
RTVSPost2010PropOp47
 70
     1
102
RTVSPost2010Prop48
 90
       50
102
RTVSPost2010PropOp48
 70
     1
102
RTVSPost2010Prop49
280
     0
102
RTVSPost2010PropOp49
 70
     1
102
RTVSPost2010Prop50
 90
       50
102
RTVSPost2010PropOp50
 70
     1
102
RTVSPost2010Prop51ColorIndex
 90
      256
102
RTVSPost2010Prop51ColorRGB
 90
-16777216
102
RTVSPost2010PropOp51
 70
     0
102
RTVSPost2010Prop52
140
1.0
102
RTVSPost2010PropOp52
 70
     0
102
RTVSPost2010Prop53
 90
        2
102
RTVSPost2010PropOp53
 70
     1
102
RTVSPost2010Prop54
  1
strokes_ogs.tif
102
RTVSPost2010PropOp54
 70
     1
102
RTVSPost2010Prop55
280
     0
102
RTVSPost2010PropOp55
 70
     1
102
RTVSPost2010Prop56
140
1.0
102
RTVSPost2010PropOp56
 70
     1
102
RTVSPost2010Prop57
140
1.0
102
RTVSPost2010PropOp57
 70
     1
  0
XRECORD
  5
1CF
102
{ACAD_REACTORS
330
1CE
102
}
330
1CE
100
AcDbXrecord
280
     1
102
RTVSPropertyOp0
 70
     1
102
RTVSPropertyOp1
 70
     1
102
RTVSPropertyOp2
 70
     1
102
RTVSPropertyOp3
 70
     1
102
RTVSPropertyOp4
 70
     1
102
RTVSPropertyOp5
 70
     1
102
RTVSPropertyOp6
 70
     1
102
RTVSPropertyOp7
 70
     1
102
RTVSPropertyOp8
 70
     1
102
RTVSPropertyOp9
 70
     1
102
RTVSPropertyOp10
 70
     1
102
RTVSPropertyOp11
 70
     1
102
RTVSPropertyOp12
 70
     1
102
RTVSPropertyOp13
 70
     1
102
RTVSPropertyOp14
 70
     1
102
RTVSPropertyOp15
 70
     1
102
RTVSPropertyOp16
 70
     1
102
RTVSPropertyOp17
 70
     1
102
RTVSPropertyOp18
 70
     1
102
RTVSPropertyOp19
 70
     1
102
RTVSPropertyOp20
 70
     1
102
RTVSPropertyOp21
 70
     1
102
RTVSPropertyOp22
 70
     1
102
RTVSPropertyOp23
 70
     1
102
RTVSPropertyOp24
 70
     1
102
RTVSPropertyOp25
 70
     1
102
RTVSPropertyOp26
 70
     1
102
RTVSPropertyOp27
 70
     1
102
RTVSPropertyOp28
 70
     1
102
RTVSPropertyOp29
 70
     1
102
RTVSPropertyOp30
 70
     1
102
RTVSPropertyOp31
 70
     1
102
RTVSPropertyOp32
 70
     1
102
RTVSPropertyOp33
 70
     1
102
RTVSPropertyOp34
 70
     1
102
RTVSPropertyOp35
 70
     1
102
RTVSPropertyOp36
 70
     1
102
RTVSPropertyOp37
 70
     1
102
RTVSPropertyOp38
 70
     1
102
RTVSPropertyOp39
 70
     1
102
RTVSPropertyOp40
 70
     1
102
RTVSPropertyOp41
 70
     1
102
RTVSPropertyOp42
 70
     1
102
RTVSPropertyOp43
 70
     1
102
RTVSPropertyOp44
 70
     1
102
RTVSPropertyOp45
 70
     1
102
RTVSPropertyOp46
 70
     1
102
RTVSPropertyOp47
 70
     1
102
RTVSPropertyOp48
 70
     1
102
RTVSPropertyOp49
 70
     1
102
RTVSPropertyOp50
 70
     1
102
RTVSPropertyOp51
 70
     0
102
RTVSPropertyOp52
 70
     0
102
RTVSPropertyOp53
 70
     1
102
RTVSPropertyOp54
 70
     1
102
RTVSPropertyOp55
 70
     1
102
RTVSPropertyOp56
 70
     1
102
RTVSPropertyOp57
 70
     1
102
RTVSPost2010Prop28
280
     0
102
RTVSPost2010PropOp28
 70
     1
102
RTVSPost2010Prop29
280
     1
102
RTVSPost2010PropOp29
 70
     1
102
RTVSPost2010Prop30
280
     1
102
RTVSPost2010PropOp30
 70
     1
102
RTVSPost2010Prop31
280
     0
102
RTVSPost2010PropOp31
 70
     1
102
RTVSPost2010Prop32
280
     0
102
RTVSPost2010PropOp32
 70
     1
102
RTVSPost2010Prop33
280
     0
102
RTVSPost2010PropOp33
 70
     1
102
RTVSPost2010Prop34
280
     0
102
RTVSPost2010PropOp34
 70
     1
102
RTVSPost2010Prop35
280
     0
102
RTVSPost2010PropOp35
 70
     1
102
RTVSPost2010Prop36
280
     0
102
RTVSPost2010PropOp36
 70
     1
102
RTVSPost2010Prop37
 90
       50
102
RTVSPost2010PropOp37
 70
     1
102
RTVSPost2010Prop38
140
0.0
102
RTVSPost2010PropOp38
 70
     1
102
RTVSPost2010Prop39
140
1.0
102
RTVSPost2010PropOp39
 70
     1
102
RTVSPost2010Prop40
 90
        0
102
RTVSPost2010PropOp40
 70
     1
102
RTVSPost2010Prop41ColorIndex
 90
       18
102
RTVSPost2010Prop41ColorRGB
 90
        0
102
RTVSPost2010PropOp41
 70
     1
102
RTVSPost2010Prop42
 90
       50
102
RTVSPost2010PropOp42
 70
     1
102
RTVSPost2010Prop43
 90
        3
102
RTVSPost2010PropOp43
 70
     1
102
RTVSPost2010Prop44ColorIndex
 90
        5
102
RTVSPost2010Prop44ColorRGB
 90
      255
102
RTVSPost2010PropOp44
 70
     1
102
RTVSPost2010Prop45
280
     0
102
RTVSPost2010PropOp45
 70
     1
102
RTVSPost2010Prop46
 90
       50
102
RTVSPost2010PropOp46
 70
     1
102
RTVSPost2010Prop47
 90
       50
102
RTVSPost2010PropOp47
 70
     1
102
RTVSPost2010Prop48
 90
       50
102
RTVSPost2010PropOp48
 70
     1
102
RTVSPost2010Prop49
280
     0
102
RTVSPost2010PropOp49
 70
     1
102
RTVSPost2010Prop50
 90
       50
102
RTVSPost2010PropOp50
 70
     1
102
RTVSPost2010Prop51ColorIndex
 90
      256
102
RTVSPost2010Prop51ColorRGB
 90
-16777216
102
RTVSPost2010PropOp51
 70
     0
102
RTVSPost2010Prop52
140
1.0
102
RTVSPost2010PropOp52
 70
     0
102
RTVSPost2010Prop53
 90
        2
102
RTVSPost2010PropOp53
 70
     1
102
RTVSPost2010Prop54
  1
strokes_ogs.tif
102
RTVSPost2010PropOp54
 70
     1
102
RTVSPost2010Prop55
280
     0
102
RTVSPost2010PropOp55
 70
     1
102
RTVSPost2010Prop56
140
1.0
102
RTVSPost2010PropOp56
 70
     1
102
RTVSPost2010Prop57
140
1.0
102
RTVSPost2010PropOp57
 70
     1
  0
XRECORD
  5
1D1
102
{ACAD_REACTORS
330
1D0
102
}
330
1D0
100
AcDbXrecord
280
     1
102
RTVSPropertyOp0
 70
     1
102
RTVSPropertyOp1
 70
     1
102
RTVSPropertyOp2
 70
     1
102
RTVSPropertyOp3
 70
     1
102
RTVSPropertyOp4
 70
     1
102
RTVSPropertyOp5
 70
     1
102
RTVSPropertyOp6
 70
     1
102
RTVSPropertyOp7
 70
     1
102
RTVSPropertyOp8
 70
     1
102
RTVSPropertyOp9
 70
     1
102
RTVSPropertyOp10
 70
     1
102
RTVSPropertyOp11
 70
     1
102
RTVSPropertyOp12
 70
     1
102
RTVSPropertyOp13
 70
     1
102
RTVSPropertyOp14
 70
     1
102
RTVSPropertyOp15
 70
     1
102
RTVSPropertyOp16
 70
     1
102
RTVSPropertyOp17
 70
     1
102
RTVSPropertyOp18
 70
     1
102
RTVSPropertyOp19
 70
     1
102
RTVSPropertyOp20
 70
     1
102
RTVSPropertyOp21
 70
     1
102
RTVSPropertyOp22
 70
     1
102
RTVSPropertyOp23
 70
     1
102
RTVSPropertyOp24
 70
     1
102
RTVSPropertyOp25
 70
     1
102
RTVSPropertyOp26
 70
     1
102
RTVSPropertyOp27
 70
     1
102
RTVSPropertyOp28
 70
     1
102
RTVSPropertyOp29
 70
     1
102
RTVSPropertyOp30
 70
     1
102
RTVSPropertyOp31
 70
     1
102
RTVSPropertyOp32
 70
     1
102
RTVSPropertyOp33
 70
     1
102
RTVSPropertyOp34
 70
     1
102
RTVSPropertyOp35
 70
     1
102
RTVSPropertyOp36
 70
     1
102
RTVSPropertyOp37
 70
     1
102
RTVSPropertyOp38
 70
     1
102
RTVSPropertyOp39
 70
     1
102
RTVSPropertyOp40
 70
     1
102
RTVSPropertyOp41
 70
     1
102
RTVSPropertyOp42
 70
     1
102
RTVSPropertyOp43
 70
     1
102
RTVSPropertyOp44
 70
     1
102
RTVSPropertyOp45
 70
     1
102
RTVSPropertyOp46
 70
     1
102
RTVSPropertyOp47
 70
     1
102
RTVSPropertyOp48
 70
     1
102
RTVSPropertyOp49
 70
     1
102
RTVSPropertyOp50
 70
     1
102
RTVSPropertyOp51
 70
     0
102
RTVSPropertyOp52
 70
     0
102
RTVSPropertyOp53
 70
     1
102
RTVSPropertyOp54
 70
     1
102
RTVSPropertyOp55
 70
     1
102
RTVSPropertyOp56
 70
     1
102
RTVSPropertyOp57
 70
     1
102
RTVSPost2010Prop28
280
     0
102
RTVSPost2010PropOp28
 70
     1
102
RTVSPost2010Prop29
280
     1
102
RTVSPost2010PropOp29
 70
     1
102
RTVSPost2010Prop30
280
     1
102
RTVSPost2010PropOp30
 70
     1
102
RTVSPost2010Prop31
280
     0
102
RTVSPost2010PropOp31
 70
     1
102
RTVSPost2010Prop32
280
     0
102
RTVSPost2010PropOp32
 70
     1
102
RTVSPost2010Prop33
280
     0
102
RTVSPost2010PropOp33
 70
     1
102
RTVSPost2010Prop34
280
     0
102
RTVSPost2010PropOp34
 70
     1
102
RTVSPost2010Prop35
280
     0
102
RTVSPost2010PropOp35
 70
     1
102
RTVSPost2010Prop36
280
     0
102
RTVSPost2010PropOp36
 70
     1
102
RTVSPost2010Prop37
 90
       50
102
RTVSPost2010PropOp37
 70
     1
102
RTVSPost2010Prop38
140
0.0
102
RTVSPost2010PropOp38
 70
     1
102
RTVSPost2010Prop39
140
1.0
102
RTVSPost2010PropOp39
 70
     1
102
RTVSPost2010Prop40
 90
        0
102
RTVSPost2010PropOp40
 70
     1
102
RTVSPost2010Prop41ColorIndex
 90
       18
102
RTVSPost2010Prop41ColorRGB
 90
        0
102
RTVSPost2010PropOp41
 70
     1
102
RTVSPost2010Prop42
 90
       50
102
RTVSPost2010PropOp42
 70
     1
102
RTVSPost2010Prop43
 90
        3
102
RTVSPost2010PropOp43
 70
     1
102
RTVSPost2010Prop44ColorIndex
 90
        5
102
RTVSPost2010Prop44ColorRGB
 90
      255
102
RTVSPost2010PropOp44
 70
     1
102
RTVSPost2010Prop45
280
     0
102
RTVSPost2010PropOp45
 70
     1
102
RTVSPost2010Prop46
 90
       50
102
RTVSPost2010PropOp46
 70
     1
102
RTVSPost2010Prop47
 90
       50
102
RTVSPost2010PropOp47
 70
     1
102
RTVSPost2010Prop48
 90
       50
102
RTVSPost2010PropOp48
 70
     1
102
RTVSPost2010Prop49
280
     0
102
RTVSPost2010PropOp49
 70
     1
102
RTVSPost2010Prop50
 90
       50
102
RTVSPost2010PropOp50
 70
     1
102
RTVSPost2010Prop51ColorIndex
 90
      256
102
RTVSPost2010Prop51ColorRGB
 90
-16777216
102
RTVSPost2010PropOp51
 70
     0
102
RTVSPost2010Prop52
140
1.0
102
RTVSPost2010PropOp52
 70
     0
102
RTVSPost2010Prop53
 90
        2
102
RTVSPost2010PropOp53
 70
     1
102
RTVSPost2010Prop54
  1
strokes_ogs.tif
102
RTVSPost2010PropOp54
 70
     1
102
RTVSPost2010Prop55
280
     0
102
RTVSPost2010PropOp55
 70
     1
102
RTVSPost2010Prop56
140
1.0
102
RTVSPost2010PropOp56
 70
     1
102
RTVSPost2010Prop57
140
1.0
102
RTVSPost2010PropOp57
 70
     1
  0
XRECORD
  5
1D7
102
{ACAD_REACTORS
330
1D6
102
}
330
1D6
100
AcDbXrecord
280
     1
102
RTVSPropertyOp0
 70
     1
102
RTVSPropertyOp1
 70
     1
102
RTVSPropertyOp2
 70
     1
102
RTVSPropertyOp3
 70
     1
102
RTVSPropertyOp4
 70
     1
102
RTVSPropertyOp5
 70
     1
102
RTVSPropertyOp6
 70
     1
102
RTVSPropertyOp7
 70
     1
102
RTVSPropertyOp8
 70
     1
102
RTVSPropertyOp9
 70
     1
102
RTVSPropertyOp10
 70
     1
102
RTVSPropertyOp11
 70
     1
102
RTVSPropertyOp12
 70
     1
102
RTVSPropertyOp13
 70
     1
102
RTVSPropertyOp14
 70
     1
102
RTVSPropertyOp15
 70
     1
102
RTVSPropertyOp16
 70
     1
102
RTVSPropertyOp17
 70
     1
102
RTVSPropertyOp18
 70
     1
102
RTVSPropertyOp19
 70
     1
102
RTVSPropertyOp20
 70
     1
102
RTVSPropertyOp21
 70
     1
102
RTVSPropertyOp22
 70
     1
102
RTVSPropertyOp23
 70
     1
102
RTVSPropertyOp24
 70
     1
102
RTVSPropertyOp25
 70
     1
102
RTVSPropertyOp26
 70
     1
102
RTVSPropertyOp27
 70
     1
102
RTVSPropertyOp28
 70
     1
102
RTVSPropertyOp29
 70
     1
102
RTVSPropertyOp30
 70
     1
102
RTVSPropertyOp31
 70
     1
102
RTVSPropertyOp32
 70
     1
102
RTVSPropertyOp33
 70
     1
102
RTVSPropertyOp34
 70
     1
102
RTVSPropertyOp35
 70
     1
102
RTVSPropertyOp36
 70
     1
102
RTVSPropertyOp37
 70
     1
102
RTVSPropertyOp38
 70
     1
102
RTVSPropertyOp39
 70
     1
102
RTVSPropertyOp40
 70
     1
102
RTVSPropertyOp41
 70
     1
102
RTVSPropertyOp42
 70
     1
102
RTVSPropertyOp43
 70
     1
102
RTVSPropertyOp44
 70
     1
102
RTVSPropertyOp45
 70
     1
102
RTVSPropertyOp46
 70
     1
102
RTVSPropertyOp47
 70
     1
102
RTVSPropertyOp48
 70
     1
102
RTVSPropertyOp49
 70
     1
102
RTVSPropertyOp50
 70
     1
102
RTVSPropertyOp51
 70
     0
102
RTVSPropertyOp52
 70
     0
102
RTVSPropertyOp53
 70
     1
102
RTVSPropertyOp54
 70
     1
102
RTVSPropertyOp55
 70
     1
102
RTVSPropertyOp56
 70
     1
102
RTVSPropertyOp57
 70
     1
102
RTVSPost2010Prop28
280
     0
102
RTVSPost2010PropOp28
 70
     1
102
RTVSPost2010Prop29
280
     1
102
RTVSPost2010PropOp29
 70
     1
102
RTVSPost2010Prop30
280
     1
102
RTVSPost2010PropOp30
 70
     1
102
RTVSPost2010Prop31
280
     0
102
RTVSPost2010PropOp31
 70
     1
102
RTVSPost2010Prop32
280
     0
102
RTVSPost2010PropOp32
 70
     1
102
RTVSPost2010Prop33
280
     0
102
RTVSPost2010PropOp33
 70
     1
102
RTVSPost2010Prop34
280
     0
102
RTVSPost2010PropOp34
 70
     1
102
RTVSPost2010Prop35
280
     0
102
RTVSPost2010PropOp35
 70
     1
102
RTVSPost2010Prop36
280
     0
102
RTVSPost2010PropOp36
 70
     1
102
RTVSPost2010Prop37
 90
       50
102
RTVSPost2010PropOp37
 70
     1
102
RTVSPost2010Prop38
140
0.0
102
RTVSPost2010PropOp38
 70
     1
102
RTVSPost2010Prop39
140
1.0
102
RTVSPost2010PropOp39
 70
     1
102
RTVSPost2010Prop40
 90
        0
102
RTVSPost2010PropOp40
 70
     1
102
RTVSPost2010Prop41ColorIndex
 90
       18
102
RTVSPost2010Prop41ColorRGB
 90
        0
102
RTVSPost2010PropOp41
 70
     1
102
RTVSPost2010Prop42
 90
       50
102
RTVSPost2010PropOp42
 70
     1
102
RTVSPost2010Prop43
 90
        3
102
RTVSPost2010PropOp43
 70
     1
102
RTVSPost2010Prop44ColorIndex
 90
        5
102
RTVSPost2010Prop44ColorRGB
 90
      255
102
RTVSPost2010PropOp44
 70
     1
102
RTVSPost2010Prop45
280
     0
102
RTVSPost2010PropOp45
 70
     1
102
RTVSPost2010Prop46
 90
       50
102
RTVSPost2010PropOp46
 70
     1
102
RTVSPost2010Prop47
 90
       50
102
RTVSPost2010PropOp47
 70
     1
102
RTVSPost2010Prop48
 90
       50
102
RTVSPost2010PropOp48
 70
     1
102
RTVSPost2010Prop49
280
     0
102
RTVSPost2010PropOp49
 70
     1
102
RTVSPost2010Prop50
 90
       50
102
RTVSPost2010PropOp50
 70
     1
102
RTVSPost2010Prop51ColorIndex
 90
      256
102
RTVSPost2010Prop51ColorRGB
 90
-16777216
102
RTVSPost2010PropOp51
 70
     0
102
RTVSPost2010Prop52
140
1.0
102
RTVSPost2010PropOp52
 70
     0
102
RTVSPost2010Prop53
 90
        2
102
RTVSPost2010PropOp53
 70
     1
102
RTVSPost2010Prop54
  1
strokes_ogs.tif
102
RTVSPost2010PropOp54
 70
     1
102
RTVSPost2010Prop55
280
     0
102
RTVSPost2010PropOp55
 70
     1
102
RTVSPost2010Prop56
140
1.0
102
RTVSPost2010PropOp56
 70
     1
102
RTVSPost2010Prop57
140
1.0
102
RTVSPost2010PropOp57
 70
     1
  0
XRECORD
  5
1EB
102
{ACAD_REACTORS
330
1EA
102
}
330
1EA
100
AcDbXrecord
280
     1
102
RTVSPropertyOp0
 70
     0
102
RTVSPropertyOp1
 70
     0
102
RTVSPropertyOp2
 70
     0
102
RTVSPropertyOp3
 70
     0
102
RTVSPropertyOp4
 70
     0
102
RTVSPropertyOp5
 70
     0
102
RTVSPropertyOp6
 70
     0
102
RTVSPropertyOp7
 70
     0
102
RTVSPropertyOp8
 70
     0
102
RTVSPropertyOp9
 70
     0
102
RTVSPropertyOp10
 70
     0
102
RTVSPropertyOp11
 70
     0
102
RTVSPropertyOp12
 70
     0
102
RTVSPropertyOp13
 70
     0
102
RTVSPropertyOp14
 70
     2
102
RTVSPropertyOp15
 70
     0
102
RTVSPropertyOp16
 70
     0
102
RTVSPropertyOp17
 70
     0
102
RTVSPropertyOp18
 70
     0
102
RTVSPropertyOp19
 70
     0
102
RTVSPropertyOp20
 70
     0
102
RTVSPropertyOp21
 70
     0
102
RTVSPropertyOp22
 70
     0
102
RTVSPropertyOp23
 70
     0
102
RTVSPropertyOp24
 70
     0
102
RTVSPropertyOp25
 70
     0
102
RTVSPropertyOp26
 70
     0
102
RTVSPropertyOp27
 70
     0
102
RTVSPropertyOp28
 70
     0
102
RTVSPropertyOp29
 70
     0
102
RTVSPropertyOp30
 70
     0
102
RTVSPropertyOp31
 70
     0
102
RTVSPropertyOp32
 70
     0
102
RTVSPropertyOp33
 70
     0
102
RTVSPropertyOp34
 70
     0
102
RTVSPropertyOp35
 70
     0
102
RTVSPropertyOp36
 70
     0
102
RTVSPropertyOp37
 70
     0
102
RTVSPropertyOp38
 70
     0
102
RTVSPropertyOp39
 70
     0
102
RTVSPropertyOp40
 70
     0
102
RTVSPropertyOp41
 70
     0
102
RTVSPropertyOp42
 70
     0
102
RTVSPropertyOp43
 70
     0
102
RTVSPropertyOp44
 70
     0
102
RTVSPropertyOp45
 70
     0
102
RTVSPropertyOp46
 70
     0
102
RTVSPropertyOp47
 70
     0
102
RTVSPropertyOp48
 70
     0
102
RTVSPropertyOp49
 70
     0
102
RTVSPropertyOp50
 70
     0
102
RTVSPropertyOp51
 70
     0
102
RTVSPropertyOp52
 70
     0
102
RTVSPropertyOp53
 70
     0
102
RTVSPropertyOp54
 70
     0
102
RTVSPropertyOp55
 70
     0
102
RTVSPropertyOp56
 70
     0
102
RTVSPropertyOp57
 70
     0
102
RTVSPost2010Prop28
280
     0
102
RTVSPost2010PropOp28
 70
     0
102
RTVSPost2010Prop29
280
     1
102
RTVSPost2010PropOp29
 70
     0
102
RTVSPost2010Prop30
280
     1
102
RTVSPost2010PropOp30
 70
     0
102
RTVSPost2010Prop31
280
     0
102
RTVSPost2010PropOp31
 70
     0
102
RTVSPost2010Prop32
280
     0
102
RTVSPost2010PropOp32
 70
     0
102
RTVSPost2010Prop33
280
     0
102
RTVSPost2010PropOp33
 70
     0
102
RTVSPost2010Prop34
280
     0
102
RTVSPost2010PropOp34
 70
     0
102
RTVSPost2010Prop35
280
     0
102
RTVSPost2010PropOp35
 70
     0
102
RTVSPost2010Prop36
280
     0
102
RTVSPost2010PropOp36
 70
     0
102
RTVSPost2010Prop37
 90
       50
102
RTVSPost2010PropOp37
 70
     0
102
RTVSPost2010Prop38
140
0.0
102
RTVSPost2010PropOp38
 70
     0
102
RTVSPost2010Prop39
140
1.0
102
RTVSPost2010PropOp39
 70
     0
102
RTVSPost2010Prop40
 90
        0
102
RTVSPost2010PropOp40
 70
     0
102
RTVSPost2010Prop41ColorIndex
 90
       18
102
RTVSPost2010Prop41ColorRGB
 90
        0
102
RTVSPost2010PropOp41
 70
     0
102
RTVSPost2010Prop42
 90
       50
102
RTVSPost2010PropOp42
 70
     0
102
RTVSPost2010Prop43
 90
        3
102
RTVSPost2010PropOp43
 70
     0
102
RTVSPost2010Prop44ColorIndex
 90
        5
102
RTVSPost2010Prop44ColorRGB
 90
      255
102
RTVSPost2010PropOp44
 70
     0
102
RTVSPost2010Prop45
280
     0
102
RTVSPost2010PropOp45
 70
     0
102
RTVSPost2010Prop46
 90
       50
102
RTVSPost2010PropOp46
 70
     0
102
RTVSPost2010Prop47
 90
       50
102
RTVSPost2010PropOp47
 70
     0
102
RTVSPost2010Prop48
 90
       50
102
RTVSPost2010PropOp48
 70
     0
102
RTVSPost2010Prop49
280
     0
102
RTVSPost2010PropOp49
 70
     0
102
RTVSPost2010Prop50
 90
       50
102
RTVSPost2010PropOp50
 70
     0
102
RTVSPost2010Prop51ColorIndex
 90
      256
102
RTVSPost2010Prop51ColorRGB
 90
-16777216
102
RTVSPost2010PropOp51
 70
     0
102
RTVSPost2010Prop52
140
1.0
102
RTVSPost2010PropOp52
 70
     0
102
RTVSPost2010Prop53
 90
        2
102
RTVSPost2010PropOp53
 70
     0
102
RTVSPost2010Prop54
  1
strokes_ogs.tif
102
RTVSPost2010PropOp54
 70
     0
102
RTVSPost2010Prop55
280
     0
102
RTVSPost2010PropOp55
 70
     0
102
RTVSPost2010Prop56
140
1.0
102
RTVSPost2010PropOp56
 70
     0
102
RTVSPost2010Prop57
140
1.0
102
RTVSPost2010PropOp57
 70
     0
  0
XRECORD
  5
1E5
102
{ACAD_REACTORS
330
1E4
102
}
330
1E4
100
AcDbXrecord
280
     1
102
RTVSPropertyOp0
 70
     1
102
RTVSPropertyOp1
 70
     1
102
RTVSPropertyOp2
 70
     1
102
RTVSPropertyOp3
 70
     1
102
RTVSPropertyOp4
 70
     1
102
RTVSPropertyOp5
 70
     1
102
RTVSPropertyOp6
 70
     1
102
RTVSPropertyOp7
 70
     1
102
RTVSPropertyOp8
 70
     1
102
RTVSPropertyOp9
 70
     1
102
RTVSPropertyOp10
 70
     1
102
RTVSPropertyOp11
 70
     1
102
RTVSPropertyOp12
 70
     1
102
RTVSPropertyOp13
 70
     1
102
RTVSPropertyOp14
 70
     1
102
RTVSPropertyOp15
 70
     1
102
RTVSPropertyOp16
 70
     1
102
RTVSPropertyOp17
 70
     1
102
RTVSPropertyOp18
 70
     1
102
RTVSPropertyOp19
 70
     1
102
RTVSPropertyOp20
 70
     1
102
RTVSPropertyOp21
 70
     1
102
RTVSPropertyOp22
 70
     1
102
RTVSPropertyOp23
 70
     1
102
RTVSPropertyOp24
 70
     1
102
RTVSPropertyOp25
 70
     1
102
RTVSPropertyOp26
 70
     1
102
RTVSPropertyOp27
 70
     1
102
RTVSPropertyOp28
 70
     1
102
RTVSPropertyOp29
 70
     1
102
RTVSPropertyOp30
 70
     1
102
RTVSPropertyOp31
 70
     1
102
RTVSPropertyOp32
 70
     1
102
RTVSPropertyOp33
 70
     1
102
RTVSPropertyOp34
 70
     1
102
RTVSPropertyOp35
 70
     1
102
RTVSPropertyOp36
 70
     1
102
RTVSPropertyOp37
 70
     1
102
RTVSPropertyOp38
 70
     1
102
RTVSPropertyOp39
 70
     1
102
RTVSPropertyOp40
 70
     1
102
RTVSPropertyOp41
 70
     1
102
RTVSPropertyOp42
 70
     1
102
RTVSPropertyOp43
 70
     1
102
RTVSPropertyOp44
 70
     1
102
RTVSPropertyOp45
 70
     1
102
RTVSPropertyOp46
 70
     1
102
RTVSPropertyOp47
 70
     1
102
RTVSPropertyOp48
 70
     1
102
RTVSPropertyOp49
 70
     1
102
RTVSPropertyOp50
 70
     1
102
RTVSPropertyOp51
 70
     0
102
RTVSPropertyOp52
 70
     0
102
RTVSPropertyOp53
 70
     1
102
RTVSPropertyOp54
 70
     1
102
RTVSPropertyOp55
 70
     1
102
RTVSPropertyOp56
 70
     1
102
RTVSPropertyOp57
 70
     1
102
RTVSPost2010Prop28
280
     0
102
RTVSPost2010PropOp28
 70
     1
102
RTVSPost2010Prop29
280
     1
102
RTVSPost2010PropOp29
 70
     1
102
RTVSPost2010Prop30
280
     1
102
RTVSPost2010PropOp30
 70
     1
102
RTVSPost2010Prop31
280
     0
102
RTVSPost2010PropOp31
 70
     1
102
RTVSPost2010Prop32
280
     0
102
RTVSPost2010PropOp32
 70
     1
102
RTVSPost2010Prop33
280
     0
102
RTVSPost2010PropOp33
 70
     1
102
RTVSPost2010Prop34
280
     0
102
RTVSPost2010PropOp34
 70
     1
102
RTVSPost2010Prop35
280
     0
102
RTVSPost2010PropOp35
 70
     1
102
RTVSPost2010Prop36
280
     0
102
RTVSPost2010PropOp36
 70
     1
102
RTVSPost2010Prop37
 90
       50
102
RTVSPost2010PropOp37
 70
     1
102
RTVSPost2010Prop38
140
0.0
102
RTVSPost2010PropOp38
 70
     1
102
RTVSPost2010Prop39
140
1.0
102
RTVSPost2010PropOp39
 70
     1
102
RTVSPost2010Prop40
 90
        0
102
RTVSPost2010PropOp40
 70
     1
102
RTVSPost2010Prop41ColorIndex
 90
       18
102
RTVSPost2010Prop41ColorRGB
 90
        0
102
RTVSPost2010PropOp41
 70
     1
102
RTVSPost2010Prop42
 90
       50
102
RTVSPost2010PropOp42
 70
     1
102
RTVSPost2010Prop43
 90
        3
102
RTVSPost2010PropOp43
 70
     1
102
RTVSPost2010Prop44ColorIndex
 90
        5
102
RTVSPost2010Prop44ColorRGB
 90
      255
102
RTVSPost2010PropOp44
 70
     1
102
RTVSPost2010Prop45
280
     0
102
RTVSPost2010PropOp45
 70
     1
102
RTVSPost2010Prop46
 90
       50
102
RTVSPost2010PropOp46
 70
     1
102
RTVSPost2010Prop47
 90
       50
102
RTVSPost2010PropOp47
 70
     1
102
RTVSPost2010Prop48
 90
       50
102
RTVSPost2010PropOp48
 70
     1
102
RTVSPost2010Prop49
280
     0
102
RTVSPost2010PropOp49
 70
     1
102
RTVSPost2010Prop50
 90
       50
102
RTVSPost2010PropOp50
 70
     1
102
RTVSPost2010Prop51ColorIndex
 90
      256
102
RTVSPost2010Prop51ColorRGB
 90
-16777216
102
RTVSPost2010PropOp51
 70
     0
102
RTVSPost2010Prop52
140
1.0
102
RTVSPost2010PropOp52
 70
     0
102
RTVSPost2010Prop53
 90
        2
102
RTVSPost2010PropOp53
 70
     1
102
RTVSPost2010Prop54
  1
strokes_ogs.tif
102
RTVSPost2010PropOp54
 70
     1
102
RTVSPost2010Prop55
280
     0
102
RTVSPost2010PropOp55
 70
     1
102
RTVSPost2010Prop56
140
1.0
102
RTVSPost2010PropOp56
 70
     1
102
RTVSPost2010Prop57
140
1.0
102
RTVSPost2010PropOp57
 70
     1
  0
XRECORD
  5
1ED
102
{ACAD_REACTORS
330
1EC
102
}
330
1EC
100
AcDbXrecord
280
     1
102
RTVSPropertyOp0
 70
     0
102
RTVSPropertyOp1
 70
     0
102
RTVSPropertyOp2
 70
     0
102
RTVSPropertyOp3
 70
     0
102
RTVSPropertyOp4
 70
     0
102
RTVSPropertyOp5
 70
     0
102
RTVSPropertyOp6
 70
     0
102
RTVSPropertyOp7
 70
     0
102
RTVSPropertyOp8
 70
     0
102
RTVSPropertyOp9
 70
     0
102
RTVSPropertyOp10
 70
     0
102
RTVSPropertyOp11
 70
     0
102
RTVSPropertyOp12
 70
     0
102
RTVSPropertyOp13
 70
     0
102
RTVSPropertyOp14
 70
     2
102
RTVSPropertyOp15
 70
     0
102
RTVSPropertyOp16
 70
     0
102
RTVSPropertyOp17
 70
     0
102
RTVSPropertyOp18
 70
     0
102
RTVSPropertyOp19
 70
     0
102
RTVSPropertyOp20
 70
     0
102
RTVSPropertyOp21
 70
     0
102
RTVSPropertyOp22
 70
     0
102
RTVSPropertyOp23
 70
     0
102
RTVSPropertyOp24
 70
     0
102
RTVSPropertyOp25
 70
     0
102
RTVSPropertyOp26
 70
     0
102
RTVSPropertyOp27
 70
     0
102
RTVSPropertyOp28
 70
     0
102
RTVSPropertyOp29
 70
     0
102
RTVSPropertyOp30
 70
     0
102
RTVSPropertyOp31
 70
     0
102
RTVSPropertyOp32
 70
     0
102
RTVSPropertyOp33
 70
     0
102
RTVSPropertyOp34
 70
     0
102
RTVSPropertyOp35
 70
     0
102
RTVSPropertyOp36
 70
     0
102
RTVSPropertyOp37
 70
     0
102
RTVSPropertyOp38
 70
     0
102
RTVSPropertyOp39
 70
     0
102
RTVSPropertyOp40
 70
     0
102
RTVSPropertyOp41
 70
     0
102
RTVSPropertyOp42
 70
     0
102
RTVSPropertyOp43
 70
     0
102
RTVSPropertyOp44
 70
     0
102
RTVSPropertyOp45
 70
     0
102
RTVSPropertyOp46
 70
     0
102
RTVSPropertyOp47
 70
     0
102
RTVSPropertyOp48
 70
     0
102
RTVSPropertyOp49
 70
     0
102
RTVSPropertyOp50
 70
     0
102
RTVSPropertyOp51
 70
     0
102
RTVSPropertyOp52
 70
     0
102
RTVSPropertyOp53
 70
     0
102
RTVSPropertyOp54
 70
     0
102
RTVSPropertyOp55
 70
     0
102
RTVSPropertyOp56
 70
     0
102
RTVSPropertyOp57
 70
     0
102
RTVSPost2010Prop28
280
     0
102
RTVSPost2010PropOp28
 70
     0
102
RTVSPost2010Prop29
280
     1
102
RTVSPost2010PropOp29
 70
     0
102
RTVSPost2010Prop30
280
     1
102
RTVSPost2010PropOp30
 70
     0
102
RTVSPost2010Prop31
280
     0
102
RTVSPost2010PropOp31
 70
     0
102
RTVSPost2010Prop32
280
     0
102
RTVSPost2010PropOp32
 70
     0
102
RTVSPost2010Prop33
280
     0
102
RTVSPost2010PropOp33
 70
     0
102
RTVSPost2010Prop34
280
     0
102
RTVSPost2010PropOp34
 70
     0
102
RTVSPost2010Prop35
280
     0
102
RTVSPost2010PropOp35
 70
     0
102
RTVSPost2010Prop36
280
     0
102
RTVSPost2010PropOp36
 70
     0
102
RTVSPost2010Prop37
 90
       50
102
RTVSPost2010PropOp37
 70
     0
102
RTVSPost2010Prop38
140
0.0
102
RTVSPost2010PropOp38
 70
     0
102
RTVSPost2010Prop39
140
1.0
102
RTVSPost2010PropOp39
 70
     0
102
RTVSPost2010Prop40
 90
        0
102
RTVSPost2010PropOp40
 70
     0
102
RTVSPost2010Prop41ColorIndex
 90
       18
102
RTVSPost2010Prop41ColorRGB
 90
        0
102
RTVSPost2010PropOp41
 70
     0
102
RTVSPost2010Prop42
 90
       50
102
RTVSPost2010PropOp42
 70
     0
102
RTVSPost2010Prop43
 90
        3
102
RTVSPost2010PropOp43
 70
     0
102
RTVSPost2010Prop44ColorIndex
 90
        5
102
RTVSPost2010Prop44ColorRGB
 90
      255
102
RTVSPost2010PropOp44
 70
     0
102
RTVSPost2010Prop45
280
     0
102
RTVSPost2010PropOp45
 70
     0
102
RTVSPost2010Prop46
 90
       50
102
RTVSPost2010PropOp46
 70
     0
102
RTVSPost2010Prop47
 90
       50
102
RTVSPost2010PropOp47
 70
     0
102
RTVSPost2010Prop48
 90
       50
102
RTVSPost2010PropOp48
 70
     0
102
RTVSPost2010Prop49
280
     0
102
RTVSPost2010PropOp49
 70
     0
102
RTVSPost2010Prop50
 90
       50
102
RTVSPost2010PropOp50
 70
     0
102
RTVSPost2010Prop51ColorIndex
 90
      256
102
RTVSPost2010Prop51ColorRGB
 90
-16777216
102
RTVSPost2010PropOp51
 70
     0
102
RTVSPost2010Prop52
140
1.0
102
RTVSPost2010PropOp52
 70
     0
102
RTVSPost2010Prop53
 90
        2
102
RTVSPost2010PropOp53
 70
     0
102
RTVSPost2010Prop54
  1
strokes_ogs.tif
102
RTVSPost2010PropOp54
 70
     0
102
RTVSPost2010Prop55
280
     0
102
RTVSPost2010PropOp55
 70
     0
102
RTVSPost2010Prop56
140
1.0
102
RTVSPost2010PropOp56
 70
     0
102
RTVSPost2010Prop57
140
1.0
102
RTVSPost2010PropOp57
 70
     0
  0
XRECORD
  5
1DB
102
{ACAD_REACTORS
330
1DA
102
}
330
1DA
100
AcDbXrecord
280
     1
102
RTVSPropertyOp0
 70
     1
102
RTVSPropertyOp1
 70
     1
102
RTVSPropertyOp2
 70
     1
102
RTVSPropertyOp3
 70
     1
102
RTVSPropertyOp4
 70
     1
102
RTVSPropertyOp5
 70
     1
102
RTVSPropertyOp6
 70
     1
102
RTVSPropertyOp7
 70
     1
102
RTVSPropertyOp8
 70
     1
102
RTVSPropertyOp9
 70
     1
102
RTVSPropertyOp10
 70
     1
102
RTVSPropertyOp11
 70
     1
102
RTVSPropertyOp12
 70
     1
102
RTVSPropertyOp13
 70
     1
102
RTVSPropertyOp14
 70
     1
102
RTVSPropertyOp15
 70
     1
102
RTVSPropertyOp16
 70
     1
102
RTVSPropertyOp17
 70
     1
102
RTVSPropertyOp18
 70
     1
102
RTVSPropertyOp19
 70
     1
102
RTVSPropertyOp20
 70
     1
102
RTVSPropertyOp21
 70
     1
102
RTVSPropertyOp22
 70
     1
102
RTVSPropertyOp23
 70
     1
102
RTVSPropertyOp24
 70
     1
102
RTVSPropertyOp25
 70
     1
102
RTVSPropertyOp26
 70
     1
102
RTVSPropertyOp27
 70
     1
102
RTVSPropertyOp28
 70
     1
102
RTVSPropertyOp29
 70
     1
102
RTVSPropertyOp30
 70
     1
102
RTVSPropertyOp31
 70
     1
102
RTVSPropertyOp32
 70
     1
102
RTVSPropertyOp33
 70
     1
102
RTVSPropertyOp34
 70
     1
102
RTVSPropertyOp35
 70
     1
102
RTVSPropertyOp36
 70
     1
102
RTVSPropertyOp37
 70
     1
102
RTVSPropertyOp38
 70
     1
102
RTVSPropertyOp39
 70
     1
102
RTVSPropertyOp40
 70
     1
102
RTVSPropertyOp41
 70
     1
102
RTVSPropertyOp42
 70
     1
102
RTVSPropertyOp43
 70
     1
102
RTVSPropertyOp44
 70
     1
102
RTVSPropertyOp45
 70
     1
102
RTVSPropertyOp46
 70
     1
102
RTVSPropertyOp47
 70
     1
102
RTVSPropertyOp48
 70
     1
102
RTVSPropertyOp49
 70
     1
102
RTVSPropertyOp50
 70
     1
102
RTVSPropertyOp51
 70
     0
102
RTVSPropertyOp52
 70
     0
102
RTVSPropertyOp53
 70
     1
102
RTVSPropertyOp54
 70
     1
102
RTVSPropertyOp55
 70
     1
102
RTVSPropertyOp56
 70
     1
102
RTVSPropertyOp57
 70
     1
102
RTVSPost2010Prop28
280
     0
102
RTVSPost2010PropOp28
 70
     1
102
RTVSPost2010Prop29
280
     1
102
RTVSPost2010PropOp29
 70
     1
102
RTVSPost2010Prop30
280
     1
102
RTVSPost2010PropOp30
 70
     1
102
RTVSPost2010Prop31
280
     0
102
RTVSPost2010PropOp31
 70
     1
102
RTVSPost2010Prop32
280
     0
102
RTVSPost2010PropOp32
 70
     1
102
RTVSPost2010Prop33
280
     0
102
RTVSPost2010PropOp33
 70
     1
102
RTVSPost2010Prop34
280
     0
102
RTVSPost2010PropOp34
 70
     1
102
RTVSPost2010Prop35
280
     0
102
RTVSPost2010PropOp35
 70
     1
102
RTVSPost2010Prop36
280
     0
102
RTVSPost2010PropOp36
 70
     1
102
RTVSPost2010Prop37
 90
       50
102
RTVSPost2010PropOp37
 70
     1
102
RTVSPost2010Prop38
140
0.0
102
RTVSPost2010PropOp38
 70
     1
102
RTVSPost2010Prop39
140
1.0
102
RTVSPost2010PropOp39
 70
     1
102
RTVSPost2010Prop40
 90
        0
102
RTVSPost2010PropOp40
 70
     1
102
RTVSPost2010Prop41ColorIndex
 90
       18
102
RTVSPost2010Prop41ColorRGB
 90
        0
102
RTVSPost2010PropOp41
 70
     1
102
RTVSPost2010Prop42
 90
       50
102
RTVSPost2010PropOp42
 70
     1
102
RTVSPost2010Prop43
 90
        3
102
RTVSPost2010PropOp43
 70
     1
102
RTVSPost2010Prop44ColorIndex
 90
        5
102
RTVSPost2010Prop44ColorRGB
 90
      255
102
RTVSPost2010PropOp44
 70
     1
102
RTVSPost2010Prop45
280
     0
102
RTVSPost2010PropOp45
 70
     1
102
RTVSPost2010Prop46
 90
       50
102
RTVSPost2010PropOp46
 70
     1
102
RTVSPost2010Prop47
 90
       50
102
RTVSPost2010PropOp47
 70
     1
102
RTVSPost2010Prop48
 90
       50
102
RTVSPost2010PropOp48
 70
     1
102
RTVSPost2010Prop49
280
     0
102
RTVSPost2010PropOp49
 70
     1
102
RTVSPost2010Prop50
 90
       50
102
RTVSPost2010PropOp50
 70
     1
102
RTVSPost2010Prop51ColorIndex
 90
      256
102
RTVSPost2010Prop51ColorRGB
 90
-16777216
102
RTVSPost2010PropOp51
 70
     0
102
RTVSPost2010Prop52
140
1.0
102
RTVSPost2010PropOp52
 70
     0
102
RTVSPost2010Prop53
 90
        2
102
RTVSPost2010PropOp53
 70
     1
102
RTVSPost2010Prop54
  1
strokes_ogs.tif
102
RTVSPost2010PropOp54
 70
     1
102
RTVSPost2010Prop55
280
     0
102
RTVSPost2010PropOp55
 70
     1
102
RTVSPost2010Prop56
140
1.0
102
RTVSPost2010PropOp56
 70
     1
102
RTVSPost2010Prop57
140
1.0
102
RTVSPost2010PropOp57
 70
     1
  0
XRECORD
  5
1F9
102
{ACAD_REACTORS
330
1F8
102
}
330
1F8
100
AcDbXrecord
280
     1
102
RTVSPropertyOp0
 70
     1
102
RTVSPropertyOp1
 70
     1
102
RTVSPropertyOp2
 70
     1
102
RTVSPropertyOp3
 70
     1
102
RTVSPropertyOp4
 70
     1
102
RTVSPropertyOp5
 70
     1
102
RTVSPropertyOp6
 70
     1
102
RTVSPropertyOp7
 70
     1
102
RTVSPropertyOp8
 70
     1
102
RTVSPropertyOp9
 70
     1
102
RTVSPropertyOp10
 70
     1
102
RTVSPropertyOp11
 70
     1
102
RTVSPropertyOp12
 70
     1
102
RTVSPropertyOp13
 70
     1
102
RTVSPropertyOp14
 70
     1
102
RTVSPropertyOp15
 70
     1
102
RTVSPropertyOp16
 70
     1
102
RTVSPropertyOp17
 70
     1
102
RTVSPropertyOp18
 70
     1
102
RTVSPropertyOp19
 70
     1
102
RTVSPropertyOp20
 70
     1
102
RTVSPropertyOp21
 70
     1
102
RTVSPropertyOp22
 70
     1
102
RTVSPropertyOp23
 70
     1
102
RTVSPropertyOp24
 70
     1
102
RTVSPropertyOp25
 70
     1
102
RTVSPropertyOp26
 70
     1
102
RTVSPropertyOp27
 70
     1
102
RTVSPropertyOp28
 70
     1
102
RTVSPropertyOp29
 70
     1
102
RTVSPropertyOp30
 70
     1
102
RTVSPropertyOp31
 70
     1
102
RTVSPropertyOp32
 70
     1
102
RTVSPropertyOp33
 70
     1
102
RTVSPropertyOp34
 70
     1
102
RTVSPropertyOp35
 70
     1
102
RTVSPropertyOp36
 70
     1
102
RTVSPropertyOp37
 70
     1
102
RTVSPropertyOp38
 70
     1
102
RTVSPropertyOp39
 70
     1
102
RTVSPropertyOp40
 70
     1
102
RTVSPropertyOp41
 70
     1
102
RTVSPropertyOp42
 70
     1
102
RTVSPropertyOp43
 70
     1
102
RTVSPropertyOp44
 70
     1
102
RTVSPropertyOp45
 70
     1
102
RTVSPropertyOp46
 70
     1
102
RTVSPropertyOp47
 70
     1
102
RTVSPropertyOp48
 70
     1
102
RTVSPropertyOp49
 70
     1
102
RTVSPropertyOp50
 70
     1
102
RTVSPropertyOp51
 70
     0
102
RTVSPropertyOp52
 70
     0
102
RTVSPropertyOp53
 70
     1
102
RTVSPropertyOp54
 70
     1
102
RTVSPropertyOp55
 70
     1
102
RTVSPropertyOp56
 70
     1
102
RTVSPropertyOp57
 70
     1
102
RTVSPost2010Prop28
280
     0
102
RTVSPost2010PropOp28
 70
     1
102
RTVSPost2010Prop29
280
     1
102
RTVSPost2010PropOp29
 70
     1
102
RTVSPost2010Prop30
280
     1
102
RTVSPost2010PropOp30
 70
     1
102
RTVSPost2010Prop31
280
     0
102
RTVSPost2010PropOp31
 70
     1
102
RTVSPost2010Prop32
280
     0
102
RTVSPost2010PropOp32
 70
     1
102
RTVSPost2010Prop33
280
     0
102
RTVSPost2010PropOp33
 70
     1
102
RTVSPost2010Prop34
280
     0
102
RTVSPost2010PropOp34
 70
     1
102
RTVSPost2010Prop35
280
     0
102
RTVSPost2010PropOp35
 70
     1
102
RTVSPost2010Prop36
280
     0
102
RTVSPost2010PropOp36
 70
     1
102
RTVSPost2010Prop37
 90
       50
102
RTVSPost2010PropOp37
 70
     1
102
RTVSPost2010Prop38
140
0.0
102
RTVSPost2010PropOp38
 70
     1
102
RTVSPost2010Prop39
140
1.0
102
RTVSPost2010PropOp39
 70
     1
102
RTVSPost2010Prop40
 90
        0
102
RTVSPost2010PropOp40
 70
     1
102
RTVSPost2010Prop41ColorIndex
 90
       18
102
RTVSPost2010Prop41ColorRGB
 90
        0
102
RTVSPost2010PropOp41
 70
     1
102
RTVSPost2010Prop42
 90
       50
102
RTVSPost2010PropOp42
 70
     1
102
RTVSPost2010Prop43
 90
        3
102
RTVSPost2010PropOp43
 70
     1
102
RTVSPost2010Prop44ColorIndex
 90
        5
102
RTVSPost2010Prop44ColorRGB
 90
      255
102
RTVSPost2010PropOp44
 70
     1
102
RTVSPost2010Prop45
280
     0
102
RTVSPost2010PropOp45
 70
     1
102
RTVSPost2010Prop46
 90
       50
102
RTVSPost2010PropOp46
 70
     1
102
RTVSPost2010Prop47
 90
       50
102
RTVSPost2010PropOp47
 70
     1
102
RTVSPost2010Prop48
 90
       50
102
RTVSPost2010PropOp48
 70
     1
102
RTVSPost2010Prop49
280
     0
102
RTVSPost2010PropOp49
 70
     1
102
RTVSPost2010Prop50
 90
       50
102
RTVSPost2010PropOp50
 70
     1
102
RTVSPost2010Prop51ColorIndex
 90
      256
102
RTVSPost2010Prop51ColorRGB
 90
-16777216
102
RTVSPost2010PropOp51
 70
     0
102
RTVSPost2010Prop52
140
1.0
102
RTVSPost2010PropOp52
 70
     0
102
RTVSPost2010Prop53
 90
        2
102
RTVSPost2010PropOp53
 70
     1
102
RTVSPost2010Prop54
  1
strokes_ogs.tif
102
RTVSPost2010PropOp54
 70
     1
102
RTVSPost2010Prop55
280
     0
102
RTVSPost2010PropOp55
 70
     1
102
RTVSPost2010Prop56
140
1.0
102
RTVSPost2010PropOp56
 70
     1
102
RTVSPost2010Prop57
140
1.0
102
RTVSPost2010PropOp57
 70
     1
  0
XRECORD
  5
1F7
102
{ACAD_REACTORS
330
1F6
102
}
330
1F6
100
AcDbXrecord
280
     1
102
RTVSPropertyOp0
 70
     1
102
RTVSPropertyOp1
 70
     1
102
RTVSPropertyOp2
 70
     1
102
RTVSPropertyOp3
 70
     1
102
RTVSPropertyOp4
 70
     1
102
RTVSPropertyOp5
 70
     1
102
RTVSPropertyOp6
 70
     1
102
RTVSPropertyOp7
 70
     1
102
RTVSPropertyOp8
 70
     1
102
RTVSPropertyOp9
 70
     1
102
RTVSPropertyOp10
 70
     1
102
RTVSPropertyOp11
 70
     1
102
RTVSPropertyOp12
 70
     1
102
RTVSPropertyOp13
 70
     1
102
RTVSPropertyOp14
 70
     1
102
RTVSPropertyOp15
 70
     1
102
RTVSPropertyOp16
 70
     1
102
RTVSPropertyOp17
 70
     1
102
RTVSPropertyOp18
 70
     1
102
RTVSPropertyOp19
 70
     1
102
RTVSPropertyOp20
 70
     1
102
RTVSPropertyOp21
 70
     1
102
RTVSPropertyOp22
 70
     1
102
RTVSPropertyOp23
 70
     1
102
RTVSPropertyOp24
 70
     1
102
RTVSPropertyOp25
 70
     1
102
RTVSPropertyOp26
 70
     1
102
RTVSPropertyOp27
 70
     1
102
RTVSPropertyOp28
 70
     1
102
RTVSPropertyOp29
 70
     1
102
RTVSPropertyOp30
 70
     1
102
RTVSPropertyOp31
 70
     1
102
RTVSPropertyOp32
 70
     1
102
RTVSPropertyOp33
 70
     1
102
RTVSPropertyOp34
 70
     1
102
RTVSPropertyOp35
 70
     1
102
RTVSPropertyOp36
 70
     1
102
RTVSPropertyOp37
 70
     1
102
RTVSPropertyOp38
 70
     1
102
RTVSPropertyOp39
 70
     1
102
RTVSPropertyOp40
 70
     1
102
RTVSPropertyOp41
 70
     1
102
RTVSPropertyOp42
 70
     1
102
RTVSPropertyOp43
 70
     1
102
RTVSPropertyOp44
 70
     1
102
RTVSPropertyOp45
 70
     1
102
RTVSPropertyOp46
 70
     1
102
RTVSPropertyOp47
 70
     1
102
RTVSPropertyOp48
 70
     1
102
RTVSPropertyOp49
 70
     1
102
RTVSPropertyOp50
 70
     1
102
RTVSPropertyOp51
 70
     0
102
RTVSPropertyOp52
 70
     0
102
RTVSPropertyOp53
 70
     1
102
RTVSPropertyOp54
 70
     1
102
RTVSPropertyOp55
 70
     1
102
RTVSPropertyOp56
 70
     1
102
RTVSPropertyOp57
 70
     1
102
RTVSPost2010Prop28
280
     0
102
RTVSPost2010PropOp28
 70
     1
102
RTVSPost2010Prop29
280
     1
102
RTVSPost2010PropOp29
 70
     1
102
RTVSPost2010Prop30
280
     1
102
RTVSPost2010PropOp30
 70
     1
102
RTVSPost2010Prop31
280
     0
102
RTVSPost2010PropOp31
 70
     1
102
RTVSPost2010Prop32
280
     0
102
RTVSPost2010PropOp32
 70
     1
102
RTVSPost2010Prop33
280
     0
102
RTVSPost2010PropOp33
 70
     1
102
RTVSPost2010Prop34
280
     0
102
RTVSPost2010PropOp34
 70
     1
102
RTVSPost2010Prop35
280
     0
102
RTVSPost2010PropOp35
 70
     1
102
RTVSPost2010Prop36
280
     0
102
RTVSPost2010PropOp36
 70
     1
102
RTVSPost2010Prop37
 90
       50
102
RTVSPost2010PropOp37
 70
     1
102
RTVSPost2010Prop38
140
0.0
102
RTVSPost2010PropOp38
 70
     1
102
RTVSPost2010Prop39
140
1.0
102
RTVSPost2010PropOp39
 70
     1
102
RTVSPost2010Prop40
 90
        0
102
RTVSPost2010PropOp40
 70
     1
102
RTVSPost2010Prop41ColorIndex
 90
       18
102
RTVSPost2010Prop41ColorRGB
 90
        0
102
RTVSPost2010PropOp41
 70
     1
102
RTVSPost2010Prop42
 90
       50
102
RTVSPost2010PropOp42
 70
     1
102
RTVSPost2010Prop43
 90
        3
102
RTVSPost2010PropOp43
 70
     1
102
RTVSPost2010Prop44ColorIndex
 90
        5
102
RTVSPost2010Prop44ColorRGB
 90
      255
102
RTVSPost2010PropOp44
 70
     1
102
RTVSPost2010Prop45
280
     0
102
RTVSPost2010PropOp45
 70
     1
102
RTVSPost2010Prop46
 90
       50
102
RTVSPost2010PropOp46
 70
     1
102
RTVSPost2010Prop47
 90
       50
102
RTVSPost2010PropOp47
 70
     1
102
RTVSPost2010Prop48
 90
       50
102
RTVSPost2010PropOp48
 70
     1
102
RTVSPost2010Prop49
280
     0
102
RTVSPost2010PropOp49
 70
     1
102
RTVSPost2010Prop50
 90
       50
102
RTVSPost2010PropOp50
 70
     1
102
RTVSPost2010Prop51ColorIndex
 90
      256
102
RTVSPost2010Prop51ColorRGB
 90
-16777216
102
RTVSPost2010PropOp51
 70
     0
102
RTVSPost2010Prop52
140
1.0
102
RTVSPost2010PropOp52
 70
     0
102
RTVSPost2010Prop53
 90
        2
102
RTVSPost2010PropOp53
 70
     1
102
RTVSPost2010Prop54
  1
strokes_ogs.tif
102
RTVSPost2010PropOp54
 70
     1
102
RTVSPost2010Prop55
280
     0
102
RTVSPost2010PropOp55
 70
     1
102
RTVSPost2010Prop56
140
1.0
102
RTVSPost2010PropOp56
 70
     1
102
RTVSPost2010Prop57
140
1.0
102
RTVSPost2010PropOp57
 70
     1
  0
XRECORD
  5
1F1
102
{ACAD_REACTORS
330
1F0
102
}
330
1F0
100
AcDbXrecord
280
     1
102
RTVSPropertyOp0
 70
     1
102
RTVSPropertyOp1
 70
     1
102
RTVSPropertyOp2
 70
     1
102
RTVSPropertyOp3
 70
     1
102
RTVSPropertyOp4
 70
     1
102
RTVSPropertyOp5
 70
     1
102
RTVSPropertyOp6
 70
     1
102
RTVSPropertyOp7
 70
     1
102
RTVSPropertyOp8
 70
     1
102
RTVSPropertyOp9
 70
     1
102
RTVSPropertyOp10
 70
     1
102
RTVSPropertyOp11
 70
     1
102
RTVSPropertyOp12
 70
     1
102
RTVSPropertyOp13
 70
     1
102
RTVSPropertyOp14
 70
     1
102
RTVSPropertyOp15
 70
     1
102
RTVSPropertyOp16
 70
     1
102
RTVSPropertyOp17
 70
     1
102
RTVSPropertyOp18
 70
     1
102
RTVSPropertyOp19
 70
     1
102
RTVSPropertyOp20
 70
     1
102
RTVSPropertyOp21
 70
     1
102
RTVSPropertyOp22
 70
     1
102
RTVSPropertyOp23
 70
     1
102
RTVSPropertyOp24
 70
     1
102
RTVSPropertyOp25
 70
     1
102
RTVSPropertyOp26
 70
     1
102
RTVSPropertyOp27
 70
     1
102
RTVSPropertyOp28
 70
     1
102
RTVSPropertyOp29
 70
     1
102
RTVSPropertyOp30
 70
     1
102
RTVSPropertyOp31
 70
     1
102
RTVSPropertyOp32
 70
     1
102
RTVSPropertyOp33
 70
     1
102
RTVSPropertyOp34
 70
     1
102
RTVSPropertyOp35
 70
     1
102
RTVSPropertyOp36
 70
     1
102
RTVSPropertyOp37
 70
     1
102
RTVSPropertyOp38
 70
     1
102
RTVSPropertyOp39
 70
     1
102
RTVSPropertyOp40
 70
     1
102
RTVSPropertyOp41
 70
     1
102
RTVSPropertyOp42
 70
     1
102
RTVSPropertyOp43
 70
     1
102
RTVSPropertyOp44
 70
     1
102
RTVSPropertyOp45
 70
     1
102
RTVSPropertyOp46
 70
     1
102
RTVSPropertyOp47
 70
     1
102
RTVSPropertyOp48
 70
     1
102
RTVSPropertyOp49
 70
     1
102
RTVSPropertyOp50
 70
     1
102
RTVSPropertyOp51
 70
     0
102
RTVSPropertyOp52
 70
     0
102
RTVSPropertyOp53
 70
     1
102
RTVSPropertyOp54
 70
     1
102
RTVSPropertyOp55
 70
     1
102
RTVSPropertyOp56
 70
     1
102
RTVSPropertyOp57
 70
     1
102
RTVSPost2010Prop28
280
     0
102
RTVSPost2010PropOp28
 70
     1
102
RTVSPost2010Prop29
280
     1
102
RTVSPost2010PropOp29
 70
     1
102
RTVSPost2010Prop30
280
     1
102
RTVSPost2010PropOp30
 70
     1
102
RTVSPost2010Prop31
280
     0
102
RTVSPost2010PropOp31
 70
     1
102
RTVSPost2010Prop32
280
     0
102
RTVSPost2010PropOp32
 70
     1
102
RTVSPost2010Prop33
280
     0
102
RTVSPost2010PropOp33
 70
     1
102
RTVSPost2010Prop34
280
     0
102
RTVSPost2010PropOp34
 70
     1
102
RTVSPost2010Prop35
280
     0
102
RTVSPost2010PropOp35
 70
     1
102
RTVSPost2010Prop36
280
     0
102
RTVSPost2010PropOp36
 70
     1
102
RTVSPost2010Prop37
 90
       50
102
RTVSPost2010PropOp37
 70
     1
102
RTVSPost2010Prop38
140
0.0
102
RTVSPost2010PropOp38
 70
     1
102
RTVSPost2010Prop39
140
1.0
102
RTVSPost2010PropOp39
 70
     1
102
RTVSPost2010Prop40
 90
        0
102
RTVSPost2010PropOp40
 70
     1
102
RTVSPost2010Prop41ColorIndex
 90
       18
102
RTVSPost2010Prop41ColorRGB
 90
        0
102
RTVSPost2010PropOp41
 70
     1
102
RTVSPost2010Prop42
 90
       50
102
RTVSPost2010PropOp42
 70
     1
102
RTVSPost2010Prop43
 90
        3
102
RTVSPost2010PropOp43
 70
     1
102
RTVSPost2010Prop44ColorIndex
 90
        5
102
RTVSPost2010Prop44ColorRGB
 90
      255
102
RTVSPost2010PropOp44
 70
     1
102
RTVSPost2010Prop45
280
     0
102
RTVSPost2010PropOp45
 70
     1
102
RTVSPost2010Prop46
 90
       50
102
RTVSPost2010PropOp46
 70
     1
102
RTVSPost2010Prop47
 90
       50
102
RTVSPost2010PropOp47
 70
     1
102
RTVSPost2010Prop48
 90
       50
102
RTVSPost2010PropOp48
 70
     1
102
RTVSPost2010Prop49
280
     0
102
RTVSPost2010PropOp49
 70
     1
102
RTVSPost2010Prop50
 90
       50
102
RTVSPost2010PropOp50
 70
     1
102
RTVSPost2010Prop51ColorIndex
 90
      256
102
RTVSPost2010Prop51ColorRGB
 90
-16777216
102
RTVSPost2010PropOp51
 70
     0
102
RTVSPost2010Prop52
140
1.0
102
RTVSPost2010PropOp52
 70
     0
102
RTVSPost2010Prop53
 90
        2
102
RTVSPost2010PropOp53
 70
     1
102
RTVSPost2010Prop54
  1
strokes_ogs.tif
102
RTVSPost2010PropOp54
 70
     1
102
RTVSPost2010Prop55
280
     0
102
RTVSPost2010PropOp55
 70
     1
102
RTVSPost2010Prop56
140
1.0
102
RTVSPost2010PropOp56
 70
     1
102
RTVSPost2010Prop57
140
1.0
102
RTVSPost2010PropOp57
 70
     1
  0
XRECORD
  5
1F3
102
{ACAD_REACTORS
330
1F2
102
}
330
1F2
100
AcDbXrecord
280
     1
102
RTVSPropertyOp0
 70
     1
102
RTVSPropertyOp1
 70
     1
102
RTVSPropertyOp2
 70
     1
102
RTVSPropertyOp3
 70
     1
102
RTVSPropertyOp4
 70
     1
102
RTVSPropertyOp5
 70
     1
102
RTVSPropertyOp6
 70
     1
102
RTVSPropertyOp7
 70
     1
102
RTVSPropertyOp8
 70
     1
102
RTVSPropertyOp9
 70
     1
102
RTVSPropertyOp10
 70
     1
102
RTVSPropertyOp11
 70
     1
102
RTVSPropertyOp12
 70
     1
102
RTVSPropertyOp13
 70
     1
102
RTVSPropertyOp14
 70
     1
102
RTVSPropertyOp15
 70
     1
102
RTVSPropertyOp16
 70
     1
102
RTVSPropertyOp17
 70
     1
102
RTVSPropertyOp18
 70
     1
102
RTVSPropertyOp19
 70
     1
102
RTVSPropertyOp20
 70
     1
102
RTVSPropertyOp21
 70
     1
102
RTVSPropertyOp22
 70
     1
102
RTVSPropertyOp23
 70
     1
102
RTVSPropertyOp24
 70
     1
102
RTVSPropertyOp25
 70
     1
102
RTVSPropertyOp26
 70
     1
102
RTVSPropertyOp27
 70
     1
102
RTVSPropertyOp28
 70
     1
102
RTVSPropertyOp29
 70
     1
102
RTVSPropertyOp30
 70
     1
102
RTVSPropertyOp31
 70
     1
102
RTVSPropertyOp32
 70
     1
102
RTVSPropertyOp33
 70
     1
102
RTVSPropertyOp34
 70
     1
102
RTVSPropertyOp35
 70
     1
102
RTVSPropertyOp36
 70
     1
102
RTVSPropertyOp37
 70
     1
102
RTVSPropertyOp38
 70
     1
102
RTVSPropertyOp39
 70
     1
102
RTVSPropertyOp40
 70
     1
102
RTVSPropertyOp41
 70
     1
102
RTVSPropertyOp42
 70
     1
102
RTVSPropertyOp43
 70
     1
102
RTVSPropertyOp44
 70
     1
102
RTVSPropertyOp45
 70
     1
102
RTVSPropertyOp46
 70
     1
102
RTVSPropertyOp47
 70
     1
102
RTVSPropertyOp48
 70
     1
102
RTVSPropertyOp49
 70
     1
102
RTVSPropertyOp50
 70
     1
102
RTVSPropertyOp51
 70
     0
102
RTVSPropertyOp52
 70
     0
102
RTVSPropertyOp53
 70
     1
102
RTVSPropertyOp54
 70
     1
102
RTVSPropertyOp55
 70
     1
102
RTVSPropertyOp56
 70
     1
102
RTVSPropertyOp57
 70
     1
102
RTVSPost2010Prop28
280
     0
102
RTVSPost2010PropOp28
 70
     1
102
RTVSPost2010Prop29
280
     1
102
RTVSPost2010PropOp29
 70
     1
102
RTVSPost2010Prop30
280
     1
102
RTVSPost2010PropOp30
 70
     1
102
RTVSPost2010Prop31
280
     0
102
RTVSPost2010PropOp31
 70
     1
102
RTVSPost2010Prop32
280
     0
102
RTVSPost2010PropOp32
 70
     1
102
RTVSPost2010Prop33
280
     0
102
RTVSPost2010PropOp33
 70
     1
102
RTVSPost2010Prop34
280
     0
102
RTVSPost2010PropOp34
 70
     1
102
RTVSPost2010Prop35
280
     0
102
RTVSPost2010PropOp35
 70
     1
102
RTVSPost2010Prop36
280
     0
102
RTVSPost2010PropOp36
 70
     1
102
RTVSPost2010Prop37
 90
       50
102
RTVSPost2010PropOp37
 70
     1
102
RTVSPost2010Prop38
140
0.0
102
RTVSPost2010PropOp38
 70
     1
102
RTVSPost2010Prop39
140
1.0
102
RTVSPost2010PropOp39
 70
     1
102
RTVSPost2010Prop40
 90
        0
102
RTVSPost2010PropOp40
 70
     1
102
RTVSPost2010Prop41ColorIndex
 90
       18
102
RTVSPost2010Prop41ColorRGB
 90
        0
102
RTVSPost2010PropOp41
 70
     1
102
RTVSPost2010Prop42
 90
       50
102
RTVSPost2010PropOp42
 70
     1
102
RTVSPost2010Prop43
 90
        3
102
RTVSPost2010PropOp43
 70
     1
102
RTVSPost2010Prop44ColorIndex
 90
        5
102
RTVSPost2010Prop44ColorRGB
 90
      255
102
RTVSPost2010PropOp44
 70
     1
102
RTVSPost2010Prop45
280
     0
102
RTVSPost2010PropOp45
 70
     1
102
RTVSPost2010Prop46
 90
       50
102
RTVSPost2010PropOp46
 70
     1
102
RTVSPost2010Prop47
 90
       50
102
RTVSPost2010PropOp47
 70
     1
102
RTVSPost2010Prop48
 90
       50
102
RTVSPost2010PropOp48
 70
     1
102
RTVSPost2010Prop49
280
     0
102
RTVSPost2010PropOp49
 70
     1
102
RTVSPost2010Prop50
 90
       50
102
RTVSPost2010PropOp50
 70
     1
102
RTVSPost2010Prop51ColorIndex
 90
      256
102
RTVSPost2010Prop51ColorRGB
 90
-16777216
102
RTVSPost2010PropOp51
 70
     0
102
RTVSPost2010Prop52
140
1.0
102
RTVSPost2010PropOp52
 70
     0
102
RTVSPost2010Prop53
 90
        2
102
RTVSPost2010PropOp53
 70
     1
102
RTVSPost2010Prop54
  1
strokes_ogs.tif
102
RTVSPost2010PropOp54
 70
     1
102
RTVSPost2010Prop55
280
     0
102
RTVSPost2010PropOp55
 70
     1
102
RTVSPost2010Prop56
140
1.0
102
RTVSPost2010PropOp56
 70
     1
102
RTVSPost2010Prop57
140
1.0
102
RTVSPost2010PropOp57
 70
     1
  0
XRECORD
  5
1E3
102
{ACAD_REACTORS
330
1E2
102
}
330
1E2
100
AcDbXrecord
280
     1
102
RTVSPropertyOp0
 70
     1
102
RTVSPropertyOp1
 70
     1
102
RTVSPropertyOp2
 70
     1
102
RTVSPropertyOp3
 70
     1
102
RTVSPropertyOp4
 70
     1
102
RTVSPropertyOp5
 70
     1
102
RTVSPropertyOp6
 70
     1
102
RTVSPropertyOp7
 70
     1
102
RTVSPropertyOp8
 70
     1
102
RTVSPropertyOp9
 70
     1
102
RTVSPropertyOp10
 70
     1
102
RTVSPropertyOp11
 70
     1
102
RTVSPropertyOp12
 70
     1
102
RTVSPropertyOp13
 70
     1
102
RTVSPropertyOp14
 70
     1
102
RTVSPropertyOp15
 70
     1
102
RTVSPropertyOp16
 70
     1
102
RTVSPropertyOp17
 70
     1
102
RTVSPropertyOp18
 70
     1
102
RTVSPropertyOp19
 70
     1
102
RTVSPropertyOp20
 70
     1
102
RTVSPropertyOp21
 70
     1
102
RTVSPropertyOp22
 70
     1
102
RTVSPropertyOp23
 70
     1
102
RTVSPropertyOp24
 70
     1
102
RTVSPropertyOp25
 70
     1
102
RTVSPropertyOp26
 70
     1
102
RTVSPropertyOp27
 70
     1
102
RTVSPropertyOp28
 70
     1
102
RTVSPropertyOp29
 70
     1
102
RTVSPropertyOp30
 70
     1
102
RTVSPropertyOp31
 70
     1
102
RTVSPropertyOp32
 70
     1
102
RTVSPropertyOp33
 70
     1
102
RTVSPropertyOp34
 70
     1
102
RTVSPropertyOp35
 70
     1
102
RTVSPropertyOp36
 70
     1
102
RTVSPropertyOp37
 70
     1
102
RTVSPropertyOp38
 70
     1
102
RTVSPropertyOp39
 70
     1
102
RTVSPropertyOp40
 70
     1
102
RTVSPropertyOp41
 70
     1
102
RTVSPropertyOp42
 70
     1
102
RTVSPropertyOp43
 70
     1
102
RTVSPropertyOp44
 70
     1
102
RTVSPropertyOp45
 70
     1
102
RTVSPropertyOp46
 70
     1
102
RTVSPropertyOp47
 70
     1
102
RTVSPropertyOp48
 70
     1
102
RTVSPropertyOp49
 70
     1
102
RTVSPropertyOp50
 70
     1
102
RTVSPropertyOp51
 70
     0
102
RTVSPropertyOp52
 70
     0
102
RTVSPropertyOp53
 70
     1
102
RTVSPropertyOp54
 70
     1
102
RTVSPropertyOp55
 70
     1
102
RTVSPropertyOp56
 70
     1
102
RTVSPropertyOp57
 70
     1
102
RTVSPost2010Prop28
280
     0
102
RTVSPost2010PropOp28
 70
     1
102
RTVSPost2010Prop29
280
     1
102
RTVSPost2010PropOp29
 70
     1
102
RTVSPost2010Prop30
280
     1
102
RTVSPost2010PropOp30
 70
     1
102
RTVSPost2010Prop31
280
     0
102
RTVSPost2010PropOp31
 70
     1
102
RTVSPost2010Prop32
280
     0
102
RTVSPost2010PropOp32
 70
     1
102
RTVSPost2010Prop33
280
     0
102
RTVSPost2010PropOp33
 70
     1
102
RTVSPost2010Prop34
280
     0
102
RTVSPost2010PropOp34
 70
     1
102
RTVSPost2010Prop35
280
     0
102
RTVSPost2010PropOp35
 70
     1
102
RTVSPost2010Prop36
280
     0
102
RTVSPost2010PropOp36
 70
     1
102
RTVSPost2010Prop37
 90
       50
102
RTVSPost2010PropOp37
 70
     1
102
RTVSPost2010Prop38
140
0.0
102
RTVSPost2010PropOp38
 70
     1
102
RTVSPost2010Prop39
140
1.0
102
RTVSPost2010PropOp39
 70
     1
102
RTVSPost2010Prop40
 90
        0
102
RTVSPost2010PropOp40
 70
     1
102
RTVSPost2010Prop41ColorIndex
 90
       18
102
RTVSPost2010Prop41ColorRGB
 90
        0
102
RTVSPost2010PropOp41
 70
     1
102
RTVSPost2010Prop42
 90
       50
102
RTVSPost2010PropOp42
 70
     1
102
RTVSPost2010Prop43
 90
        3
102
RTVSPost2010PropOp43
 70
     1
102
RTVSPost2010Prop44ColorIndex
 90
        5
102
RTVSPost2010Prop44ColorRGB
 90
      255
102
RTVSPost2010PropOp44
 70
     1
102
RTVSPost2010Prop45
280
     0
102
RTVSPost2010PropOp45
 70
     1
102
RTVSPost2010Prop46
 90
       50
102
RTVSPost2010PropOp46
 70
     1
102
RTVSPost2010Prop47
 90
       50
102
RTVSPost2010PropOp47
 70
     1
102
RTVSPost2010Prop48
 90
       50
102
RTVSPost2010PropOp48
 70
     1
102
RTVSPost2010Prop49
280
     0
102
RTVSPost2010PropOp49
 70
     1
102
RTVSPost2010Prop50
 90
       50
102
RTVSPost2010PropOp50
 70
     1
102
RTVSPost2010Prop51ColorIndex
 90
      256
102
RTVSPost2010Prop51ColorRGB
 90
-16777216
102
RTVSPost2010PropOp51
 70
     0
102
RTVSPost2010Prop52
140
1.0
102
RTVSPost2010PropOp52
 70
     0
102
RTVSPost2010Prop53
 90
        2
102
RTVSPost2010PropOp53
 70
     1
102
RTVSPost2010Prop54
  1
strokes_ogs.tif
102
RTVSPost2010PropOp54
 70
     1
102
RTVSPost2010Prop55
280
     0
102
RTVSPost2010PropOp55
 70
     1
102
RTVSPost2010Prop56
140
1.0
102
RTVSPost2010PropOp56
 70
     1
102
RTVSPost2010Prop57
140
1.0
102
RTVSPost2010PropOp57
 70
     1
  0
XRECORD
  5
1D5
102
{ACAD_REACTORS
330
1D4
102
}
330
1D4
100
AcDbXrecord
280
     1
102
RTVSPropertyOp0
 70
     1
102
RTVSPropertyOp1
 70
     1
102
RTVSPropertyOp2
 70
     1
102
RTVSPropertyOp3
 70
     1
102
RTVSPropertyOp4
 70
     1
102
RTVSPropertyOp5
 70
     1
102
RTVSPropertyOp6
 70
     1
102
RTVSPropertyOp7
 70
     1
102
RTVSPropertyOp8
 70
     1
102
RTVSPropertyOp9
 70
     1
102
RTVSPropertyOp10
 70
     1
102
RTVSPropertyOp11
 70
     1
102
RTVSPropertyOp12
 70
     1
102
RTVSPropertyOp13
 70
     1
102
RTVSPropertyOp14
 70
     1
102
RTVSPropertyOp15
 70
     1
102
RTVSPropertyOp16
 70
     1
102
RTVSPropertyOp17
 70
     1
102
RTVSPropertyOp18
 70
     1
102
RTVSPropertyOp19
 70
     1
102
RTVSPropertyOp20
 70
     1
102
RTVSPropertyOp21
 70
     1
102
RTVSPropertyOp22
 70
     1
102
RTVSPropertyOp23
 70
     1
102
RTVSPropertyOp24
 70
     1
102
RTVSPropertyOp25
 70
     1
102
RTVSPropertyOp26
 70
     1
102
RTVSPropertyOp27
 70
     1
102
RTVSPropertyOp28
 70
     1
102
RTVSPropertyOp29
 70
     1
102
RTVSPropertyOp30
 70
     1
102
RTVSPropertyOp31
 70
     1
102
RTVSPropertyOp32
 70
     1
102
RTVSPropertyOp33
 70
     1
102
RTVSPropertyOp34
 70
     1
102
RTVSPropertyOp35
 70
     1
102
RTVSPropertyOp36
 70
     1
102
RTVSPropertyOp37
 70
     1
102
RTVSPropertyOp38
 70
     1
102
RTVSPropertyOp39
 70
     1
102
RTVSPropertyOp40
 70
     1
102
RTVSPropertyOp41
 70
     1
102
RTVSPropertyOp42
 70
     1
102
RTVSPropertyOp43
 70
     1
102
RTVSPropertyOp44
 70
     1
102
RTVSPropertyOp45
 70
     1
102
RTVSPropertyOp46
 70
     1
102
RTVSPropertyOp47
 70
     1
102
RTVSPropertyOp48
 70
     1
102
RTVSPropertyOp49
 70
     1
102
RTVSPropertyOp50
 70
     1
102
RTVSPropertyOp51
 70
     0
102
RTVSPropertyOp52
 70
     0
102
RTVSPropertyOp53
 70
     1
102
RTVSPropertyOp54
 70
     1
102
RTVSPropertyOp55
 70
     1
102
RTVSPropertyOp56
 70
     1
102
RTVSPropertyOp57
 70
     1
102
RTVSPost2010Prop28
280
     0
102
RTVSPost2010PropOp28
 70
     1
102
RTVSPost2010Prop29
280
     1
102
RTVSPost2010PropOp29
 70
     1
102
RTVSPost2010Prop30
280
     1
102
RTVSPost2010PropOp30
 70
     1
102
RTVSPost2010Prop31
280
     0
102
RTVSPost2010PropOp31
 70
     1
102
RTVSPost2010Prop32
280
     0
102
RTVSPost2010PropOp32
 70
     1
102
RTVSPost2010Prop33
280
     0
102
RTVSPost2010PropOp33
 70
     1
102
RTVSPost2010Prop34
280
     0
102
RTVSPost2010PropOp34
 70
     1
102
RTVSPost2010Prop35
280
     0
102
RTVSPost2010PropOp35
 70
     1
102
RTVSPost2010Prop36
280
     0
102
RTVSPost2010PropOp36
 70
     1
102
RTVSPost2010Prop37
 90
       50
102
RTVSPost2010PropOp37
 70
     1
102
RTVSPost2010Prop38
140
0.0
102
RTVSPost2010PropOp38
 70
     1
102
RTVSPost2010Prop39
140
1.0
102
RTVSPost2010PropOp39
 70
     1
102
RTVSPost2010Prop40
 90
        0
102
RTVSPost2010PropOp40
 70
     1
102
RTVSPost2010Prop41ColorIndex
 90
       18
102
RTVSPost2010Prop41ColorRGB
 90
        0
102
RTVSPost2010PropOp41
 70
     1
102
RTVSPost2010Prop42
 90
       50
102
RTVSPost2010PropOp42
 70
     1
102
RTVSPost2010Prop43
 90
        3
102
RTVSPost2010PropOp43
 70
     1
102
RTVSPost2010Prop44ColorIndex
 90
        5
102
RTVSPost2010Prop44ColorRGB
 90
      255
102
RTVSPost2010PropOp44
 70
     1
102
RTVSPost2010Prop45
280
     0
102
RTVSPost2010PropOp45
 70
     1
102
RTVSPost2010Prop46
 90
       50
102
RTVSPost2010PropOp46
 70
     1
102
RTVSPost2010Prop47
 90
       50
102
RTVSPost2010PropOp47
 70
     1
102
RTVSPost2010Prop48
 90
       50
102
RTVSPost2010PropOp48
 70
     1
102
RTVSPost2010Prop49
280
     0
102
RTVSPost2010PropOp49
 70
     1
102
RTVSPost2010Prop50
 90
       50
102
RTVSPost2010PropOp50
 70
     1
102
RTVSPost2010Prop51ColorIndex
 90
      256
102
RTVSPost2010Prop51ColorRGB
 90
-16777216
102
RTVSPost2010PropOp51
 70
     0
102
RTVSPost2010Prop52
140
1.0
102
RTVSPost2010PropOp52
 70
     0
102
RTVSPost2010Prop53
 90
        2
102
RTVSPost2010PropOp53
 70
     1
102
RTVSPost2010Prop54
  1
strokes_ogs.tif
102
RTVSPost2010PropOp54
 70
     1
102
RTVSPost2010Prop55
280
     0
102
RTVSPost2010PropOp55
 70
     1
102
RTVSPost2010Prop56
140
1.0
102
RTVSPost2010PropOp56
 70
     1
102
RTVSPost2010Prop57
140
1.0
102
RTVSPost2010PropOp57
 70
     1
  0
XRECORD
  5
1F5
102
{ACAD_REACTORS
330
1F4
102
}
330
1F4
100
AcDbXrecord
280
     1
102
RTVSPropertyOp0
 70
     1
102
RTVSPropertyOp1
 70
     1
102
RTVSPropertyOp2
 70
     1
102
RTVSPropertyOp3
 70
     1
102
RTVSPropertyOp4
 70
     1
102
RTVSPropertyOp5
 70
     1
102
RTVSPropertyOp6
 70
     1
102
RTVSPropertyOp7
 70
     1
102
RTVSPropertyOp8
 70
     1
102
RTVSPropertyOp9
 70
     1
102
RTVSPropertyOp10
 70
     1
102
RTVSPropertyOp11
 70
     1
102
RTVSPropertyOp12
 70
     1
102
RTVSPropertyOp13
 70
     1
102
RTVSPropertyOp14
 70
     1
102
RTVSPropertyOp15
 70
     1
102
RTVSPropertyOp16
 70
     1
102
RTVSPropertyOp17
 70
     1
102
RTVSPropertyOp18
 70
     1
102
RTVSPropertyOp19
 70
     1
102
RTVSPropertyOp20
 70
     1
102
RTVSPropertyOp21
 70
     1
102
RTVSPropertyOp22
 70
     1
102
RTVSPropertyOp23
 70
     1
102
RTVSPropertyOp24
 70
     1
102
RTVSPropertyOp25
 70
     1
102
RTVSPropertyOp26
 70
     1
102
RTVSPropertyOp27
 70
     1
102
RTVSPropertyOp28
 70
     1
102
RTVSPropertyOp29
 70
     1
102
RTVSPropertyOp30
 70
     1
102
RTVSPropertyOp31
 70
     1
102
RTVSPropertyOp32
 70
     1
102
RTVSPropertyOp33
 70
     1
102
RTVSPropertyOp34
 70
     1
102
RTVSPropertyOp35
 70
     1
102
RTVSPropertyOp36
 70
     1
102
RTVSPropertyOp37
 70
     1
102
RTVSPropertyOp38
 70
     1
102
RTVSPropertyOp39
 70
     1
102
RTVSPropertyOp40
 70
     1
102
RTVSPropertyOp41
 70
     1
102
RTVSPropertyOp42
 70
     1
102
RTVSPropertyOp43
 70
     1
102
RTVSPropertyOp44
 70
     1
102
RTVSPropertyOp45
 70
     1
102
RTVSPropertyOp46
 70
     1
102
RTVSPropertyOp47
 70
     1
102
RTVSPropertyOp48
 70
     1
102
RTVSPropertyOp49
 70
     1
102
RTVSPropertyOp50
 70
     1
102
RTVSPropertyOp51
 70
     0
102
RTVSPropertyOp52
 70
     0
102
RTVSPropertyOp53
 70
     1
102
RTVSPropertyOp54
 70
     1
102
RTVSPropertyOp55
 70
     1
102
RTVSPropertyOp56
 70
     1
102
RTVSPropertyOp57
 70
     1
102
RTVSPost2010Prop28
280
     0
102
RTVSPost2010PropOp28
 70
     1
102
RTVSPost2010Prop29
280
     1
102
RTVSPost2010PropOp29
 70
     1
102
RTVSPost2010Prop30
280
     1
102
RTVSPost2010PropOp30
 70
     1
102
RTVSPost2010Prop31
280
     0
102
RTVSPost2010PropOp31
 70
     1
102
RTVSPost2010Prop32
280
     0
102
RTVSPost2010PropOp32
 70
     1
102
RTVSPost2010Prop33
280
     0
102
RTVSPost2010PropOp33
 70
     1
102
RTVSPost2010Prop34
280
     0
102
RTVSPost2010PropOp34
 70
     1
102
RTVSPost2010Prop35
280
     0
102
RTVSPost2010PropOp35
 70
     1
102
RTVSPost2010Prop36
280
     0
102
RTVSPost2010PropOp36
 70
     1
102
RTVSPost2010Prop37
 90
       50
102
RTVSPost2010PropOp37
 70
     1
102
RTVSPost2010Prop38
140
0.0
102
RTVSPost2010PropOp38
 70
     1
102
RTVSPost2010Prop39
140
1.0
102
RTVSPost2010PropOp39
 70
     1
102
RTVSPost2010Prop40
 90
        0
102
RTVSPost2010PropOp40
 70
     1
102
RTVSPost2010Prop41ColorIndex
 90
       18
102
RTVSPost2010Prop41ColorRGB
 90
        0
102
RTVSPost2010PropOp41
 70
     1
102
RTVSPost2010Prop42
 90
       50
102
RTVSPost2010PropOp42
 70
     1
102
RTVSPost2010Prop43
 90
        3
102
RTVSPost2010PropOp43
 70
     1
102
RTVSPost2010Prop44ColorIndex
 90
        5
102
RTVSPost2010Prop44ColorRGB
 90
      255
102
RTVSPost2010PropOp44
 70
     1
102
RTVSPost2010Prop45
280
     0
102
RTVSPost2010PropOp45
 70
     1
102
RTVSPost2010Prop46
 90
       50
102
RTVSPost2010PropOp46
 70
     1
102
RTVSPost2010Prop47
 90
       50
102
RTVSPost2010PropOp47
 70
     1
102
RTVSPost2010Prop48
 90
       50
102
RTVSPost2010PropOp48
 70
     1
102
RTVSPost2010Prop49
280
     0
102
RTVSPost2010PropOp49
 70
     1
102
RTVSPost2010Prop50
 90
       50
102
RTVSPost2010PropOp50
 70
     1
102
RTVSPost2010Prop51ColorIndex
 90
      256
102
RTVSPost2010Prop51ColorRGB
 90
-16777216
102
RTVSPost2010PropOp51
 70
     0
102
RTVSPost2010Prop52
140
1.0
102
RTVSPost2010PropOp52
 70
     0
102
RTVSPost2010Prop53
 90
        2
102
RTVSPost2010PropOp53
 70
     1
102
RTVSPost2010Prop54
  1
strokes_ogs.tif
102
RTVSPost2010PropOp54
 70
     1
102
RTVSPost2010Prop55
280
     0
102
RTVSPost2010PropOp55
 70
     1
102
RTVSPost2010Prop56
140
1.0
102
RTVSPost2010PropOp56
 70
     1
102
RTVSPost2010Prop57
140
1.0
102
RTVSPost2010PropOp57
 70
     1
  0
ENDSEC
  0
EOF
