  0
SECTION
  2
HEADER
  9
$ACADVER
  1
AC1021
  9
$ACADMAINTVER
 70
    25
  9
$DWGCODEPAGE
  3
ANSI_1252
  9
$LASTSAVEDBY
  1
Nick Zweigel
  9
$INSBASE
 10
0.0
 20
0.0
 30
0.0
  9
$EXTMIN
 10
0.0
 20
0.0
 30
0.0
  9
$EXTMAX
 10
210.0
 20
297.0
 30
0.0
  9
$LIMMIN
 10
0.0
 20
0.0
  9
$LIMMAX
 10
210.0
 20
297.0
  9
$ORTHOMODE
 70
     0
  9
$REGENMODE
 70
     1
  9
$FILLMODE
 70
     1
  9
$QTEXTMODE
 70
     0
  9
$MIRRTEXT
 70
     1
  9
$LTSCALE
 40
1.0
  9
$ATTMODE
 70
     1
  9
$TEXTSIZE
 40
3.0
  9
$TRACEWID
 40
1.0
  9
$TEXTSTYLE
  7
Standard
  9
$CLAYER
  8
0
  9
$CELTYPE
  6
ByLayer
  9
$CECOLOR
 62
   256
  9
$CELTSCALE
 40
1.0
  9
$DISPSILH
 70
     0
  9
$DIMSCALE
 40
1.0
  9
$DIMASZ
 40
2.5
  9
$DIMEXO
 40
0.625
  9
$DIMDLI
 40
3.75
  9
$DIMRND
 40
0.0
  9
$DIMDLE
 40
0.0
  9
$DIMEXE
 40
1.25
  9
$DIMTP
 40
0.0
  9
$DIMTM
 40
0.0
  9
$DIMTXT
 40
2.5
  9
$DIMCEN
 40
2.5
  9
$DIMTSZ
 40
0.0
  9
$DIMTOL
 70
     0
  9
$DIMLIM
 70
     0
  9
$DIMTIH
 70
     0
  9
$DIMTOH
 70
     0
  9
$DIMSE1
 70
     0
  9
$DIMSE2
 70
     0
  9
$DIMTAD
 70
     1
  9
$DIMZIN
 70
     8
  9
$DIMBLK
  1

  9
$DIMASO
 70
     1
  9
$DIMSHO
 70
     1
  9
$DIMPOST
  1

  9
$DIMAPOST
  1

  9
$DIMALT
 70
     0
  9
$DIMALTD
 70
     3
  9
$DIMALTF
 40
0.0393700787
  9
$DIMLFAC
 40
1.0
  9
$DIMTOFL
 70
     1
  9
$DIMTVP
 40
0.0
  9
$DIMTIX
 70
     0
  9
$DIMSOXD
 70
     0
  9
$DIMSAH
 70
     0
  9
$DIMBLK1
  1

  9
$DIMBLK2
  1

  9
$DIMSTYLE
  2
ISO-25
  9
$DIMCLRD
 70
     0
  9
$DIMCLRE
 70
     0
  9
$DIMCLRT
 70
     0
  9
$DIMTFAC
 40
1.0
  9
$DIMGAP
 40
0.625
  9
$DIMJUST
 70
     0
  9
$DIMSD1
 70
     0
  9
$DIMSD2
 70
     0
  9
$DIMTOLJ
 70
     0
  9
$DIMTZIN
 70
     8
  9
$DIMALTZ
 70
     0
  9
$DIMALTTZ
 70
     0
  9
$DIMUPT
 70
     0
  9
$DIMDEC
 70
     2
  9
$DIMTDEC
 70
     2
  9
$DIMALTU
 70
     2
  9
$DIMALTTD
 70
     3
  9
$DIMTXSTY
  7
Standard
  9
$DIMAUNIT
 70
     0
  9
$DIMADEC
 70
     0
  9
$DIMALTRND
 40
0.0
  9
$DIMAZIN
 70
     0
  9
$DIMDSEP
 70
    44
  9
$DIMATFIT
 70
     3
  9
$DIMFRAC
 70
     0
  9
$DIMLDRBLK
  1

  9
$DIMLUNIT
 70
     2
  9
$DIMLWD
 70
    -2
  9
$DIMLWE
 70
    -2
  9
$DIMTMOVE
 70
     0
  9
$DIMFXL
 40
1.0
  9
$DIMFXLON
 70
     0
  9
$DIMJOGANG
 40
0.7853981634
  9
$DIMTFILL
 70
     0
  9
$DIMTFILLCLR
 70
     0
  9
$DIMARCSYM
 70
     0
  9
$DIMLTYPE
  6

  9
$DIMLTEX1
  6

  9
$DIMLTEX2
  6

  9
$LUNITS
 70
     2
  9
$LUPREC
 70
     4
  9
$SKETCHINC
 40
1.0
  9
$FILLETRAD
 40
0.0
  9
$AUNITS
 70
     0
  9
$AUPREC
 70
     0
  9
$MENU
  1
.
  9
$ELEVATION
 40
0.0
  9
$PELEVATION
 40
0.0
  9
$THICKNESS
 40
0.0
  9
$LIMCHECK
 70
     0
  9
$CHAMFERA
 40
0.0
  9
$CHAMFERB
 40
0.0
  9
$CHAMFERC
 40
0.0
  9
$CHAMFERD
 40
0.0
  9
$SKPOLY
 70
     0
  9
$TDCREATE
 40
2460264.472244618
  9
$TDUCREATE
 40
2460264.430577952
  9
$TDUPDATE
 40
2460264.472266655
  9
$TDUUPDATE
 40
2460264.430599989
  9
$TDINDWG
 40
0.0000000116
  9
$TDUSRTIMER
 40
0.0000000116
  9
$USRTIMER
 70
     1
  9
$ANGBASE
 50
0.0
  9
$ANGDIR
 70
     0
  9
$PDMODE
 70
     0
  9
$PDSIZE
 40
0.0
  9
$PLINEWID
 40
0.0
  9
$SPLFRAME
 70
     0
  9
$SPLINETYPE
 70
     6
  9
$SPLINESEGS
 70
     8
  9
$HANDSEED
  5
21A
  9
$SURFTAB1
 70
     6
  9
$SURFTAB2
 70
     6
  9
$SURFTYPE
 70
     6
  9
$SURFU
 70
     6
  9
$SURFV
 70
     6
  9
$UCSBASE
  2

  9
$UCSNAME
  2

  9
$UCSORG
 10
0.0
 20
0.0
 30
0.0
  9
$UCSXDIR
 10
1.0
 20
0.0
 30
0.0
  9
$UCSYDIR
 10
0.0
 20
1.0
 30
0.0
  9
$UCSORTHOREF
  2

  9
$UCSORTHOVIEW
 70
     0
  9
$UCSORGTOP
 10
0.0
 20
0.0
 30
0.0
  9
$UCSORGBOTTOM
 10
0.0
 20
0.0
 30
0.0
  9
$UCSORGLEFT
 10
0.0
 20
0.0
 30
0.0
  9
$UCSORGRIGHT
 10
0.0
 20
0.0
 30
0.0
  9
$UCSORGFRONT
 10
0.0
 20
0.0
 30
0.0
  9
$UCSORGBACK
 10
0.0
 20
0.0
 30
0.0
  9
$PUCSBASE
  2

  9
$PUCSNAME
  2

  9
$PUCSORG
 10
0.0
 20
0.0
 30
0.0
  9
$PUCSXDIR
 10
1.0
 20
0.0
 30
0.0
  9
$PUCSYDIR
 10
0.0
 20
1.0
 30
0.0
  9
$PUCSORTHOREF
  2

  9
$PUCSORTHOVIEW
 70
     0
  9
$PUCSORGTOP
 10
0.0
 20
0.0
 30
0.0
  9
$PUCSORGBOTTOM
 10
0.0
 20
0.0
 30
0.0
  9
$PUCSORGLEFT
 10
0.0
 20
0.0
 30
0.0
  9
$PUCSORGRIGHT
 10
0.0
 20
0.0
 30
0.0
  9
$PUCSORGFRONT
 10
0.0
 20
0.0
 30
0.0
  9
$PUCSORGBACK
 10
0.0
 20
0.0
 30
0.0
  9
$USERI1
 70
     0
  9
$USERI2
 70
     0
  9
$USERI3
 70
     0
  9
$USERI4
 70
     0
  9
$USERI5
 70
     0
  9
$USERR1
 40
0.0
  9
$USERR2
 40
0.0
  9
$USERR3
 40
0.0
  9
$USERR4
 40
0.0
  9
$USERR5
 40
0.0
  9
$WORLDVIEW
 70
     1
  9
$SHADEDGE
 70
     3
  9
$SHADEDIF
 70
    70
  9
$TILEMODE
 70
     1
  9
$MAXACTVP
 70
    64
  9
$PINSBASE
 10
0.0
 20
0.0
 30
0.0
  9
$PLIMCHECK
 70
     0
  9
$PEXTMIN
 10
0.0
 20
0.0
 30
0.0
  9
$PEXTMAX
 10
210.0
 20
297.0
 30
0.0
  9
$PLIMMIN
 10
0.0
 20
0.0
  9
$PLIMMAX
 10
210.0
 20
297.0
  9
$UNITMODE
 70
     0
  9
$VISRETAIN
 70
     1
  9
$PLINEGEN
 70
     0
  9
$PSLTSCALE
 70
     1
  9
$TREEDEPTH
 70
  3020
  9
$CMLSTYLE
  2
Standard
  9
$CMLJUST
 70
     0
  9
$CMLSCALE
 40
20.0
  9
$PROXYGRAPHICS
 70
     1
  9
$MEASUREMENT
 70
     1
  9
$CELWEIGHT
370
    -1
  9
$ENDCAPS
280
     0
  9
$JOINSTYLE
280
     0
  9
$LWDISPLAY
290
     0
  9
$INSUNITS
 70
     4
  9
$HYPERLINKBASE
  1

  9
$STYLESHEET
  1

  9
$XEDIT
290
     1
  9
$CEPSNTYPE
380
     0
  9
$PSTYLEMODE
290
     1
  9
$FINGERPRINTGUID
  2
{e24e0b65-419f-433a-bcc0-9723af0318c0}
  9
$VERSIONGUID
  2
{FAEB1C32-E019-11D5-929B-00C0DF256EC4}
  9
$EXTNAMES
290
     1
  9
$PSVPSCALE
 40
0.0
  9
$OLESTARTUP
290
     0
  9
$SORTENTS
280
   127
  9
$INDEXCTL
280
     0
  9
$HIDETEXT
280
     1
  9
$XCLIPFRAME
290
     0
  9
$HALOGAP
280
     0
  9
$OBSCOLOR
 70
   257
  9
$OBSLTYPE
280
     0
  9
$INTERSECTIONDISPLAY
280
     0
  9
$INTERSECTIONCOLOR
 70
   257
  9
$DIMASSOC
280
     2
  9
$PROJECTNAME
  1

  9
$CAMERADISPLAY
290
     0
  9
$LENSLENGTH
 40
50.0
  9
$CAMERAHEIGHT
 40
0.0
  9
$STEPSPERSEC
 40
2.0
  9
$STEPSIZE
 40
6.0
  9
$3DDWFPREC
 40
2.0
  9
$PSOLWIDTH
 40
5.0
  9
$PSOLHEIGHT
 40
80.0
  9
$LOFTANG1
 40
1.5707963268
  9
$LOFTANG2
 40
1.5707963268
  9
$LOFTMAG1
 40
0.0
  9
$LOFTMAG2
 40
0.0
  9
$LOFTPARAM
 70
     7
  9
$LOFTNORMALS
280
     1
  9
$LATITUDE
 40
37.795
  9
$LONGITUDE
 40
-122.394
  9
$NORTHDIRECTION
 40
0.0
  9
$TIMEZONE
 70
 -8000
  9
$LIGHTGLYPHDISPLAY
280
     1
  9
$TILEMODELIGHTSYNCH
280
     1
  9
$CMATERIAL
347
44
  9
$SOLIDHIST
280
     0
  9
$SHOWHIST
280
     1
  9
$DWFFRAME
280
     2
  9
$DGNFRAME
280
     2
  9
$REALWORLDSCALE
290
     1
  9
$INTERFERECOLOR
 62
   256
  9
$CSHADOW
280
     0
  9
$SHADOWPLANELOCATION
 40
0.0
  0
ENDSEC
  0
SECTION
  2
CLASSES
  0
CLASS
  1
ACDBDICTIONARYWDFLT
  2
AcDbDictionaryWithDefault
  3
ObjectDBX Classes
 90
        0
 91
        3
280
     0
281
     0
  0
CLASS
  1
VISUALSTYLE
  2
AcDbVisualStyle
  3
ObjectDBX Classes
 90
     4095
 91
        3
280
     0
281
     0
  0
CLASS
  1
MATERIAL
  2
AcDbMaterial
  3
ObjectDBX Classes
 90
     1153
 91
        3
280
     0
281
     0
  0
CLASS
  1
SCALE
  2
AcDbScale
  3
ObjectDBX Classes
 90
     1153
 91
        3
280
     0
281
     0
  0
CLASS
  1
TABLESTYLE
  2
AcDbTableStyle
  3
ObjectDBX Classes
 90
     4095
 91
        3
280
     0
281
     0
  0
CLASS
  1
MLEADERSTYLE
  2
AcDbMLeaderStyle
  3
ACDB_MLEADERSTYLE_CLASS
 90
     4095
 91
        3
280
     0
281
     0
  0
CLASS
  1
SUN
  2
AcDbSun
  3
SCENEOE
 90
     1153
 91
        3
280
     0
281
     0
  0
CLASS
  1
RASTERVARIABLES
  2
AcDbRasterVariables
  3
ISM
 90
        0
 91
        3
280
     0
281
     0
  0
CLASS
  1
IMAGEDEF
  2
AcDbRasterImageDef
  3
ISM
 90
        0
 91
        3
280
     0
281
     0
  0
CLASS
  1
IMAGE
  2
AcDbRasterImage
  3
ISM
 90
      127
 91
        4
280
     0
281
     1
  0
CLASS
  1
IMAGEDEF_REACTOR
  2
AcDbRasterImageDefReactor
  3
ISM
 90
        1
 91
        3
280
     0
281
     0
  0
CLASS
  1
DICTIONARYVAR
  2
AcDbDictionaryVar
  3
ObjectDBX Classes
 90
        0
 91
        3
280
     0
281
     0
  0
CLASS
  1
CELLSTYLEMAP
  2
AcDbCellStyleMap
  3
ObjectDBX Classes
 90
     1152
 91
        3
280
     0
281
     0
  0
ENDSEC
  0
SECTION
  2
TABLES
  0
TABLE
  2
VPORT
  5
8
330
0
100
AcDbSymbolTable
 70
     1
  0
VPORT
  5
29
330
8
100
AcDbSymbolTableRecord
100
AcDbViewportTableRecord
  2
*Active
 70
     0
 10
0.0
 20
0.0
 11
1.0
 21
1.0
 12
344.1869158879
 22
148.5
 13
0.0
 23
0.0
 14
10.0
 24
10.0
 15
10.0
 25
10.0
 16
0.0
 26
0.0
 36
1.0
 17
0.0
 27
0.0
 37
0.0
 40
297.0
 41
1.9729729729
 42
50.0
 43
0.0
 44
0.0
 50
0.0
 51
0.0
 71
     0
 72
   100
 73
     1
 74
     3
 75
     0
 76
     0
 77
     0
 78
     0
281
     0
 65
     1
110
0.0
120
0.0
130
0.0
111
1.0
121
0.0
131
0.0
112
0.0
122
1.0
132
0.0
 79
     0
146
0.0
348
2F
 60
     3
 61
     5
292
     1
282
     1
141
0.0
142
0.0
 63
   250
361
5D
  0
ENDTAB
  0
TABLE
  2
LTYPE
  5
5
330
0
100
AcDbSymbolTable
 70
     2
  0
LTYPE
  5
14
330
5
100
AcDbSymbolTableRecord
100
AcDbLinetypeTableRecord
  2
ByBlock
 70
     0
  3

 72
    65
 73
     0
 40
0.0
  0
LTYPE
  5
15
330
5
100
AcDbSymbolTableRecord
100
AcDbLinetypeTableRecord
  2
ByLayer
 70
     0
  3

 72
    65
 73
     0
 40
0.0
  0
LTYPE
  5
16
330
5
100
AcDbSymbolTableRecord
100
AcDbLinetypeTableRecord
  2
Continuous
 70
     0
  3
Solid line
 72
    65
 73
     0
 40
0.0
  0
LTYPE
  5
F2
330
5
100
AcDbSymbolTableRecord
100
AcDbLinetypeTableRecord
  2
CENTER2
 70
     0
  3
Center (.5x) ___ _ ___ _ ___ _ ___ _ ___ _ ___
 72
    65
 73
     4
 40
28.575
 49
19.05
 74
     4
 75
     0
340
0
 46
0.0
 50
0.0
 44
0.0
 45
0.0
 49
-3.175
 74
     4
 75
     0
340
0
 46
0.0
 50
0.0
 44
0.0
 45
0.0
 49
3.175
 74
     4
 75
     0
340
0
 46
0.0
 50
0.0
 44
0.0
 45
0.0
 49
-3.175
 74
     4
 75
     0
340
0
 46
0.0
 50
0.0
 44
0.0
 45
0.0
  0
ENDTAB
  0
TABLE
  2
LAYER
  5
2
330
0
100
AcDbSymbolTable
 70
    11
  0
LAYER
  5
10
330
2
100
AcDbSymbolTableRecord
100
AcDbLayerTableRecord
  2
0
 70
     0
 62
     7
  6
Continuous
370
    -3
390
F
347
46
  0
LAYER
  5
5E
330
2
100
AcDbSymbolTableRecord
100
AcDbLayerTableRecord
  2
Standard
 70
     0
 62
     7
  6
Continuous
370
    -3
390
F
347
46
  0
LAYER
  5
61
330
2
100
AcDbSymbolTableRecord
100
AcDbLayerTableRecord
  2
DV1_Füllung
 70
     1
 62
    -7
  6
Continuous
370
    -3
390
F
347
46
  0
LAYER
  5
72
330
2
100
AcDbSymbolTableRecord
100
AcDbLayerTableRecord
  2
D000125
 70
     0
 62
     7
  6
Continuous
370
    -3
390
F
347
46
  0
LAYER
  5
AB
330
2
100
AcDbSymbolTableRecord
100
AcDbLayerTableRecord
  2
D000121
 70
     0
 62
     7
  6
Continuous
370
    -3
390
F
347
46
  0
LAYER
  5
D6
330
2
100
AcDbSymbolTableRecord
100
AcDbLayerTableRecord
  2
D000122
 70
     0
 62
     7
  6
Continuous
370
    -3
390
F
347
46
  0
LAYER
  5
F1
330
2
100
AcDbSymbolTableRecord
100
AcDbLayerTableRecord
  2
DV1_Standard
 70
     0
 62
     7
  6
Continuous
370
    -3
390
F
347
46
  0
LAYER
  5
128
330
2
100
AcDbSymbolTableRecord
100
AcDbLayerTableRecord
  2
DV2_Füllung
 70
     1
 62
    -7
  6
Continuous
370
    -3
390
F
347
46
  0
LAYER
  5
1B5
330
2
100
AcDbSymbolTableRecord
100
AcDbLayerTableRecord
  2
DV2_Standard
 70
     0
 62
     7
  6
Continuous
370
    -3
390
F
347
46
  0
LAYER
  5
1B9
330
2
100
AcDbSymbolTableRecord
100
AcDbLayerTableRecord
  2
Default
 70
     0
 62
     7
  6
Continuous
370
    -3
390
F
347
46
  0
LAYER
  5
1D0
330
2
100
AcDbSymbolTableRecord
100
AcDbLayerTableRecord
  2
Skizziergeometrie(DIN)
 70
     0
 62
     7
  6
Continuous
370
    -3
390
F
347
46
  0
ENDTAB
  0
TABLE
  2
STYLE
  5
3
330
0
100
AcDbSymbolTable
 70
     2
  0
STYLE
  5
11
330
3
100
AcDbSymbolTableRecord
100
AcDbTextStyleTableRecord
  2
Standard
 70
     0
 40
0.0
 41
1.0
 50
0.0
 71
     0
 42
3.0
  3
txt
  4

  0
STYLE
  5
106
330
3
100
AcDbSymbolTableRecord
100
AcDbTextStyleTableRecord
  2
SEACAD_Arial
 70
     0
 40
0.0
 41
1.0
 50
0.0
 71
     0
 42
2.5
  3
arial.ttf
  4

1001
ACAD
1000
Arial
1071
        0
  0
ENDTAB
  0
TABLE
  2
VIEW
  5
6
330
0
100
AcDbSymbolTable
 70
     0
  0
ENDTAB
  0
TABLE
  2
UCS
  5
7
330
0
100
AcDbSymbolTable
 70
     0
  0
ENDTAB
  0
TABLE
  2
APPID
  5
9
330
0
100
AcDbSymbolTable
 70
     2
  0
APPID
  5
12
330
9
100
AcDbSymbolTableRecord
100
AcDbRegAppTableRecord
  2
ACAD
 70
     0
  0
APPID
  5
210
330
9
100
AcDbSymbolTableRecord
100
AcDbRegAppTableRecord
  2
ACAD_MLEADERVER
 70
     0
  0
ENDTAB
  0
TABLE
  2
DIMSTYLE
  5
A
330
0
100
AcDbSymbolTable
 70
     3
100
AcDbDimStyleTable
  0
DIMSTYLE
105
27
330
A
100
AcDbSymbolTableRecord
100
AcDbDimStyleTableRecord
  2
ISO-25
 70
     0
 41
2.5
 42
0.625
 43
3.75
 44
1.25
 73
     0
 74
     0
 77
     1
 78
     8
140
2.5
141
2.5
143
0.0393700787
147
0.625
171
     3
172
     1
178
     0
271
     2
272
     2
274
     3
278
    44
283
     0
284
     8
340
11
  0
DIMSTYLE
105
F6
330
A
100
AcDbSymbolTableRecord
100
AcDbDimStyleTableRecord
  2
Standard
 70
     0
178
     0
340
11
  0
DIMSTYLE
105
107
102
{ACAD_REACTORS
330
108
330
112
330
11A
102
}
330
A
100
AcDbSymbolTableRecord
100
AcDbDimStyleTableRecord
  2
E-Katalog
 70
     0
 41
3.75
 42
0.75
 44
1.25
 73
     0
 74
     0
 77
     1
 78
     8
140
2.5
141
1.25
143
0.0393700787
146
0.7
147
0.625
172
     1
173
     1
178
     0
271
     0
272
     3
278
    44
283
     0
284
     8
340
106
343
100
344
100
  0
ENDTAB
  0
TABLE
  2
BLOCK_RECORD
  5
1
330
0
100
AcDbSymbolTable
 70
     8
  0
BLOCK_RECORD
  5
1F
330
1
100
AcDbSymbolTableRecord
100
AcDbBlockTableRecord
  2
*Model_Space
340
22
 70
     0
280
     1
281
     0
  0
BLOCK_RECORD
  5
1B
330
1
100
AcDbSymbolTableRecord
100
AcDbBlockTableRecord
  2
*Paper_Space
340
1E
 70
     0
280
     1
281
     0
  0
BLOCK_RECORD
  5
5F
330
1
100
AcDbSymbolTableRecord
100
AcDbBlockTableRecord
  2
SE
340
0
102
{BLKREFS
331
60
102
}
 70
     0
280
     1
281
     0
  0
BLOCK_RECORD
  5
F7
330
1
100
AcDbSymbolTableRecord
100
AcDbBlockTableRecord
  2
_Oblique
340
0
 70
     0
280
     1
281
     0
  0
BLOCK_RECORD
  5
FB
330
1
100
AcDbSymbolTableRecord
100
AcDbBlockTableRecord
  2
_Dot
340
0
 70
     0
280
     1
281
     0
  0
BLOCK_RECORD
  5
100
330
1
100
AcDbSymbolTableRecord
100
AcDbBlockTableRecord
  2
_SE_OPEN
340
0
 70
     0
280
     1
281
     0
  0
BLOCK_RECORD
  5
109
330
1
100
AcDbSymbolTableRecord
100
AcDbBlockTableRecord
  2
DMBLK406
340
0
 70
     0
280
     1
281
     0
  0
BLOCK_RECORD
  5
113
330
1
100
AcDbSymbolTableRecord
100
AcDbBlockTableRecord
  2
DMBLK407
340
0
 70
     0
280
     1
281
     0
  0
BLOCK_RECORD
  5
11B
330
1
100
AcDbSymbolTableRecord
100
AcDbBlockTableRecord
  2
DMBLK408
340
0
 70
     0
280
     1
281
     0
  0
BLOCK_RECORD
  5
126
330
1
100
AcDbSymbolTableRecord
100
AcDbBlockTableRecord
  2
SE1
340
0
102
{BLKREFS
331
127
102
}
 70
     0
280
     1
281
     0
  0
ENDTAB
  0
ENDSEC
  0
SECTION
  2
BLOCKS
  0
BLOCK
  5
20
330
1F
100
AcDbEntity
  8
0
100
AcDbBlockBegin
  2
*Model_Space
 70
     0
 10
0.0
 20
0.0
 30
0.0
  3
*Model_Space
  1

  0
ENDBLK
  5
21
330
1F
100
AcDbEntity
  8
0
100
AcDbBlockEnd
  0
BLOCK
  5
1C
330
1B
100
AcDbEntity
 67
     1
  8
0
100
AcDbBlockBegin
  2
*Paper_Space
 70
     0
 10
0.0
 20
0.0
 30
0.0
  3
*Paper_Space
  1

  0
ENDBLK
  5
1D
330
1B
100
AcDbEntity
 67
     1
  8
0
100
AcDbBlockEnd
  0
BLOCK
  5
F4
330
5F
100
AcDbEntity
  8
0
100
AcDbBlockBegin
  2
SE
 70
     0
 10
0.0
 20
0.0
 30
0.0
  3
SE
  1

  0
HATCH
  5
62
330
5F
100
AcDbEntity
  8
DV1_Füllung
  6
Continuous
 62
     7
100
AcDbHatch
 10
0.0
 20
0.0
 30
0.0
210
0.0
220
0.0
230
1.0
  2
SOLID
 70
     1
 71
     0
 91
        1
 92
        1
 93
       56
 72
     2
 10
75.11928480519707
 20
165.7773383582932
 40
9.999999999981982
 50
313.5256459931289
 51
586.474348327763
 73
     1
 72
     2
 10
67.81928463590812
 20
158.0916375100947
 40
0.6000000000000011
 50
313.5256516722375
 51
360.0
 73
     0
 72
     1
 10
68.41928463590813
 20
158.0916375100947
 11
68.41928463590813
 21
156.2704273448513
 72
     2
 10
69.0192847205526
 20
156.2704273448512
 40
0.6000000846444787
 50
179.9999999999946
 51
360.0
 73
     1
 72
     1
 10
69.61928480519708
 20
156.2704273448512
 11
69.61928480519708
 21
158.907840560078
 72
     1
 10
69.61928480519708
 20
158.907840560078
 11
69.61928568813846
 21
160.0687501407716
 72
     2
 10
69.31928568813845
 20
160.0687501407717
 40
0.3000000000000024
 50
0.0
 51
45.0003698190118
 73
     1
 72
     1
 10
69.53141635327118
 20
160.280883544342
 11
68.92471586853988
 21
160.8875843044806
 72
     2
 10
69.20755864521166
 20
161.170426952758
 40
0.3999999999999992
 50
135.0000130044952
 51
225.0000130044952
 73
     0
 72
     1
 10
68.92471599693422
 20
161.4532697294298
 11
69.53141786109292
 21
162.0599713181807
 72
     2
 10
69.3192858748856
 20
162.2721034006853
 40
0.2999999999999993
 50
314.9999869952975
 51
405.0001403779975
 73
     1
 72
     1
 10
69.53141738950508
 20
162.4842359547765
 11
69.10715341708892
 21
162.9085001197842
 72
     2
 10
68.89502133458497
 20
162.6963681335762
 40
0.2999999999999999
 50
44.99998699547214
 51
135.1325628241553
 73
     1
 72
     1
 10
68.68239906751458
 20
162.9080087996729
 11
67.9741121327516
 21
162.1997221864314
 72
     2
 10
67.54984816033544
 20
162.6239863514391
 40
0.6000000000000003
 50
45.00001300449718
 51
157.383875478501
 73
     0
 72
     2
 10
75.11928480519707
 20
165.7773383582932
 40
8.79999999998198
 50
157.3838754785009
 51
197.9567267535844
 73
     0
 72
     2
 10
67.3187098113995
 20
168.3053869665768
 40
0.6000000000000008
 50
197.9567267535839
 51
330.0000130044978
 73
     0
 72
     1
 10
67.83832512176156
 20
168.6053868486391
 11
69.23037089128783
 21
166.1942915855402
 72
     2
 10
69.74998620164943
 20
166.4942914676022
 40
0.5999999999995178
 50
209.9999869955038
 51
389.9999869955045
 73
     1
 72
     1
 10
70.26960151201105
 20
166.7942913496642
 11
69.78572161230828
 21
167.6323963600183
 72
     2
 10
70.21873437202623
 20
167.8823962598611
 40
0.4999999999999999
 50
150.0000132526885
 51
269.9841103760286
 73
     0
 72
     1
 10
70.21859570890041
 20
168.3823962406337
 11
72.01943030493125
 21
168.3828956562413
 72
     2
 10
72.01926391023247
 20
168.9828956213711
 40
0.5999999882024648
 50
270.0158895238052
 51
451.1026628421461
 73
     1
 72
     1
 10
72.0077175649533
 20
169.582784500876
 11
68.94883205079046
 21
169.5821207001016
 72
     2
 10
68.94872354709592
 20
170.0821206883285
 40
0.4999999999999993
 50
89.98756639238563
 51
150.0000130044979
 73
     0
 72
     1
 10
68.51571078846091
 20
169.8321207866099
 11
68.12491685776541
 21
170.5089960846602
 72
     2
 10
68.64453216812744
 20
170.8089959667225
 40
0.5999999999999988
 50
150.0000130044964
 51
217.8514817876337
 73
     0
 72
     2
 10
75.11928480519707
 20
165.7773383582932
 40
8.799999999981981
 50
217.8514817876334
 51
232.6982097080069
 73
     0
 72
     2
 10
75.11928480519707
 20
164.0473383582759
 40
10.22999999999924
 50
238.5803907697683
 51
301.4196092302316
 73
     0
 72
     2
 10
75.11928480519707
 20
165.7773383582932
 40
8.79999999998198
 50
307.301790291993
 51
322.1485182123665
 73
     0
 72
     2
 10
81.59403744226671
 20
170.8089959667225
 40
0.6000000000000015
 50
322.1485182123655
 51
389.9999869955037
 73
     0
 72
     1
 10
82.11365275262874
 20
170.5089960846602
 11
81.72285882193324
 21
169.8321207866099
 72
     2
 10
81.28984606329821
 20
170.0821206883285
 40
0.5000000000000011
 50
29.9999869955005
 51
90.01243360761437
 73
     0
 72
     1
 10
81.28973755960368
 20
169.5821207001015
 11
78.23085204544084
 21
169.582784500876
 72
     2
 10
78.21930570016167
 20
168.9828956213711
 40
0.5999999882024651
 50
88.89733715785258
 51
269.9841104761961
 73
     1
 72
     1
 10
78.2191393054629
 20
168.3828956562413
 11
80.01997390149374
 21
168.3823962406337
 72
     2
 10
80.01983523836789
 20
167.8823962598611
 40
0.5
 50
270.0158896239729
 51
389.9999867473115
 73
     0
 72
     1
 10
80.45284799808586
 20
167.6323963600182
 11
79.9689680983831
 21
166.7942913496642
 72
     2
 10
80.4885834087447
 20
166.4942914676022
 40
0.5999999999995178
 50
150.0000130044949
 51
330.0000130044962
 73
     1
 72
     1
 10
81.00819871910633
 20
166.1942915855402
 11
82.4002444886326
 21
168.6053868486391
 72
     2
 10
82.91985979899462
 20
168.3053869665768
 40
0.6000000000000002
 50
209.9999869955036
 51
342.0432732464161
 73
     0
 72
     2
 10
75.11928480519707
 20
165.7773383582932
 40
8.799999999981981
 50
342.0432732464157
 51
382.616124521499
 73
     0
 72
     2
 10
82.68872145005868
 20
162.6239863514391
 40
0.5999999999999983
 50
22.61612452149851
 51
134.9999869955028
 73
     0
 72
     1
 10
82.26445747764252
 20
162.1997221864314
 11
81.55617054287954
 21
162.9080087996729
 72
     2
 10
81.34354827580917
 20
162.6963681335762
 40
0.3000000000000002
 50
44.86743717584658
 51
135.0000130045298
 73
     1
 72
     1
 10
81.1314161933052
 20
162.9085001197842
 11
80.70715222088903
 21
162.4842359547765
 72
     2
 10
80.91928373550854
 20
162.2721034006853
 40
0.3000000000000002
 50
134.9998596220043
 51
225.0000130047025
 73
     1
 72
     1
 10
80.70715174930122
 20
162.0599713181807
 11
81.31385361345991
 21
161.4532697294298
 72
     2
 10
81.03101096518246
 20
161.170426952758
 40
0.4000000000000004
 50
314.9999869955047
 51
404.9999869955033
 73
     0
 72
     1
 10
81.31385374185425
 20
160.8875843044806
 11
80.70715325712295
 21
160.280883544342
 72
     2
 10
80.9192839222557
 20
160.0687501407717
 40
0.2999999999999965
 50
134.9996301809882
 51
179.9997942954266
 73
     1
 72
     1
 10
80.61928392225764
 20
160.0687512178383
 11
80.61928480519708
 21
158.9078405600781
 72
     1
 10
80.61928480519707
 20
158.907840560078
 11
80.61928480519707
 21
156.270423390938
 72
     2
 10
81.21928450894153
 20
156.2704233909423
 40
0.5999997037444493
 50
180.0000000004044
 51
360.0
 73
     1
 72
     1
 10
81.81928421268599
 20
156.2704233909423
 11
81.81928421268596
 21
158.091636786525
 72
     2
 10
82.41928421268597
 20
158.091636786525
 40
0.5999999999999999
 50
180.0
 51
226.4743540068713
 73
     0
 97
        0
 75
     0
 76
     1
 98
        0
  0
HATCH
  5
63
330
5F
100
AcDbEntity
  8
DV1_Füllung
  6
Continuous
 62
     7
100
AcDbHatch
 10
0.0
 20
0.0
 30
0.0
210
0.0
220
0.0
230
1.0
  2
SOLID
 70
     1
 71
     0
 91
        1
 92
        1
 93
       10
 72
     1
 10
76.66928480519708
 20
158.6704236871978
 11
76.66928480519708
 21
160.7056964297659
 72
     1
 10
76.66928480519708
 20
160.7056964297659
 11
76.30108675366313
 21
161.2315377431505
 72
     3
 10
76.40715277084112
 20
161.3830157141662
 11
2.168404344971009E-16
 21
-0.2142222010113174
 40
0.7002075382097079
 50
34.99999999999567
 51
90.00001472479236
 73
     0
 72
     1
 10
76.25715277084112
 20
161.3830157527156
 11
76.25715277084112
 21
161.6704236871978
 72
     1
 10
76.25715277084112
 20
161.6704236871978
 11
73.98141683955305
 21
161.6704236871978
 72
     1
 10
73.98141683955305
 20
161.6704236871978
 11
73.98141683955303
 21
161.3830157141662
 72
     3
 10
73.83141683955303
 20
161.3830157141662
 11
0.0
 21
0.2142222010113174
 40
0.7002075382097097
 50
90.0
 51
145.0000000000043
 73
     0
 72
     1
 10
73.93748285673102
 20
161.2315377431504
 11
73.56928480519709
 21
160.7056964297659
 72
     1
 10
73.56928480519707
 20
160.7056964297659
 11
73.56928480519707
 21
158.6704236871978
 72
     1
 10
73.56928480519707
 20
158.6704236871978
 11
76.66928480519708
 21
158.6704236871978
 97
        0
 75
     0
 76
     1
 98
        0
  0
HATCH
  5
64
330
5F
100
AcDbEntity
  8
DV1_Füllung
  6
Continuous
 62
     7
100
AcDbHatch
 10
0.0
 20
0.0
 30
0.0
210
0.0
220
0.0
230
1.0
  2
SOLID
 70
     1
 71
     0
 91
        1
 92
        1
 93
        4
 72
     1
 10
73.98141683955305
 20
161.6704236871978
 11
76.25715277084112
 21
161.6704236871978
 72
     1
 10
76.25715277084112
 20
161.6704236871978
 11
76.25715277084112
 21
164.0492075580159
 72
     1
 10
76.25715277084112
 20
164.0492075580159
 11
73.98141683955302
 21
164.0492075580159
 72
     1
 10
73.98141683955303
 20
164.0492075580159
 11
73.98141683955303
 21
161.6704236871978
 97
        0
 75
     0
 76
     1
 98
        0
  0
HATCH
  5
65
330
5F
100
AcDbEntity
  8
DV1_Füllung
  6
Continuous
 62
     7
100
AcDbHatch
 10
0.0
 20
0.0
 30
0.0
210
0.0
220
0.0
230
1.0
  2
SOLID
 70
     1
 71
     0
 91
        1
 92
        1
 93
       24
 72
     1
 10
73.84230364465074
 20
164.6704236871978
 11
73.93748285673102
 21
164.534493685182
 72
     3
 10
73.83141683955303
 20
164.3830157141662
 11
-2.168404344971009E-15
 21
0.214222201011317
 40
0.7002075382097086
 50
35.00000000000605
 51
90.00000000000058
 73
     0
 72
     1
 10
73.98141683955303
 20
164.3830157141662
 11
73.98141683955303
 21
164.0492075580159
 72
     1
 10
73.98141683955303
 20
164.0492075580159
 11
76.25715277084112
 21
164.0492075580159
 72
     1
 10
76.2571527708411
 20
164.0492075580159
 11
76.25715277084112
 21
164.3830157219992
 72
     3
 10
76.40715277084112
 20
164.3830157141662
 11
-2.168404344971009E-16
 21
-0.2142222010113179
 40
0.7002075382097077
 50
89.99999999999991
 51
144.9999999999941
 73
     0
 72
     1
 10
76.30108675366314
 20
164.534493685182
 11
76.39626596574341
 21
164.6704236871978
 72
     1
 10
76.39626596574341
 20
164.6704236871978
 11
76.66928480519707
 21
164.6704236871978
 72
     1
 10
76.66928480519707
 20
164.6704236871978
 11
80.29318062512878
 21
164.6704236871978
 72
     1
 10
80.29318062512878
 20
164.6704236871978
 11
79.13902734648518
 21
167.8414337588606
 72
     2
 10
78.66918103609223
 20
167.6704236871978
 40
0.5000000000000022
 50
19.99999999999953
 51
90.0
 73
     1
 72
     1
 10
78.66918103609223
 20
168.1704236871978
 11
76.03397261141797
 21
168.1704236871978
 72
     3
 10
76.03397261141798
 20
167.6704236871978
 11
1.084202172485504E-16
 21
0.5000000000000022
 40
0.3057306814586604
 50
0.0
 51
40.02986098536152
 73
     1
 72
     1
 10
75.8903261787607
 20
167.8414337588606
 11
75.93132102513809
 21
168.2098377875258
 72
     3
 10
76.1324260308583
 20
167.9704236871978
 11
-2.168404344971009E-16
 21
-0.6999999999999992
 40
0.3057306814586611
 50
139.9701390146379
 51
180.0
 73
     0
 72
     1
 10
76.1324260308583
 20
168.6704236871978
 11
74.10614357953588
 21
168.6704236871978
 72
     3
 10
74.10614357953588
 20
167.9704236871978
 11
1.517883041479706E-15
 21
0.7000000000000079
 40
0.3057306814586578
 50
0.0
 51
40.02986098535838
 73
     0
 72
     1
 10
74.30724858525606
 20
168.2098377875258
 11
74.34824343163346
 21
167.8414337588606
 72
     3
 10
74.20459699897617
 20
167.6704236871978
 11
2.168404344971009E-16
 21
-0.5000000000000004
 40
0.3057306814586597
 50
139.9701390146387
 51
180.0
 73
     1
 72
     1
 10
74.20459699897617
 20
168.1704236871978
 11
71.56938857430191
 21
168.1704236871978
 72
     2
 10
71.56938857430193
 20
167.6704236871978
 40
0.5000000000000022
 50
90.0
 51
159.9999999999999
 73
     1
 72
     1
 10
71.09954226390897
 20
167.8414337588606
 11
69.94538898526535
 21
164.6704236871978
 72
     1
 10
69.94538898526535
 20
164.6704236871978
 11
73.56928480519707
 21
164.6704236871978
 72
     1
 10
73.56928480519707
 20
164.6704236871978
 11
73.84230364465073
 21
164.6704236871978
 97
        0
 75
     0
 76
     1
 98
        0
  0
HATCH
  5
66
330
5F
100
AcDbEntity
  8
DV1_Füllung
  6
Continuous
 62
     7
100
AcDbHatch
 10
0.0
 20
0.0
 30
0.0
210
0.0
220
0.0
230
1.0
  2
SOLID
 70
     1
 71
     0
 91
        1
 92
        1
 93
        6
 72
     1
 10
74.10614357953588
 20
168.6704236871978
 11
73.11928480519708
 21
168.6704236871978
 72
     1
 10
73.11928480519708
 20
168.6704236871978
 11
73.11928480519708
 21
168.1704236871978
 72
     1
 10
73.11928480519708
 20
168.1704236871978
 11
74.20459699897617
 21
168.1704236871978
 72
     3
 10
74.20459699897617
 20
167.6704236871978
 11
-2.168404344971009E-16
 21
0.5000000000000004
 40
0.3057306814586597
 50
0.0
 51
40.02986098536132
 73
     0
 72
     1
 10
74.34824343163345
 20
167.8414337588606
 11
74.30724858525606
 21
168.2098377875258
 72
     3
 10
74.10614357953588
 20
167.9704236871978
 11
-1.517883041479706E-15
 21
-0.7000000000000079
 40
0.3057306814586578
 50
139.9701390146416
 51
180.0000000000001
 73
     1
 97
        0
 75
     0
 76
     1
 98
        0
  0
HATCH
  5
67
330
5F
100
AcDbEntity
  8
DV1_Füllung
  6
Continuous
 62
     7
100
AcDbHatch
 10
0.0
 20
0.0
 30
0.0
210
0.0
220
0.0
230
1.0
  2
SOLID
 70
     1
 71
     0
 91
        1
 92
        1
 93
        6
 72
     1
 10
76.03397259860849
 20
168.1704236871978
 11
77.11928480519708
 21
168.1704236871978
 72
     1
 10
77.11928480519707
 20
168.1704236871978
 11
77.11928480519707
 21
168.6704236871978
 72
     1
 10
77.11928480519707
 20
168.6704236871978
 11
76.13242603085827
 21
168.6704236871978
 72
     3
 10
76.1324260308583
 20
167.9704236871978
 11
2.168404344971009E-16
 21
0.6999999999999992
 40
0.3057306814586611
 50
0.0
 51
40.02986098536218
 73
     1
 72
     1
 10
75.9313210251381
 20
168.2098377875258
 11
75.89032617876069
 21
167.8414337588606
 72
     3
 10
76.03397261141798
 20
167.6704236871978
 11
-1.084202172485504E-16
 21
-0.5000000000000022
 40
0.3057306814586604
 50
139.9701390146385
 51
180.0
 73
     0
 97
        0
 75
     0
 76
     1
 98
        0
  0
HATCH
  5
68
330
5F
100
AcDbEntity
  8
DV1_Füllung
  6
Continuous
 62
     7
100
AcDbHatch
 10
0.0
 20
0.0
 30
0.0
210
0.0
220
0.0
230
1.0
  2
SOLID
 70
     1
 71
     0
 91
        1
 92
        1
 93
        9
 72
     2
 10
79.91928480519707
 20
161.1704236871978
 40
1.25
 50
333.3982759759392
 51
386.6023689068661
 73
     1
 72
     1
 10
81.03695445941597
 20
161.7301687577774
 11
80.70715174930122
 21
162.0599713181807
 72
     2
 10
80.91928373550854
 20
162.2721034006853
 40
0.3000000000000002
 50
134.9999869952975
 51
166.1029746639951
 73
     0
 72
     2
 10
79.91928480519707
 20
161.1704236871978
 40
1.25
 50
55.45702653226717
 51
58.66774850240525
 73
     1
 72
     1
 10
80.56928480519709
 20
162.2381315124009
 11
80.56928480519709
 21
161.6704236871978
 72
     1
 10
80.56928480519709
 20
161.6704236871978
 11
80.6692848051971
 21
161.6704236871978
 72
     1
 10
80.66928480519708
 20
161.6704236871978
 11
80.66928480519708
 21
160.234582711366
 72
     2
 10
80.9192839222557
 20
160.0687501407717
 40
0.2999999999999965
 50
213.5576148227311
 51
225.0003698190118
 73
     0
 72
     1
 10
80.70715325712297
 20
160.280883544342
 11
81.0369607594597
 21
160.6106911963925
 97
        0
 75
     0
 76
     1
 98
        0
  0
HATCH
  5
69
330
5F
100
AcDbEntity
  8
DV1_Füllung
  6
Continuous
 62
     7
100
AcDbHatch
 10
0.0
 20
0.0
 30
0.0
210
0.0
220
0.0
230
1.0
  2
SOLID
 70
     1
 71
     0
 91
        1
 92
        1
 93
        9
 72
     1
 10
69.20160885093448
 20
160.6106911963924
 11
69.53141635327118
 21
160.280883544342
 72
     2
 10
69.31928568813845
 20
160.0687501407717
 40
0.3000000000000024
 50
314.9996301809882
 51
326.4423851772734
 73
     0
 72
     1
 10
69.56928480519707
 20
160.234582711366
 11
69.56928480519707
 21
161.6704236871978
 72
     1
 10
69.56928480519707
 20
161.6704236871978
 11
69.66928480519708
 21
161.6704236871978
 72
     1
 10
69.66928480519708
 20
161.6704236871978
 11
69.66928480519708
 21
162.2381315124009
 72
     2
 10
70.31928480519707
 20
161.1704236871978
 40
1.25
 50
121.3322514975936
 51
124.5429734677422
 73
     1
 72
     2
 10
69.3192858748856
 20
162.2721034006853
 40
0.2999999999999993
 50
13.89702533603386
 51
45.00001300470252
 73
     0
 72
     1
 10
69.53141786109292
 20
162.0599713181807
 11
69.20161515097818
 21
161.7301687577774
 72
     2
 10
70.31928480519707
 20
161.1704236871978
 40
1.25
 50
153.3976310931325
 51
206.6017240240622
 73
     1
 97
        0
 75
     0
 76
     1
 98
        0
  0
HATCH
  5
6A
330
5F
100
AcDbEntity
  8
DV1_Füllung
  6
Continuous
 62
     7
100
AcDbHatch
 10
0.0
 20
0.0
 30
0.0
210
0.0
220
0.0
230
1.0
  2
SOLID
 70
     1
 71
     0
 91
        1
 92
        1
 93
       24
 72
     1
 10
69.71928480519706
 20
164.6704236871978
 11
69.71928480519706
 21
156.3100590326712
 72
     1
 10
69.71928480519706
 20
156.3100590326713
 11
69.71928480519708
 21
155.6704236871978
 72
     1
 10
69.71928480519708
 20
155.6704236871978
 11
73.55182212386667
 21
155.6704236871978
 72
     1
 10
73.55182212386667
 20
155.6704236871978
 11
73.56298700035228
 21
156.3100590326712
 72
     1
 10
73.56298700035228
 20
156.3100590326712
 11
73.56927718879489
 21
156.6704236871977
 72
     1
 10
73.56927718879489
 20
156.6704236871977
 11
76.66929242159927
 21
156.6704236871978
 72
     1
 10
76.66929242159927
 20
156.6704236871978
 11
76.67558261004187
 21
156.3100590326712
 72
     1
 10
76.67558261004187
 20
156.3100590326712
 11
76.6867474865275
 21
155.6704236871978
 72
     1
 10
76.6867474865275
 20
155.6704236871978
 11
80.51928480519707
 21
155.6704236871978
 72
     1
 10
80.51928480519707
 20
155.6704236871978
 11
80.51928480519707
 21
156.3100590326712
 72
     1
 10
80.51928480519707
 20
156.3100590326712
 11
80.51928480519709
 21
164.6704236871978
 72
     1
 10
80.51928480519709
 20
164.6704236871978
 11
76.66928480519708
 21
164.6704236871978
 72
     1
 10
76.66928480519708
 20
164.6704236871978
 11
76.66928480519708
 21
162.0603349985666
 72
     1
 10
76.66928480519708
 20
162.0603349985666
 11
76.30108675366313
 21
161.534493685182
 72
     3
 10
76.40715277084112
 20
161.3830157141662
 11
-2.168404344971009E-16
 21
0.2142222010113174
 40
0.7002075382097079
 50
34.99999999999561
 51
145.0000000000043
 73
     1
 72
     1
 10
76.30108675366314
 20
161.2315377431504
 11
76.66928480519707
 21
160.7056964297659
 72
     1
 10
76.66928480519707
 20
160.7056964297659
 11
76.66928480519708
 21
158.6704236871978
 72
     1
 10
76.66928480519708
 20
158.6704236871978
 11
73.56928480519707
 21
158.6704236871978
 72
     1
 10
73.56928480519707
 20
158.6704236871978
 11
73.56928480519707
 21
160.7056964297659
 72
     1
 10
73.56928480519707
 20
160.7056964297659
 11
73.937482856731
 21
161.2315377431504
 72
     3
 10
73.83141683955303
 20
161.3830157141662
 11
0.0
 21
-0.2142222010113174
 40
0.7002075382097097
 50
34.99999999999571
 51
145.0000000000043
 73
     1
 72
     1
 10
73.93748285673101
 20
161.534493685182
 11
73.5692848051971
 21
162.0603349985666
 72
     1
 10
73.56928480519709
 20
162.0603349985666
 11
73.56928480519707
 21
164.6704236871978
 72
     1
 10
73.56928480519707
 20
164.6704236871978
 11
69.71928480519706
 21
164.6704236871978
 97
        0
 75
     0
 76
     1
 98
        0
  0
HATCH
  5
6B
330
5F
100
AcDbEntity
  8
DV1_Füllung
  6
Continuous
 62
     7
100
AcDbHatch
 10
0.0
 20
0.0
 30
0.0
210
0.0
220
0.0
230
1.0
  2
SOLID
 70
     1
 71
     0
 91
        1
 92
        1
 93
       10
 72
     1
 10
69.71928480519706
 20
156.3100590326712
 11
69.71928480519706
 21
161.6704236871978
 72
     1
 10
69.71928480519706
 20
161.6704236871978
 11
69.56928480519707
 21
161.6704236871978
 72
     1
 10
69.56928480519707
 20
161.6704236871978
 11
69.56928480519707
 21
160.234582711366
 72
     2
 10
69.31928568813845
 20
160.0687501407717
 40
0.3000000000000024
 50
326.4423851772734
 51
360.0
 73
     0
 72
     1
 10
69.61928568813845
 20
160.0687501407717
 11
69.61928480519705
 21
158.907840560078
 72
     1
 10
69.61928480519707
 20
158.907840560078
 11
69.6192848051971
 21
156.2704273448512
 72
     2
 10
69.0192847205526
 20
156.2704273448512
 40
0.6000000846444787
 50
0.0
 51
23.55646262369509
 73
     0
 72
     1
 10
69.56928480519706
 20
156.0306357510359
 11
69.56928480519707
 21
155.6704236871978
 72
     1
 10
69.56928480519707
 20
155.6704236871978
 11
69.71928480519708
 21
155.6704236871978
 72
     1
 10
69.71928480519708
 20
155.6704236871978
 11
69.71928480519708
 21
156.3100590326712
 97
        0
 75
     0
 76
     1
 98
        0
  0
HATCH
  5
6C
330
5F
100
AcDbEntity
  8
DV1_Füllung
  6
Continuous
 62
     7
100
AcDbHatch
 10
0.0
 20
0.0
 30
0.0
210
0.0
220
0.0
230
1.0
  2
SOLID
 70
     1
 71
     0
 91
        1
 92
        1
 93
        4
 72
     1
 10
69.71928480519706
 20
161.6704236871978
 11
69.71928480519706
 21
162.2670092971709
 72
     2
 10
70.31928480519707
 20
161.1704236871978
 40
1.25
 50
118.6854020141188
 51
121.3322514975936
 73
     1
 72
     1
 10
69.66928480519708
 20
162.2381315124009
 11
69.66928480519708
 21
161.6704236871978
 72
     1
 10
69.66928480519708
 20
161.6704236871978
 11
69.71928480519708
 21
161.6704236871978
 97
        0
 75
     0
 76
     1
 98
        0
  0
HATCH
  5
6D
330
5F
100
AcDbEntity
  8
DV1_Füllung
  6
Continuous
 62
     7
100
AcDbHatch
 10
0.0
 20
0.0
 30
0.0
210
0.0
220
0.0
230
1.0
  2
SOLID
 70
     1
 71
     0
 91
        1
 92
        1
 93
        7
 72
     1
 10
73.56928480519707
 20
164.6704236871978
 11
73.56928480519707
 21
162.0603349985666
 72
     1
 10
73.56928480519707
 20
162.0603349985666
 11
73.93748285673102
 21
161.534493685182
 72
     3
 10
73.83141683955303
 20
161.3830157141662
 11
0.0
 21
0.2142222010113174
 40
0.7002075382097097
 50
34.99999999999569
 51
90.0
 73
     0
 72
     1
 10
73.98141683955303
 20
161.3830157141662
 11
73.98141683955303
 21
164.3830157141662
 72
     3
 10
73.83141683955303
 20
164.3830157141662
 11
2.168404344971009E-15
 21
-0.214222201011317
 40
0.7002075382097086
 50
89.99999999999942
 51
144.9999999999939
 73
     1
 72
     1
 10
73.93748285673102
 20
164.534493685182
 11
73.84230364465076
 21
164.6704236871978
 72
     1
 10
73.84230364465074
 20
164.6704236871978
 11
73.5692848051971
 21
164.6704236871978
 97
        0
 75
     0
 76
     1
 98
        0
  0
HATCH
  5
6E
330
5F
100
AcDbEntity
  8
DV1_Füllung
  6
Continuous
 62
     7
100
AcDbHatch
 10
0.0
 20
0.0
 30
0.0
210
0.0
220
0.0
230
1.0
  2
SOLID
 70
     1
 71
     0
 91
        1
 92
        1
 93
        7
 72
     1
 10
76.25715277084112
 20
164.3830157141662
 11
76.25715277084112
 21
161.3830157141662
 72
     3
 10
76.40715277084112
 20
161.3830157141662
 11
2.168404344971009E-16
 21
-0.2142222010113174
 40
0.7002075382097079
 50
90.00001472479236
 51
145.0000000000044
 73
     0
 72
     1
 10
76.30108675366316
 20
161.534493685182
 11
76.66928480519707
 21
162.0603349985666
 72
     1
 10
76.66928480519707
 20
162.0603349985666
 11
76.66928480519708
 21
164.6704236871978
 72
     1
 10
76.66928480519708
 20
164.6704236871978
 11
76.39626596574344
 21
164.6704236871978
 72
     1
 10
76.39626596574344
 20
164.6704236871978
 11
76.30108675366314
 21
164.534493685182
 72
     3
 10
76.40715277084112
 20
164.3830157141662
 11
2.168404344971009E-16
 21
0.2142222010113179
 40
0.7002075382097077
 50
35.00000000000588
 51
90.00000000000006
 73
     1
 97
        0
 75
     0
 76
     1
 98
        0
  0
HATCH
  5
6F
330
5F
100
AcDbEntity
  8
DV1_Füllung
  6
Continuous
 62
     7
100
AcDbHatch
 10
0.0
 20
0.0
 30
0.0
210
0.0
220
0.0
230
1.0
  2
SOLID
 70
     1
 71
     0
 91
        1
 92
        1
 93
        6
 72
     1
 10
73.55182212386666
 20
155.6704236871978
 11
76.68674748652748
 21
155.6704236871978
 72
     1
 10
76.68674748652748
 20
155.6704236871978
 11
76.67558261004187
 21
156.3100590326712
 72
     1
 10
76.67558261004187
 20
156.3100590326712
 11
76.66929242159927
 21
156.6704236871977
 72
     1
 10
76.66929242159927
 20
156.6704236871977
 11
73.56927718879489
 21
156.6704236871978
 72
     1
 10
73.56927718879489
 20
156.6704236871978
 11
73.56298700035228
 21
156.3100590326712
 72
     1
 10
73.56298700035228
 20
156.3100590326712
 11
73.55182212386666
 21
155.6704236871978
 97
        0
 75
     0
 76
     1
 98
        0
  0
HATCH
  5
70
330
5F
100
AcDbEntity
  8
DV1_Füllung
  6
Continuous
 62
     7
100
AcDbHatch
 10
0.0
 20
0.0
 30
0.0
210
0.0
220
0.0
230
1.0
  2
SOLID
 70
     1
 71
     0
 91
        1
 92
        1
 93
       10
 72
     1
 10
80.66928480519708
 20
160.234582711366
 11
80.66928480519708
 21
161.6704236871978
 72
     1
 10
80.66928480519708
 20
161.6704236871978
 11
80.51928480519709
 21
161.6704236871978
 72
     1
 10
80.51928480519709
 20
161.6704236871978
 11
80.51928480519709
 21
156.3100590326712
 72
     1
 10
80.51928480519709
 20
156.3100590326713
 11
80.51928480519707
 21
155.6704236871978
 72
     1
 10
80.51928480519707
 20
155.6704236871978
 11
80.66928480519708
 21
155.6704236871978
 72
     1
 10
80.66928480519708
 20
155.6704236871978
 11
80.66928480519708
 21
156.0306318765502
 72
     2
 10
81.21928450894153
 20
156.2704233909423
 40
0.5999997037444493
 50
156.4435297919519
 51
179.9999999995956
 73
     0
 72
     1
 10
80.61928480519707
 20
156.270423390938
 11
80.61928480519707
 21
158.907840560078
 72
     1
 10
80.61928480519707
 20
158.907840560078
 11
80.61928392225762
 21
160.0687512178383
 72
     2
 10
80.9192839222557
 20
160.0687501407717
 40
0.2999999999999965
 50
180.0002057045735
 51
213.5576148227311
 73
     0
 97
        0
 75
     0
 76
     1
 98
        0
  0
HATCH
  5
71
330
5F
100
AcDbEntity
  8
DV1_Füllung
  6
Continuous
 62
     7
100
AcDbHatch
 10
0.0
 20
0.0
 30
0.0
210
0.0
220
0.0
230
1.0
  2
SOLID
 70
     1
 71
     0
 91
        1
 92
        1
 93
        4
 72
     1
 10
80.51928480519709
 20
162.2670092971709
 11
80.51928480519709
 21
161.6704236871978
 72
     1
 10
80.51928480519709
 20
161.6704236871978
 11
80.56928480519709
 21
161.6704236871978
 72
     1
 10
80.56928480519709
 20
161.6704236871978
 11
80.56928480519709
 21
162.2381315124009
 72
     2
 10
79.91928480519707
 20
161.1704236871978
 40
1.25
 50
58.66774850240525
 51
61.31459798588065
 73
     1
 97
        0
 75
     0
 76
     1
 98
        0
  0
LINE
  5
73
330
5F
100
AcDbEntity
  8
D000125
  6
Continuous
 62
     7
100
AcDbLine
 10
80.6192848052
 20
158.9078405601
 30
0.0
 11
80.6192848052
 21
156.2704233909
 31
0.0
  0
ARC
  5
74
330
5F
100
AcDbEntity
  8
D000125
  6
Continuous
 62
     7
100
AcDbCircle
 10
81.2192845089
 20
156.2704233909
 30
0.0
 40
0.5999997037444493
100
AcDbArc
 50
180.0000000004
 51
0.0
  0
LINE
  5
75
330
5F
100
AcDbEntity
  8
D000125
  6
Continuous
 62
     7
100
AcDbLine
 10
81.8192842127
 20
156.2704233909
 30
0.0
 11
81.8192842127
 21
158.0916367865
 31
0.0
  0
ARC
  5
76
330
5F
100
AcDbEntity
  8
D000125
  6
Continuous
 62
     7
100
AcDbCircle
 10
69.0192847206
 20
156.2704273449
 30
0.0
 40
0.6000000846444787
100
AcDbArc
 50
180.0
 51
0.0
  0
LINE
  5
77
330
5F
100
AcDbEntity
  8
D000125
  6
Continuous
 62
     7
100
AcDbLine
 10
69.6192848052
 20
156.2704273449
 30
0.0
 11
69.6192848052
 21
158.9078405601
 31
0.0
  0
LINE
  5
78
330
5F
100
AcDbEntity
  8
D000125
  6
Continuous
 62
     7
100
AcDbLine
 10
69.6192856881
 20
160.0687501408
 30
0.0
 11
69.6192848052
 21
158.9078405601
 31
0.0
  0
ARC
  5
79
330
5F
100
AcDbEntity
  8
D000125
  6
Continuous
 62
     7
100
AcDbCircle
 10
68.8950213346
 20
162.6963681336
 30
0.0
 40
0.2999999999999999
100
AcDbArc
 50
44.9999869955
 51
135.1325628242
  0
LINE
  5
7A
330
5F
100
AcDbEntity
  8
D000125
  6
Continuous
 62
     7
100
AcDbLine
 10
69.1071534171
 20
162.9085001198
 30
0.0
 11
69.5314173895
 21
162.4842359548
 31
0.0
  0
ARC
  5
7B
330
5F
100
AcDbEntity
  8
D000125
  6
Continuous
 62
     7
100
AcDbCircle
 10
69.3192858749
 20
162.2721034007
 30
0.0
 40
0.2999999999999993
100
AcDbArc
 50
314.9999869953
 51
45.000140378
  0
LINE
  5
7C
330
5F
100
AcDbEntity
  8
D000125
  6
Continuous
 62
     7
100
AcDbLine
 10
69.5314178611
 20
162.0599713182
 30
0.0
 11
68.9247159969
 21
161.4532697294
 31
0.0
  0
ARC
  5
7D
330
5F
100
AcDbEntity
  8
D000125
  6
Continuous
 62
     7
100
AcDbCircle
 10
69.2075586452
 20
161.1704269528
 30
0.0
 40
0.3999999999999992
100
AcDbArc
 50
134.9999869955
 51
224.9999869955
  0
LINE
  5
7E
330
5F
100
AcDbEntity
  8
D000125
  6
Continuous
 62
     7
100
AcDbLine
 10
68.9247158685
 20
160.8875843045
 30
0.0
 11
69.5314163533
 21
160.2808835443
 31
0.0
  0
ARC
  5
7F
330
5F
100
AcDbEntity
  8
D000125
  6
Continuous
 62
     7
100
AcDbCircle
 10
69.3192856881
 20
160.0687501408
 30
0.0
 40
0.3000000000000024
100
AcDbArc
 50
0.0
 51
45.000369819
  0
ARC
  5
80
330
5F
100
AcDbEntity
  8
D000125
  6
Continuous
 62
     7
100
AcDbCircle
 10
75.1192848052
 20
165.7773383583
 30
0.0
 40
8.79999999998198
100
AcDbArc
 50
37.8514817876
 51
52.698209708
  0
ARC
  5
81
330
5F
100
AcDbEntity
  8
D000125
  6
Continuous
 62
     7
100
AcDbCircle
 10
75.1192848052
 20
164.0473383583
 30
0.0
 40
10.22999999999924
100
AcDbArc
 50
58.5803907698
 51
121.4196092302
  0
LINE
  5
82
330
5F
100
AcDbEntity
  8
D000125
  6
Continuous
 62
     7
100
AcDbLine
 10
68.9488320508
 20
169.5821207001
 30
0.0
 11
72.007717565
 21
169.5827845009
 31
0.0
  0
ARC
  5
83
330
5F
100
AcDbEntity
  8
D000125
  6
Continuous
 62
     7
100
AcDbCircle
 10
72.0192639102
 20
168.9828956214
 30
0.0
 40
0.5999999882024648
100
AcDbArc
 50
270.0158895238
 51
91.1026628421
  0
LINE
  5
84
330
5F
100
AcDbEntity
  8
D000125
  6
Continuous
 62
     7
100
AcDbLine
 10
72.0194303049
 20
168.3828956562
 30
0.0
 11
70.2185957089
 21
168.3823962406
 31
0.0
  0
ARC
  5
85
330
5F
100
AcDbEntity
  8
D000125
  6
Continuous
 62
     7
100
AcDbCircle
 10
70.218734372
 20
167.8823962599
 30
0.0
 40
0.4999999999999999
100
AcDbArc
 50
90.015889624
 51
209.9999867473
  0
LINE
  5
86
330
5F
100
AcDbEntity
  8
D000125
  6
Continuous
 62
     7
100
AcDbLine
 10
69.7857216123
 20
167.63239636
 30
0.0
 11
70.269601512
 21
166.7942913497
 31
0.0
  0
ARC
  5
87
330
5F
100
AcDbEntity
  8
D000125
  6
Continuous
 62
     7
100
AcDbCircle
 10
69.7499862016
 20
166.4942914676
 30
0.0
 40
0.5999999999995178
100
AcDbArc
 50
209.9999869955
 51
29.9999869955
  0
LINE
  5
88
330
5F
100
AcDbEntity
  8
D000125
  6
Continuous
 62
     7
100
AcDbLine
 10
69.2303708913
 20
166.1942915855
 30
0.0
 11
67.8383251218
 21
168.6053868486
 31
0.0
  0
ARC
  5
89
330
5F
100
AcDbEntity
  8
D000125
  6
Continuous
 62
     7
100
AcDbCircle
 10
68.9487235471
 20
170.0821206883
 30
0.0
 40
0.4999999999999993
100
AcDbArc
 50
209.9999869955
 51
270.0124336076
  0
LINE
  5
8A
330
5F
100
AcDbEntity
  8
D000125
  6
Continuous
 62
     7
100
AcDbLine
 10
68.4192846359
 20
158.0916375101
 30
0.0
 11
68.4192846359
 21
156.2704273449
 31
0.0
  0
ARC
  5
8B
330
5F
100
AcDbEntity
  8
D000125
  6
Continuous
 62
     7
100
AcDbCircle
 10
67.8192846359
 20
158.0916375101
 30
0.0
 40
0.6000000000000011
100
AcDbArc
 50
0.0
 51
46.4743483278
  0
ARC
  5
8C
330
5F
100
AcDbEntity
  8
D000125
  6
Continuous
 62
     7
100
AcDbCircle
 10
67.3187098114
 20
168.3053869666
 30
0.0
 40
0.6000000000000008
100
AcDbArc
 50
29.9999869955
 51
162.0432732464
  0
ARC
  5
8D
330
5F
100
AcDbEntity
  8
D000125
  6
Continuous
 62
     7
100
AcDbCircle
 10
75.1192848052
 20
165.7773383583
 30
0.0
 40
8.799999999981981
100
AcDbArc
 50
127.301790292
 51
142.1485182124
  0
LINE
  5
8E
330
5F
100
AcDbEntity
  8
D000125
  6
Continuous
 62
     7
100
AcDbLine
 10
68.1249168578
 20
170.5089960847
 30
0.0
 11
68.5157107885
 21
169.8321207866
 31
0.0
  0
ARC
  5
8F
330
5F
100
AcDbEntity
  8
D000125
  6
Continuous
 62
     7
100
AcDbCircle
 10
68.6445321681
 20
170.8089959667
 30
0.0
 40
0.5999999999999988
100
AcDbArc
 50
142.1485182124
 51
209.9999869955
  0
ARC
  5
90
330
5F
100
AcDbEntity
  8
D000125
  6
Continuous
 62
     7
100
AcDbCircle
 10
75.1192848052
 20
165.7773383583
 30
0.0
 40
8.79999999998198
100
AcDbArc
 50
162.0432732464
 51
202.6161245215
  0
LINE
  5
91
330
5F
100
AcDbEntity
  8
D000125
  6
Continuous
 62
     7
100
AcDbLine
 10
67.9741121328
 20
162.1997221864
 30
0.0
 11
68.6823990675
 21
162.9080087997
 31
0.0
  0
ARC
  5
92
330
5F
100
AcDbEntity
  8
D000125
  6
Continuous
 62
     7
100
AcDbCircle
 10
67.5498481603
 20
162.6239863514
 30
0.0
 40
0.6000000000000003
100
AcDbArc
 50
202.6161245215
 51
314.9999869955
  0
LINE
  5
93
330
5F
100
AcDbEntity
  8
D000125
  6
Continuous
 62
     7
100
AcDbLine
 10
80.6192848052
 20
158.9078405601
 30
0.0
 11
80.6192839223
 21
160.0687512178
 31
0.0
  0
ARC
  5
94
330
5F
100
AcDbEntity
  8
D000125
  6
Continuous
 62
     7
100
AcDbCircle
 10
80.9192839223
 20
160.0687501408
 30
0.0
 40
0.2999999999999965
100
AcDbArc
 50
134.999630181
 51
179.9997942954
  0
LINE
  5
95
330
5F
100
AcDbEntity
  8
D000125
  6
Continuous
 62
     7
100
AcDbLine
 10
80.7071532571
 20
160.2808835443
 30
0.0
 11
81.3138537419
 21
160.8875843045
 31
0.0
  0
ARC
  5
96
330
5F
100
AcDbEntity
  8
D000125
  6
Continuous
 62
     7
100
AcDbCircle
 10
81.0310109652
 20
161.1704269528
 30
0.0
 40
0.4000000000000004
100
AcDbArc
 50
315.0000130045
 51
45.0000130045
  0
LINE
  5
97
330
5F
100
AcDbEntity
  8
D000125
  6
Continuous
 62
     7
100
AcDbLine
 10
81.3138536135
 20
161.4532697294
 30
0.0
 11
80.7071517493
 21
162.0599713182
 31
0.0
  0
ARC
  5
98
330
5F
100
AcDbEntity
  8
D000125
  6
Continuous
 62
     7
100
AcDbCircle
 10
80.9192837355
 20
162.2721034007
 30
0.0
 40
0.3000000000000002
100
AcDbArc
 50
134.999859622
 51
225.0000130047
  0
LINE
  5
99
330
5F
100
AcDbEntity
  8
D000125
  6
Continuous
 62
     7
100
AcDbLine
 10
80.7071522209
 20
162.4842359548
 30
0.0
 11
81.1314161933
 21
162.9085001198
 31
0.0
  0
ARC
  5
9A
330
5F
100
AcDbEntity
  8
D000125
  6
Continuous
 62
     7
100
AcDbCircle
 10
81.3435482758
 20
162.6963681336
 30
0.0
 40
0.3000000000000002
100
AcDbArc
 50
44.8674371758
 51
135.0000130045
  0
LINE
  5
9B
330
5F
100
AcDbEntity
  8
D000125
  6
Continuous
 62
     7
100
AcDbLine
 10
81.5561705429
 20
162.9080087997
 30
0.0
 11
82.2644574776
 21
162.1997221864
 31
0.0
  0
ARC
  5
9C
330
5F
100
AcDbEntity
  8
D000125
  6
Continuous
 62
     7
100
AcDbCircle
 10
78.2193057002
 20
168.9828956214
 30
0.0
 40
0.5999999882024651
100
AcDbArc
 50
88.8973371579
 51
269.9841104762
  0
LINE
  5
9D
330
5F
100
AcDbEntity
  8
D000125
  6
Continuous
 62
     7
100
AcDbLine
 10
78.2308520454
 20
169.5827845009
 30
0.0
 11
81.2897375596
 21
169.5821207001
 31
0.0
  0
ARC
  5
9E
330
5F
100
AcDbEntity
  8
D000125
  6
Continuous
 62
     7
100
AcDbCircle
 10
81.2898460633
 20
170.0821206883
 30
0.0
 40
0.5000000000000011
100
AcDbArc
 50
269.9875663924
 51
330.0000130045
  0
LINE
  5
9F
330
5F
100
AcDbEntity
  8
D000125
  6
Continuous
 62
     7
100
AcDbLine
 10
81.7228588219
 20
169.8321207866
 30
0.0
 11
82.1136527526
 21
170.5089960847
 31
0.0
  0
ARC
  5
A0
330
5F
100
AcDbEntity
  8
D000125
  6
Continuous
 62
     7
100
AcDbCircle
 10
80.4885834087
 20
166.4942914676
 30
0.0
 40
0.5999999999995178
100
AcDbArc
 50
150.0000130045
 51
330.0000130045
  0
LINE
  5
A1
330
5F
100
AcDbEntity
  8
D000125
  6
Continuous
 62
     7
100
AcDbLine
 10
79.9689680984
 20
166.7942913497
 30
0.0
 11
80.4528479981
 21
167.63239636
 31
0.0
  0
ARC
  5
A2
330
5F
100
AcDbEntity
  8
D000125
  6
Continuous
 62
     7
100
AcDbCircle
 10
80.0198352384
 20
167.8823962599
 30
0.0
 40
0.5
100
AcDbArc
 50
330.0000132527
 51
89.984110376
  0
LINE
  5
A3
330
5F
100
AcDbEntity
  8
D000125
  6
Continuous
 62
     7
100
AcDbLine
 10
80.0199739015
 20
168.3823962406
 30
0.0
 11
78.2191393055
 21
168.3828956562
 31
0.0
  0
ARC
  5
A4
330
5F
100
AcDbEntity
  8
D000125
  6
Continuous
 62
     7
100
AcDbCircle
 10
75.1192848052
 20
165.7773383583
 30
0.0
 40
9.999999999981982
100
AcDbArc
 50
313.5256459931
 51
226.4743483278
  0
ARC
  5
A5
330
5F
100
AcDbEntity
  8
D000125
  6
Continuous
 62
     7
100
AcDbCircle
 10
82.4192842127
 20
158.0916367865
 30
0.0
 40
0.5999999999999999
100
AcDbArc
 50
133.5256459931
 51
180.0
  0
ARC
  5
A6
330
5F
100
AcDbEntity
  8
D000125
  6
Continuous
 62
     7
100
AcDbCircle
 10
75.1192848052
 20
165.7773383583
 30
0.0
 40
8.799999999981981
100
AcDbArc
 50
337.3838754785
 51
17.9567267536
  0
LINE
  5
A7
330
5F
100
AcDbEntity
  8
D000125
  6
Continuous
 62
     7
100
AcDbLine
 10
82.4002444886
 20
168.6053868486
 30
0.0
 11
81.0081987191
 21
166.1942915855
 31
0.0
  0
ARC
  5
A8
330
5F
100
AcDbEntity
  8
D000125
  6
Continuous
 62
     7
100
AcDbCircle
 10
82.919859799
 20
168.3053869666
 30
0.0
 40
0.6000000000000002
100
AcDbArc
 50
17.9567267536
 51
150.0000130045
  0
ARC
  5
A9
330
5F
100
AcDbEntity
  8
D000125
  6
Continuous
 62
     7
100
AcDbCircle
 10
81.5940374423
 20
170.8089959667
 30
0.0
 40
0.6000000000000015
100
AcDbArc
 50
330.0000130045
 51
37.8514817876
  0
ARC
  5
AA
330
5F
100
AcDbEntity
  8
D000125
  6
Continuous
 62
     7
100
AcDbCircle
 10
82.6887214501
 20
162.6239863514
 30
0.0
 40
0.5999999999999983
100
AcDbArc
 50
225.0000130045
 51
337.3838754785
  0
LINE
  5
AC
330
5F
100
AcDbEntity
  8
D000121
  6
Continuous
 62
     7
100
AcDbLine
 10
80.5192848052
 20
164.6704236872
 30
0.0
 11
80.5192848052
 21
156.3100590327
 31
0.0
  0
LINE
  5
AD
330
5F
100
AcDbEntity
  8
D000121
  6
Continuous
 62
     7
100
AcDbLine
 10
80.5192848052
 20
156.3100590327
 30
0.0
 11
80.5192848052
 21
155.6704236872
 31
0.0
  0
LINE
  5
AE
330
5F
100
AcDbEntity
  8
D000121
  6
Continuous
 62
     7
100
AcDbLine
 10
73.5692771888
 20
156.6704236872
 30
0.0
 11
76.6692924216
 21
156.6704236872
 31
0.0
  0
LINE
  5
AF
330
5F
100
AcDbEntity
  8
D000121
  6
Continuous
 62
     7
100
AcDbLine
 10
76.6692848052
 20
158.6704236872
 30
0.0
 11
73.5692848052
 21
158.6704236872
 31
0.0
  0
LINE
  5
B0
330
5F
100
AcDbEntity
  8
D000121
  6
Continuous
 62
     7
100
AcDbLine
 10
69.7192848052
 20
155.6704236872
 30
0.0
 11
69.7192848052
 21
156.3100590327
 31
0.0
  0
LINE
  5
B1
330
5F
100
AcDbEntity
  8
D000121
  6
Continuous
 62
     7
100
AcDbLine
 10
69.7192848052
 20
164.6704236872
 30
0.0
 11
69.7192848052
 21
156.3100590327
 31
0.0
  0
LINE
  5
B2
330
5F
100
AcDbEntity
  8
D000121
  6
Continuous
 62
     7
100
AcDbLine
 10
69.5692848052
 20
155.6704236872
 30
0.0
 11
69.7192848052
 21
155.6704236872
 31
0.0
  0
LINE
  5
B3
330
5F
100
AcDbEntity
  8
D000121
  6
Continuous
 62
     7
100
AcDbLine
 10
80.5192848052
 20
155.6704236872
 30
0.0
 11
80.6692848052
 21
155.6704236872
 31
0.0
  0
LINE
  5
B4
330
5F
100
AcDbEntity
  8
D000121
  6
Continuous
 62
     7
100
AcDbLine
 10
80.5192848052
 20
155.6704236872
 30
0.0
 11
76.6867474865
 21
155.6704236872
 31
0.0
  0
LINE
  5
B5
330
5F
100
AcDbEntity
  8
D000121
  6
Continuous
 62
     7
100
AcDbLine
 10
76.6867474865
 20
155.6704236872
 30
0.0
 11
73.5518221239
 21
155.6704236872
 31
0.0
  0
LINE
  5
B6
330
5F
100
AcDbEntity
  8
D000121
  6
Continuous
 62
     7
100
AcDbLine
 10
73.5518221239
 20
155.6704236872
 30
0.0
 11
69.7192848052
 21
155.6704236872
 31
0.0
  0
LINE
  5
B7
330
5F
100
AcDbEntity
  8
D000121
  6
Continuous
 62
     7
100
AcDbLine
 10
73.5692848052
 20
164.6704236872
 30
0.0
 11
73.8423036447
 21
164.6704236872
 31
0.0
  0
LINE
  5
B8
330
5F
100
AcDbEntity
  8
D000121
  6
Continuous
 62
     7
100
AcDbLine
 10
73.5692848052
 20
164.6704236872
 30
0.0
 11
69.7192848052
 21
164.6704236872
 31
0.0
  0
LINE
  5
B9
330
5F
100
AcDbEntity
  8
D000121
  6
Continuous
 62
     7
100
AcDbLine
 10
73.9374828567
 20
161.5344936852
 30
0.0
 11
73.5692848052
 21
162.0603349986
 31
0.0
  0
LINE
  5
BA
330
5F
100
AcDbEntity
  8
D000121
  6
Continuous
 62
     7
100
AcDbLine
 10
73.9374828567
 20
164.5344936852
 30
0.0
 11
73.8423036447
 21
164.6704236872
 31
0.0
  0
LINE
  5
BB
330
5F
100
AcDbEntity
  8
D000121
  6
Continuous
 62
     7
100
AcDbLine
 10
73.5692848052
 20
160.7056964298
 30
0.0
 11
73.9374828567
 21
161.2315377432
 31
0.0
  0
ELLIPSE
  5
BC
330
5F
100
AcDbEntity
  8
D000121
  6
Continuous
 62
     7
100
AcDbEllipse
 10
73.8314168396
 20
161.3830157142
 30
0.0
 11
0.0
 21
-0.2142222010113174
 31
0.0
210
0.0
220
0.0
230
1.0
 40
0.7002075382
 41
0.7853981633973683
 42
2.356194490192425
  0
ELLIPSE
  5
BD
330
5F
100
AcDbEntity
  8
D000121
  6
Continuous
 62
     7
100
AcDbEllipse
 10
73.8314168396
 20
164.3830157142
 30
0.0
 11
2.168404344971009E-15
 21
-0.214222201011317
 31
0.0
210
0.0
220
0.0
230
1.0
 40
0.7002075382
 41
1.570796326794889
 42
2.356194490192232
  0
LINE
  5
BE
330
5F
100
AcDbEntity
  8
D000121
  6
Continuous
 62
     7
100
AcDbLine
 10
73.5692848052
 20
162.0603349986
 30
0.0
 11
73.5692848052
 21
164.6704236872
 31
0.0
  0
LINE
  5
BF
330
5F
100
AcDbEntity
  8
D000121
  6
Continuous
 62
     7
100
AcDbLine
 10
76.3962659657
 20
164.6704236872
 30
0.0
 11
76.6692848052
 21
164.6704236872
 31
0.0
  0
LINE
  5
C0
330
5F
100
AcDbEntity
  8
D000121
  6
Continuous
 62
     7
100
AcDbLine
 10
80.5192848052
 20
164.6704236872
 30
0.0
 11
76.6692848052
 21
164.6704236872
 31
0.0
  0
LINE
  5
C1
330
5F
100
AcDbEntity
  8
D000121
  6
Continuous
 62
     7
100
AcDbLine
 10
76.6692848052
 20
162.0603349986
 30
0.0
 11
76.3010867537
 21
161.5344936852
 31
0.0
  0
LINE
  5
C2
330
5F
100
AcDbEntity
  8
D000121
  6
Continuous
 62
     7
100
AcDbLine
 10
76.3962659657
 20
164.6704236872
 30
0.0
 11
76.3010867537
 21
164.5344936852
 31
0.0
  0
LINE
  5
C3
330
5F
100
AcDbEntity
  8
D000121
  6
Continuous
 62
     7
100
AcDbLine
 10
76.3010867537
 20
161.2315377432
 30
0.0
 11
76.6692848052
 21
160.7056964298
 31
0.0
  0
ELLIPSE
  5
C4
330
5F
100
AcDbEntity
  8
D000121
  6
Continuous
 62
     7
100
AcDbEllipse
 10
76.4071527708
 20
161.3830157142
 30
0.0
 11
-2.168404344971009E-16
 21
0.2142222010113174
 31
0.0
210
0.0
220
0.0
230
1.0
 40
0.7002075382
 41
0.7853981633973683
 42
2.356194490192424
  0
ELLIPSE
  5
C5
330
5F
100
AcDbEntity
  8
D000121
  6
Continuous
 62
     7
100
AcDbEllipse
 10
76.4071527708
 20
164.3830157142
 30
0.0
 11
2.168404344971009E-16
 21
0.2142222010113179
 31
0.0
210
0.0
220
0.0
230
1.0
 40
0.7002075382
 41
0.7853981633975593
 42
1.570796326794897
  0
LINE
  5
C6
330
5F
100
AcDbEntity
  8
D000121
  6
Continuous
 62
     7
100
AcDbLine
 10
76.6692848052
 20
164.6704236872
 30
0.0
 11
76.6692848052
 21
162.0603349986
 31
0.0
  0
LINE
  5
C7
330
5F
100
AcDbEntity
  8
D000121
  6
Continuous
 62
     7
100
AcDbLine
 10
76.67558261
 20
156.3100590327
 30
0.0
 11
76.6692924216
 21
156.6704236872
 31
0.0
  0
LINE
  5
C8
330
5F
100
AcDbEntity
  8
D000121
  6
Continuous
 62
     7
100
AcDbLine
 10
76.6692848052
 20
160.7056964298
 30
0.0
 11
76.6692848052
 21
158.6704236872
 31
0.0
  0
LINE
  5
C9
330
5F
100
AcDbEntity
  8
D000121
  6
Continuous
 62
     7
100
AcDbLine
 10
73.5692848052
 20
158.6704236872
 30
0.0
 11
73.5692848052
 21
160.7056964298
 31
0.0
  0
LINE
  5
CA
330
5F
100
AcDbEntity
  8
D000121
  6
Continuous
 62
     7
100
AcDbLine
 10
73.5692771888
 20
156.6704236872
 30
0.0
 11
73.5629870004
 21
156.3100590327
 31
0.0
  0
LINE
  5
CB
330
5F
100
AcDbEntity
  8
D000121
  6
Continuous
 62
     7
100
AcDbLine
 10
73.5629870004
 20
156.3100590327
 30
0.0
 11
73.5518221239
 21
155.6704236872
 31
0.0
  0
LINE
  5
CC
330
5F
100
AcDbEntity
  8
D000121
  6
Continuous
 62
     7
100
AcDbLine
 10
76.6867474865
 20
155.6704236872
 30
0.0
 11
76.67558261
 21
156.3100590327
 31
0.0
  0
LINE
  5
CD
330
5F
100
AcDbEntity
  8
D000121
  6
Continuous
 62
     7
100
AcDbLine
 10
73.9814168396
 20
161.6704236872
 30
0.0
 11
76.2571527708
 21
161.6704236872
 31
0.0
  0
LINE
  5
CE
330
5F
100
AcDbEntity
  8
D000121
  6
Continuous
 62
     7
100
AcDbLine
 10
69.5692848052
 20
161.6704236872
 30
0.0
 11
69.7192848052
 21
161.6704236872
 31
0.0
  0
LINE
  5
CF
330
5F
100
AcDbEntity
  8
D000121
  6
Continuous
 62
     7
100
AcDbLine
 10
80.5192848052
 20
161.6704236872
 30
0.0
 11
80.6692848052
 21
161.6704236872
 31
0.0
  0
LINE
  5
D0
330
5F
100
AcDbEntity
  8
D000121
  6
Continuous
 62
     7
100
AcDbLine
 10
80.6692848052
 20
161.6704236872
 30
0.0
 11
80.6692848052
 21
160.2345827114
 31
0.0
  0
LINE
  5
D1
330
5F
100
AcDbEntity
  8
D000121
  6
Continuous
 62
     7
100
AcDbLine
 10
80.6692848052
 20
156.0306318766
 30
0.0
 11
80.6692848052
 21
155.6704236872
 31
0.0
  0
LINE
  5
D2
330
5F
100
AcDbEntity
  8
D000121
  6
Continuous
 62
     7
100
AcDbLine
 10
69.5692848052
 20
161.6704236872
 30
0.0
 11
69.5692848052
 21
160.2345827114
 31
0.0
  0
LINE
  5
D3
330
5F
100
AcDbEntity
  8
D000121
  6
Continuous
 62
     7
100
AcDbLine
 10
69.5692848052
 20
156.030635751
 30
0.0
 11
69.5692848052
 21
155.6704236872
 31
0.0
  0
LINE
  5
D4
330
5F
100
AcDbEntity
  8
D000121
  6
Continuous
 62
     7
100
AcDbLine
 10
73.9814168396
 20
161.3830157142
 30
0.0
 11
73.9814168396
 21
164.3830157142
 31
0.0
  0
LINE
  5
D5
330
5F
100
AcDbEntity
  8
D000121
  6
Continuous
 62
     7
100
AcDbLine
 10
76.2571527708
 20
164.3830157142
 30
0.0
 11
76.2571527708
 21
161.3830157142
 31
0.0
  0
LINE
  5
D7
330
5F
100
AcDbEntity
  8
D000122
  6
Continuous
 62
     7
100
AcDbLine
 10
73.1192848052
 20
168.1704236872
 30
0.0
 11
73.1192848052
 21
168.6704236872
 31
0.0
  0
LINE
  5
D8
330
5F
100
AcDbEntity
  8
D000122
  6
Continuous
 62
     7
100
AcDbLine
 10
77.1192848052
 20
168.6704236872
 30
0.0
 11
77.1192848052
 21
168.1704236872
 31
0.0
  0
ELLIPSE
  5
D9
330
5F
100
AcDbEntity
  8
D000122
  6
Continuous
 62
     7
100
AcDbEllipse
 10
74.204596999
 20
167.6704236872
 30
0.0
 11
2.168404344971009E-16
 21
-0.5000000000000004
 31
0.0
210
0.0
220
0.0
230
1.0
 40
0.3057306815
 41
1.919862177193763
 42
3.141592653589793
  0
LINE
  5
DA
330
5F
100
AcDbEntity
  8
D000122
  6
Continuous
 62
     7
100
AcDbLine
 10
71.5693885743
 20
168.1704236872
 30
0.0
 11
74.204596999
 21
168.1704236872
 31
0.0
  0
ARC
  5
DB
330
5F
100
AcDbEntity
  8
D000122
  6
Continuous
 62
     7
100
AcDbCircle
 10
71.5693885743
 20
167.6704236872
 30
0.0
 40
0.5000000000000022
100
AcDbArc
 50
90.0
 51
160.0
  0
LINE
  5
DC
330
5F
100
AcDbEntity
  8
D000122
  6
Continuous
 62
     7
100
AcDbLine
 10
74.3072485853
 20
168.2098377875
 30
0.0
 11
74.3482434316
 21
167.8414337589
 31
0.0
  0
ELLIPSE
  5
DD
330
5F
100
AcDbEntity
  8
D000122
  6
Continuous
 62
     7
100
AcDbEllipse
 10
74.1061435795
 20
167.9704236872
 30
0.0
 11
-1.517883041479706E-15
 21
-0.7000000000000079
 31
0.0
210
0.0
220
0.0
230
1.0
 40
0.3057306815
 41
1.919862177193794
 42
3.1415926535898
  0
LINE
  5
DE
330
5F
100
AcDbEntity
  8
D000122
  6
Continuous
 62
     7
100
AcDbLine
 10
74.1061435795
 20
168.6704236872
 30
0.0
 11
73.1192848052
 21
168.6704236872
 31
0.0
  0
LINE
  5
DF
330
5F
100
AcDbEntity
  8
D000122
  6
Continuous
 62
     7
100
AcDbLine
 10
74.1061435795
 20
168.6704236872
 30
0.0
 11
76.1324260309
 21
168.6704236872
 31
0.0
  0
LINE
  5
E0
330
5F
100
AcDbEntity
  8
D000122
  6
Continuous
 62
     7
100
AcDbLine
 10
77.1192848052
 20
168.6704236872
 30
0.0
 11
76.1324260309
 21
168.6704236872
 31
0.0
  0
LINE
  5
E1
330
5F
100
AcDbEntity
  8
D000122
  6
Continuous
 62
     7
100
AcDbLine
 10
76.0339726114
 20
168.1704236872
 30
0.0
 11
78.6691810361
 21
168.1704236872
 31
0.0
  0
LINE
  5
E2
330
5F
100
AcDbEntity
  8
D000122
  6
Continuous
 62
     7
100
AcDbLine
 10
80.5692848052
 20
161.6704236872
 30
0.0
 11
80.5692848052
 21
162.2381315124
 31
0.0
  0
ARC
  5
E3
330
5F
100
AcDbEntity
  8
D000122
  6
Continuous
 62
     7
100
AcDbCircle
 10
79.9192848052
 20
161.1704236872
 30
0.0
 40
1.25
100
AcDbArc
 50
58.6677485024
 51
61.3145979859
  0
LINE
  5
E4
330
5F
100
AcDbEntity
  8
D000122
  6
Continuous
 62
     7
100
AcDbLine
 10
76.2571527708
 20
164.049207558
 30
0.0
 11
73.9814168396
 21
164.049207558
 31
0.0
  0
ARC
  5
E5
330
5F
100
AcDbEntity
  8
D000122
  6
Continuous
 62
     7
100
AcDbCircle
 10
70.3192848052
 20
161.1704236872
 30
0.0
 40
1.25
100
AcDbArc
 50
118.6854020141
 51
121.3322514976
  0
LINE
  5
E6
330
5F
100
AcDbEntity
  8
D000122
  6
Continuous
 62
     7
100
AcDbLine
 10
69.6692848052
 20
162.2381315124
 30
0.0
 11
69.6692848052
 21
161.6704236872
 31
0.0
  0
ELLIPSE
  5
E7
330
5F
100
AcDbEntity
  8
D000122
  6
Continuous
 62
     7
100
AcDbEllipse
 10
76.0339726114
 20
167.6704236872
 30
0.0
 11
1.084202172485504E-16
 21
0.5000000000000022
 31
0.0
210
0.0
220
0.0
230
1.0
 40
0.3057306815
 41
0.0
 42
1.221730476396032
  0
ARC
  5
E8
330
5F
100
AcDbEntity
  8
D000122
  6
Continuous
 62
     7
100
AcDbCircle
 10
78.6691810361
 20
167.6704236872
 30
0.0
 40
0.5000000000000022
100
AcDbArc
 50
20.0
 51
90.0
  0
LINE
  5
E9
330
5F
100
AcDbEntity
  8
D000122
  6
Continuous
 62
     7
100
AcDbLine
 10
75.9313210251
 20
168.2098377875
 30
0.0
 11
75.8903261788
 21
167.8414337589
 31
0.0
  0
LINE
  5
EA
330
5F
100
AcDbEntity
  8
D000122
  6
Continuous
 62
     7
100
AcDbLine
 10
71.0995422639
 20
167.8414337589
 30
0.0
 11
69.9453889853
 21
164.6704236872
 31
0.0
  0
LINE
  5
EB
330
5F
100
AcDbEntity
  8
D000122
  6
Continuous
 62
     7
100
AcDbLine
 10
80.2931806251
 20
164.6704236872
 30
0.0
 11
79.1390273465
 21
167.8414337589
 31
0.0
  0
ARC
  5
EC
330
5F
100
AcDbEntity
  8
D000122
  6
Continuous
 62
     7
100
AcDbCircle
 10
70.3192848052
 20
161.1704236872
 30
0.0
 40
1.25
100
AcDbArc
 50
121.3322514976
 51
124.5429734677
  0
ARC
  5
ED
330
5F
100
AcDbEntity
  8
D000122
  6
Continuous
 62
     7
100
AcDbCircle
 10
70.3192848052
 20
161.1704236872
 30
0.0
 40
1.25
100
AcDbArc
 50
153.3976310931
 51
206.6017240241
  0
ARC
  5
EE
330
5F
100
AcDbEntity
  8
D000122
  6
Continuous
 62
     7
100
AcDbCircle
 10
79.9192848052
 20
161.1704236872
 30
0.0
 40
1.25
100
AcDbArc
 50
333.3982759759
 51
26.6023689069
  0
ARC
  5
EF
330
5F
100
AcDbEntity
  8
D000122
  6
Continuous
 62
     7
100
AcDbCircle
 10
79.9192848052
 20
161.1704236872
 30
0.0
 40
1.25
100
AcDbArc
 50
55.4570265323
 51
58.6677485024
  0
ELLIPSE
  5
F0
330
5F
100
AcDbEntity
  8
D000122
  6
Continuous
 62
     7
100
AcDbEllipse
 10
76.1324260309
 20
167.9704236872
 30
0.0
 11
2.168404344971009E-16
 21
0.6999999999999993
 31
0.0
210
0.0
220
0.0
230
1.0
 40
0.3057306815
 41
0.000000000000001
 42
1.221730476396039
  0
LINE
  5
F3
330
5F
100
AcDbEntity
  8
DV1_Standard
  6
CENTER2
 62
     7
100
AcDbLine
 10
75.1192848052
 20
152.1704236872
 30
0.0
 11
75.1192848052
 21
162.1704236872
 31
0.0
  0
ENDBLK
  5
F5
330
5F
100
AcDbEntity
  8
0
100
AcDbBlockEnd
  0
BLOCK
  5
F8
330
F7
100
AcDbEntity
  8
0
100
AcDbBlockBegin
  2
_Oblique
 70
     0
 10
0.0
 20
0.0
 30
0.0
  3
_Oblique
  1

  0
LINE
  5
FA
330
F7
100
AcDbEntity
  8
0
  6
ByBlock
 62
     0
370
    -2
100
AcDbLine
 10
-0.5
 20
-0.5
 30
0.0
 11
0.5
 21
0.5
 31
0.0
  0
ENDBLK
  5
F9
330
F7
100
AcDbEntity
  8
0
100
AcDbBlockEnd
  0
BLOCK
  5
FC
330
FB
100
AcDbEntity
  8
0
100
AcDbBlockBegin
  2
_Dot
 70
     0
 10
0.0
 20
0.0
 30
0.0
  3
_Dot
  1

  0
LWPOLYLINE
  5
FE
330
FB
100
AcDbEntity
  8
0
  6
ByBlock
 62
     0
100
AcDbPolyline
 90
        2
 70
     1
 43
0.5
 10
-0.25
 20
0.0
 42
1.0
 10
0.25
 20
0.0
 42
1.0
  0
LINE
  5
FF
330
FB
100
AcDbEntity
  8
0
  6
ByBlock
 62
     0
370
    -2
100
AcDbLine
 10
-0.5
 20
0.0
 30
0.0
 11
-1.0
 21
0.0
 31
0.0
  0
ENDBLK
  5
FD
330
FB
100
AcDbEntity
  8
0
100
AcDbBlockEnd
  0
BLOCK
  5
104
330
100
100
AcDbEntity
  8
0
100
AcDbBlockBegin
  2
_SE_OPEN
 70
     0
 10
0.0
 20
0.0
 30
0.0
  3
_SE_OPEN
  1

  0
LINE
  5
101
330
100
100
AcDbEntity
  8
0
 62
     0
100
AcDbLine
 10
0.0
 20
0.0
 30
0.0
 11
-1.0
 21
-0.1665
 31
0.0
  0
LINE
  5
102
330
100
100
AcDbEntity
  8
0
 62
     0
100
AcDbLine
 10
-1.0
 20
0.1665
 30
0.0
 11
0.0
 21
0.0
 31
0.0
  0
LINE
  5
103
330
100
100
AcDbEntity
  8
0
 62
     0
100
AcDbLine
 10
0.0
 20
0.0
 30
0.0
 11
-1.0
 21
0.0
 31
0.0
  0
ENDBLK
  5
105
330
100
100
AcDbEntity
  8
0
100
AcDbBlockEnd
  0
BLOCK
  5
110
330
109
100
AcDbEntity
  8
0
100
AcDbBlockBegin
  2
DMBLK406
 70
     0
 10
0.0
 20
0.0
 30
0.0
  3
DMBLK406
  1

  0
LWPOLYLINE
  5
10A
330
109
100
AcDbEntity
  8
Standard
  6
Continuous
 62
     7
100
AcDbPolyline
 90
        3
 70
     0
 43
0.0
 10
72.1692845521
 20
147.8336260836
 10
68.4192846359
 20
147.2086260976
 10
72.1692845521
 20
146.5836261115
  0
LWPOLYLINE
  5
10B
330
109
100
AcDbEntity
  8
Standard
  6
Continuous
 62
     7
100
AcDbPolyline
 90
        3
 70
     0
 43
0.0
 10
78.0692843085
 20
147.8336260836
 10
81.8192842246
 20
147.2086260976
 10
78.0692843085
 20
146.5836261115
  0
LINE
  5
10C
330
109
100
AcDbEntity
  8
Standard
  6
Continuous
 62
     7
100
AcDbLine
 10
68.4192846359
 20
155.5204273383
 30
0.0
 11
68.4192846359
 21
145.9586261255
 31
0.0
  0
LINE
  5
10D
330
109
100
AcDbEntity
  8
Standard
  6
Continuous
 62
     7
100
AcDbLine
 10
81.8192842127
 20
155.5204233844
 30
0.0
 11
81.8192842127
 21
145.9586261255
 31
0.0
  0
LINE
  5
10E
330
109
100
AcDbEntity
  8
Standard
  6
Continuous
 62
     7
100
AcDbLine
 10
68.4192846359
 20
147.2086260976
 30
0.0
 11
81.8192842246
 21
147.2086260976
 31
0.0
  0
TEXT
  5
10F
330
109
100
AcDbEntity
  8
Standard
  6
Continuous
 62
     7
100
AcDbText
 10
73.1627626911
 20
147.8336260976
 30
0.0
 40
2.5
  1
13
  7
SEACAD_Arial
 11
73.1627626911
 21
150.3336260976
 31
0.0
100
AcDbText
 73
     3
  0
ENDBLK
  5
111
330
109
100
AcDbEntity
  8
0
100
AcDbBlockEnd
  0
BLOCK
  5
118
330
113
100
AcDbEntity
  8
0
100
AcDbBlockBegin
  2
DMBLK407
 70
     0
 10
0.0
 20
0.0
 30
0.0
  3
DMBLK407
  1

  0
LINE
  5
114
330
113
100
AcDbEntity
  8
Standard
  6
Continuous
 62
     7
100
AcDbLine
 10
75.1192848052
 20
165.7773383583
 30
0.0
 11
94.2973558802
 21
180.8298740219
 31
0.0
  0
LWPOLYLINE
  5
115
330
113
100
AcDbEntity
  8
Standard
  6
Continuous
 62
     7
100
AcDbPolyline
 90
        3
 70
     0
 43
0.0
 10
86.3214158628
 20
173.7751744685
 10
82.9856451765
 20
171.9515083032
 10
85.5496446369
 20
174.758469493
  0
TEXT
  5
116
330
113
100
AcDbEntity
  8
Standard
  6
Continuous
 62
     7
100
AcDbText
 10
86.9984792439
 20
175.895634688
 30
0.0
 40
2.5
  1
R
 50
38.1277541069
  7
SEACAD_Arial
 11
85.4549367577
 21
177.8622247808
 31
0.0
100
AcDbText
 73
     3
  0
TEXT
  5
117
330
113
100
AcDbEntity
  8
Standard
  6
Continuous
 62
     7
100
AcDbText
 10
90.1450233924
 20
178.3653026659
 30
0.0
 40
2.5
  1
10
 50
38.1277541069
  7
SEACAD_Arial
 11
88.6014809062
 21
180.3318927587
 31
0.0
100
AcDbText
 73
     3
  0
ENDBLK
  5
119
330
113
100
AcDbEntity
  8
0
100
AcDbBlockEnd
  0
BLOCK
  5
124
330
11B
100
AcDbEntity
  8
0
100
AcDbBlockBegin
  2
DMBLK408
 70
     0
 10
0.0
 20
0.0
 30
0.0
  3
DMBLK408
  1

  0
LWPOLYLINE
  5
11C
330
11B
100
AcDbEntity
  8
Standard
  6
Continuous
 62
     7
100
AcDbPolyline
 90
        3
 70
     0
 43
0.0
 10
59.2082033791
 20
159.4204271764
 10
58.5832033931
 20
155.6704272602
 10
57.958203407
 20
159.4204271764
  0
LWPOLYLINE
  5
11D
330
11B
100
AcDbEntity
  8
Standard
  6
Continuous
 62
     7
100
AcDbPolyline
 90
        3
 70
     0
 43
0.0
 10
59.2082033791
 20
172.0273390033
 10
58.5832033931
 20
175.7773389194
 10
57.958203407
 20
172.0273390033
  0
LINE
  5
11E
330
11B
100
AcDbEntity
  8
Standard
  6
Continuous
 62
     7
100
AcDbLine
 10
68.269284714
 20
155.6704272602
 30
0.0
 11
57.333203421
 21
155.6704272602
 31
0.0
  0
LINE
  5
11F
330
11B
100
AcDbEntity
  8
Standard
  6
Continuous
 62
     7
100
AcDbLine
 10
74.3692852943
 20
175.7773383583
 30
0.0
 11
57.333203421
 21
175.7773383583
 31
0.0
  0
LINE
  5
120
330
11B
100
AcDbEntity
  8
Standard
  6
Continuous
 62
     7
100
AcDbLine
 10
58.5832033931
 20
155.6704272602
 30
0.0
 11
58.5832033931
 21
175.7773389194
 31
0.0
  0
TEXT
  5
121
330
11B
100
AcDbEntity
  8
Standard
  6
Continuous
 62
     7
100
AcDbText
 10
57.9582033931
 20
161.7537743942
 30
0.0
 40
2.5
  1
20
 50
90.0
  7
SEACAD_Arial
 11
55.4582033931
 21
161.7537743942
 31
0.0
100
AcDbText
 73
     3
  0
TEXT
  5
122
330
11B
100
AcDbEntity
  8
Standard
  6
Continuous
 62
     7
100
AcDbText
 10
54.9582033931
 20
166.9168178724
 30
0.0
 40
1.75
  1
+4
 50
90.0
  7
SEACAD_Arial
 11
53.2082033931
 21
166.9168178724
 31
0.0
100
AcDbText
 73
     3
  0
TEXT
  5
123
330
11B
100
AcDbEntity
  8
Standard
  6
Continuous
 62
     7
100
AcDbText
 10
57.9582033931
 20
168.3244265681
 30
0.0
 40
1.75
  1
0
 50
90.0
  7
SEACAD_Arial
 11
56.2082033931
 21
168.3244265681
 31
0.0
100
AcDbText
 73
     3
  0
ENDBLK
  5
125
330
11B
100
AcDbEntity
  8
0
100
AcDbBlockEnd
  0
BLOCK
  5
1B7
330
126
100
AcDbEntity
  8
0
100
AcDbBlockBegin
  2
SE1
 70
     0
 10
0.0
 20
0.0
 30
0.0
  3
SE1
  1

  0
HATCH
  5
129
330
126
100
AcDbEntity
  8
DV2_Füllung
  6
Continuous
 62
     7
100
AcDbHatch
 10
0.0
 20
0.0
 30
0.0
210
0.0
220
0.0
230
1.0
  2
SOLID
 70
     1
 71
     0
 91
        1
 92
        1
 93
       56
 72
     2
 10
132.4529539911881
 20
165.7773383582932
 40
9.999999999981982
 50
313.525645993129
 51
586.474348327763
 73
     1
 72
     2
 10
125.1529538218992
 20
158.0916375100947
 40
0.6000000000000011
 50
313.5256516722385
 51
360.0000000000001
 73
     0
 72
     1
 10
125.7529538218992
 20
158.0916375100947
 11
125.7529538218992
 21
156.2704273448513
 72
     2
 10
126.3529539065437
 20
156.2704273448512
 40
0.6000000846444787
 50
179.9999999999946
 51
360.0
 73
     1
 72
     1
 10
126.9529539911881
 20
156.2704273448512
 11
126.9529539911881
 21
158.907840560078
 72
     1
 10
126.9529539911881
 20
158.907840560078
 11
126.9529548741295
 21
160.0687501407716
 72
     2
 10
126.6529548741295
 20
160.0687501407717
 40
0.3000000000000024
 50
0.0
 51
45.00036981900796
 73
     1
 72
     1
 10
126.8650855392622
 20
160.280883544342
 11
126.2583850545309
 21
160.8875843044806
 72
     2
 10
126.5412278312027
 20
161.170426952758
 40
0.3999999999999992
 50
135.0000130044967
 51
225.0000130044924
 73
     0
 72
     1
 10
126.2583851829253
 20
161.4532697294297
 11
126.8650870470839
 21
162.0599713181807
 72
     2
 10
126.6529550608766
 20
162.2721034006853
 40
0.2999999999999993
 50
314.9999869952956
 51
405.0001403779975
 73
     1
 72
     1
 10
126.8650865754961
 20
162.4842359547765
 11
126.44082260308
 21
162.9085001197842
 72
     2
 10
126.228690520576
 20
162.6963681335762
 40
0.2999999999999999
 50
44.99998699547022
 51
135.1325628241534
 73
     1
 72
     1
 10
126.0160682535056
 20
162.9080087996729
 11
125.3077813187427
 21
162.1997221864314
 72
     2
 10
124.8835173463265
 20
162.6239863514391
 40
0.6000000000000003
 50
45.00001300449718
 51
157.3838754785015
 73
     0
 72
     2
 10
132.4529539911881
 20
165.7773383582932
 40
8.79999999998198
 50
157.3838754785009
 51
197.9567267535844
 73
     0
 72
     2
 10
124.6523789973906
 20
168.3053869665768
 40
0.6000000000000008
 50
197.9567267535839
 51
330.0000130044964
 73
     0
 72
     1
 10
125.1719943077526
 20
168.6053868486391
 11
126.5640400772788
 21
166.1942915855402
 72
     2
 10
127.0836553876405
 20
166.4942914676022
 40
0.5999999999995178
 50
209.9999869955038
 51
389.9999869955052
 73
     1
 72
     1
 10
127.6032706980021
 20
166.7942913496642
 11
127.1193907982993
 21
167.6323963600183
 72
     2
 10
127.5524035580173
 20
167.8823962598611
 40
0.4999999999999999
 50
150.0000132526877
 51
269.9841103760303
 73
     0
 72
     1
 10
127.5522648948915
 20
168.3823962406337
 11
129.3530994909223
 21
168.3828956562413
 72
     2
 10
129.3529330962235
 20
168.9828956213711
 40
0.5999999882024648
 50
270.0158895238065
 51
451.1026628421447
 73
     1
 72
     1
 10
129.3413867509443
 20
169.582784500876
 11
126.2825012367815
 21
169.5821207001016
 72
     2
 10
126.282392733087
 20
170.0821206883285
 40
0.4999999999999993
 50
89.98756639238727
 51
150.0000130044987
 73
     0
 72
     1
 10
125.8493799744519
 20
169.8321207866099
 11
125.4585860437565
 21
170.5089960846602
 72
     2
 10
125.9782013541185
 20
170.8089959667225
 40
0.5999999999999988
 50
150.0000130044971
 51
217.8514817876337
 73
     0
 72
     2
 10
132.4529539911881
 20
165.7773383582932
 40
8.799999999981981
 50
217.8514817876336
 51
232.6982097080069
 73
     0
 72
     2
 10
132.4529539911881
 20
164.0473383582759
 40
10.22999999999924
 50
238.5803907697682
 51
301.4196092302317
 73
     0
 72
     2
 10
132.4529539911881
 20
165.7773383582932
 40
8.79999999998198
 50
307.301790291993
 51
322.1485182123665
 73
     0
 72
     2
 10
138.9277066282577
 20
170.8089959667225
 40
0.6000000000000015
 50
322.1485182123664
 51
389.999986995503
 73
     0
 72
     1
 10
139.4473219386198
 20
170.5089960846602
 11
139.0565280079243
 21
169.8321207866099
 72
     2
 10
138.6235152492893
 20
170.0821206883285
 40
0.5000000000000011
 50
29.99998699550212
 51
90.01243360761273
 73
     0
 72
     1
 10
138.6234067455947
 20
169.5821207001015
 11
135.5645212314319
 21
169.582784500876
 72
     2
 10
135.5529748861527
 20
168.9828956213711
 40
0.5999999882024651
 50
88.89733715785258
 51
269.9841104761961
 73
     1
 72
     1
 10
135.5528084914539
 20
168.3828956562413
 11
137.3536430874848
 21
168.3823962406337
 72
     2
 10
137.353504424359
 20
167.8823962598611
 40
0.5
 50
270.015889623968
 51
389.9999867473115
 73
     0
 72
     1
 10
137.7865171840769
 20
167.6323963600182
 11
137.3026372843742
 21
166.7942913496642
 72
     2
 10
137.8222525947357
 20
166.4942914676022
 40
0.5999999999995178
 50
150.0000130044955
 51
330.0000130044955
 73
     1
 72
     1
 10
138.3418679050974
 20
166.1942915855402
 11
139.7339136746236
 21
168.6053868486391
 72
     2
 10
140.2535289849857
 20
168.3053869665768
 40
0.6000000000000002
 50
209.9999869955029
 51
342.0432732464157
 73
     0
 72
     2
 10
132.4529539911881
 20
165.7773383582932
 40
8.799999999981981
 50
342.0432732464157
 51
382.616124521499
 73
     0
 72
     2
 10
140.0223906360497
 20
162.6239863514391
 40
0.5999999999999983
 50
22.61612452149953
 51
134.9999869955028
 73
     0
 72
     1
 10
139.5981266636336
 20
162.1997221864314
 11
138.8898397288706
 21
162.9080087996729
 72
     2
 10
138.6772174618002
 20
162.6963681335762
 40
0.3000000000000002
 50
44.86743717585039
 51
135.0000130045317
 73
     1
 72
     1
 10
138.4650853792963
 20
162.9085001197842
 11
138.0408214068801
 21
162.4842359547765
 72
     2
 10
138.2529529214996
 20
162.2721034006853
 40
0.3000000000000002
 50
134.9998596220005
 51
225.0000130047044
 73
     1
 72
     1
 10
138.0408209352923
 20
162.0599713181807
 11
138.6475227994509
 21
161.4532697294298
 72
     2
 10
138.3646801511735
 20
161.170426952758
 40
0.4000000000000004
 50
314.9999869955047
 51
404.9999869955018
 73
     0
 72
     1
 10
138.6475229278453
 20
160.8875843044806
 11
138.040822443114
 21
160.280883544342
 72
     2
 10
138.2529531082467
 20
160.0687501407717
 40
0.2999999999999965
 50
134.9996301809901
 51
179.9997942954266
 73
     1
 72
     1
 10
137.9529531082487
 20
160.0687512178383
 11
137.9529539911881
 21
158.9078405600781
 72
     1
 10
137.9529539911881
 20
158.907840560078
 11
137.9529539911881
 21
156.270423390938
 72
     2
 10
138.5529536949326
 20
156.2704233909423
 40
0.5999997037444493
 50
180.0000000004044
 51
360.0
 73
     1
 72
     1
 10
139.152953398677
 20
156.2704233909423
 11
139.152953398677
 21
158.091636786525
 72
     2
 10
139.752953398677
 20
158.091636786525
 40
0.5999999999999999
 50
180.0
 51
226.4743540068713
 73
     0
 97
        0
 75
     0
 76
     1
 98
        0
  0
HATCH
  5
12A
330
126
100
AcDbEntity
  8
DV2_Füllung
  6
Continuous
 62
     7
100
AcDbHatch
 10
0.0
 20
0.0
 30
0.0
210
0.0
220
0.0
230
1.0
  2
SOLID
 70
     1
 71
     0
 91
        1
 92
        1
 93
       10
 72
     1
 10
134.0029539911881
 20
158.6704236871978
 11
134.0029539911881
 21
160.7056964297659
 72
     1
 10
134.0029539911881
 20
160.7056964297659
 11
133.6347559396542
 21
161.2315377431505
 72
     3
 10
133.7408219568321
 20
161.3830157141662
 11
2.168404344971009E-16
 21
-0.2142222010113174
 40
0.7002075382097079
 50
34.99999999999567
 51
90.00001472479236
 73
     0
 72
     1
 10
133.5908219568322
 20
161.3830157527156
 11
133.5908219568322
 21
161.6704236871978
 72
     1
 10
133.5908219568322
 20
161.6704236871978
 11
131.3150860255441
 21
161.6704236871978
 72
     1
 10
131.3150860255441
 20
161.6704236871978
 11
131.3150860255441
 21
161.3830157141662
 72
     3
 10
131.1650860255441
 20
161.3830157141662
 11
0.0
 21
0.2142222010113174
 40
0.7002075382097097
 50
90.0
 51
145.0000000000043
 73
     0
 72
     1
 10
131.2711520427221
 20
161.2315377431504
 11
130.9029539911881
 21
160.7056964297659
 72
     1
 10
130.9029539911881
 20
160.7056964297659
 11
130.9029539911881
 21
158.6704236871978
 72
     1
 10
130.9029539911881
 20
158.6704236871978
 11
134.0029539911881
 21
158.6704236871978
 97
        0
 75
     0
 76
     1
 98
        0
  0
HATCH
  5
12B
330
126
100
AcDbEntity
  8
DV2_Füllung
  6
Continuous
 62
     7
100
AcDbHatch
 10
0.0
 20
0.0
 30
0.0
210
0.0
220
0.0
230
1.0
  2
SOLID
 70
     1
 71
     0
 91
        1
 92
        1
 93
        4
 72
     1
 10
131.3150860255441
 20
161.6704236871978
 11
133.5908219568321
 21
161.6704236871978
 72
     1
 10
133.5908219568321
 20
161.6704236871978
 11
133.5908219568322
 21
164.0492075580159
 72
     1
 10
133.5908219568322
 20
164.0492075580159
 11
131.3150860255441
 21
164.0492075580159
 72
     1
 10
131.3150860255441
 20
164.0492075580159
 11
131.3150860255441
 21
161.6704236871978
 97
        0
 75
     0
 76
     1
 98
        0
  0
HATCH
  5
12C
330
126
100
AcDbEntity
  8
DV2_Füllung
  6
Continuous
 62
     7
100
AcDbHatch
 10
0.0
 20
0.0
 30
0.0
210
0.0
220
0.0
230
1.0
  2
SOLID
 70
     1
 71
     0
 91
        1
 92
        1
 93
       24
 72
     1
 10
131.1759728306418
 20
164.6704236871978
 11
131.2711520427221
 21
164.534493685182
 72
     3
 10
131.1650860255441
 20
164.3830157141662
 11
-2.168404344971009E-15
 21
0.214222201011317
 40
0.7002075382097086
 50
35.00000000000605
 51
90.00000000000058
 73
     0
 72
     1
 10
131.3150860255441
 20
164.3830157141662
 11
131.3150860255441
 21
164.0492075580159
 72
     1
 10
131.3150860255441
 20
164.0492075580159
 11
133.5908219568322
 21
164.0492075580159
 72
     1
 10
133.5908219568322
 20
164.0492075580159
 11
133.5908219568322
 21
164.3830157219992
 72
     3
 10
133.7408219568321
 20
164.3830157141662
 11
-2.168404344971009E-16
 21
-0.2142222010113179
 40
0.7002075382097077
 50
89.99999999999991
 51
144.9999999999941
 73
     0
 72
     1
 10
133.6347559396542
 20
164.534493685182
 11
133.7299351517345
 21
164.6704236871978
 72
     1
 10
133.7299351517345
 20
164.6704236871978
 11
134.0029539911881
 21
164.6704236871978
 72
     1
 10
134.0029539911881
 20
164.6704236871978
 11
137.6268498111199
 21
164.6704236871978
 72
     1
 10
137.6268498111199
 20
164.6704236871978
 11
136.4726965324762
 21
167.8414337588606
 72
     2
 10
136.0028502220833
 20
167.6704236871978
 40
0.5000000000000022
 50
20.00000000000065
 51
90.0
 73
     1
 72
     1
 10
136.0028502220833
 20
168.1704236871978
 11
133.367641797409
 21
168.1704236871978
 72
     3
 10
133.367641797409
 20
167.6704236871978
 11
1.084202172485504E-16
 21
0.5000000000000022
 40
0.3057306814586604
 50
0.0
 51
40.02986098536152
 73
     1
 72
     1
 10
133.2239953647518
 20
167.8414337588606
 11
133.2649902111291
 21
168.2098377875258
 72
     3
 10
133.4660952168493
 20
167.9704236871978
 11
-2.168404344971009E-16
 21
-0.6999999999999992
 40
0.3057306814586611
 50
139.9701390146379
 51
180.0
 73
     0
 72
     1
 10
133.4660952168493
 20
168.6704236871978
 11
131.4398127655269
 21
168.6704236871978
 72
     3
 10
131.4398127655269
 20
167.9704236871978
 11
1.517883041479706E-15
 21
0.7000000000000079
 40
0.3057306814586578
 50
0.0
 51
40.02986098535838
 73
     0
 72
     1
 10
131.6409177712471
 20
168.2098377875258
 11
131.6819126176245
 21
167.8414337588606
 72
     3
 10
131.5382661849672
 20
167.6704236871978
 11
2.168404344971009E-16
 21
-0.5000000000000004
 40
0.3057306814586597
 50
139.9701390146387
 51
180.0
 73
     1
 72
     1
 10
131.5382661849672
 20
168.1704236871978
 11
128.903057760293
 21
168.1704236871978
 72
     2
 10
128.903057760293
 20
167.6704236871978
 40
0.5000000000000022
 50
90.0
 51
160.0000000000005
 73
     1
 72
     1
 10
128.4332114499
 20
167.8414337588606
 11
127.2790581712564
 21
164.6704236871978
 72
     1
 10
127.2790581712564
 20
164.6704236871978
 11
130.9029539911881
 21
164.6704236871978
 72
     1
 10
130.9029539911881
 20
164.6704236871978
 11
131.1759728306418
 21
164.6704236871978
 97
        0
 75
     0
 76
     1
 98
        0
  0
HATCH
  5
12D
330
126
100
AcDbEntity
  8
DV2_Füllung
  6
Continuous
 62
     7
100
AcDbHatch
 10
0.0
 20
0.0
 30
0.0
210
0.0
220
0.0
230
1.0
  2
SOLID
 70
     1
 71
     0
 91
        1
 92
        1
 93
        6
 72
     1
 10
131.4398127655269
 20
168.6704236871978
 11
130.4529539911881
 21
168.6704236871978
 72
     1
 10
130.4529539911881
 20
168.6704236871978
 11
130.4529539911881
 21
168.1704236871978
 72
     1
 10
130.4529539911881
 20
168.1704236871978
 11
131.5382661849672
 21
168.1704236871978
 72
     3
 10
131.5382661849672
 20
167.6704236871978
 11
-2.168404344971009E-16
 21
0.5000000000000004
 40
0.3057306814586597
 50
0.0
 51
40.02986098536132
 73
     0
 72
     1
 10
131.6819126176245
 20
167.8414337588606
 11
131.6409177712471
 21
168.2098377875258
 72
     3
 10
131.4398127655269
 20
167.9704236871978
 11
-1.517883041479706E-15
 21
-0.7000000000000079
 40
0.3057306814586578
 50
139.9701390146416
 51
180.0000000000001
 73
     1
 97
        0
 75
     0
 76
     1
 98
        0
  0
HATCH
  5
12E
330
126
100
AcDbEntity
  8
DV2_Füllung
  6
Continuous
 62
     7
100
AcDbHatch
 10
0.0
 20
0.0
 30
0.0
210
0.0
220
0.0
230
1.0
  2
SOLID
 70
     1
 71
     0
 91
        1
 92
        1
 93
        6
 72
     1
 10
133.3676417845995
 20
168.1704236871978
 11
134.4529539911881
 21
168.1704236871978
 72
     1
 10
134.4529539911881
 20
168.1704236871978
 11
134.4529539911881
 21
168.6704236871978
 72
     1
 10
134.4529539911881
 20
168.6704236871978
 11
133.4660952168493
 21
168.6704236871978
 72
     3
 10
133.4660952168493
 20
167.9704236871978
 11
2.168404344971009E-16
 21
0.6999999999999992
 40
0.3057306814586611
 50
0.0
 51
40.02986098536218
 73
     1
 72
     1
 10
133.2649902111291
 20
168.2098377875258
 11
133.2239953647517
 21
167.8414337588606
 72
     3
 10
133.367641797409
 20
167.6704236871978
 11
-1.084202172485504E-16
 21
-0.5000000000000022
 40
0.3057306814586604
 50
139.9701390146385
 51
180.0
 73
     0
 97
        0
 75
     0
 76
     1
 98
        0
  0
HATCH
  5
12F
330
126
100
AcDbEntity
  8
DV2_Füllung
  6
Continuous
 62
     7
100
AcDbHatch
 10
0.0
 20
0.0
 30
0.0
210
0.0
220
0.0
230
1.0
  2
SOLID
 70
     1
 71
     0
 91
        1
 92
        1
 93
        9
 72
     2
 10
137.2529539911881
 20
161.1704236871978
 40
1.25
 50
333.3982759759392
 51
386.6023689068661
 73
     1
 72
     1
 10
138.370623645407
 20
161.7301687577774
 11
138.0408209352923
 21
162.0599713181807
 72
     2
 10
138.2529529214996
 20
162.2721034006853
 40
0.3000000000000002
 50
134.9999869952956
 51
166.1029746639938
 73
     0
 72
     2
 10
137.2529539911881
 20
161.1704236871978
 40
1.25
 50
55.45702653226717
 51
58.66774850240581
 73
     1
 72
     1
 10
137.9029539911881
 20
162.2381315124009
 11
137.9029539911881
 21
161.6704236871978
 72
     1
 10
137.9029539911881
 20
161.6704236871978
 11
138.0029539911881
 21
161.6704236871978
 72
     1
 10
138.0029539911881
 20
161.6704236871978
 11
138.0029539911881
 21
160.234582711366
 72
     2
 10
138.2529531082467
 20
160.0687501407717
 40
0.2999999999999965
 50
213.5576148227311
 51
225.0003698190098
 73
     0
 72
     1
 10
138.040822443114
 20
160.280883544342
 11
138.3706299454507
 21
160.6106911963925
 97
        0
 75
     0
 76
     1
 98
        0
  0
HATCH
  5
130
330
126
100
AcDbEntity
  8
DV2_Füllung
  6
Continuous
 62
     7
100
AcDbHatch
 10
0.0
 20
0.0
 30
0.0
210
0.0
220
0.0
230
1.0
  2
SOLID
 70
     1
 71
     0
 91
        1
 92
        1
 93
        9
 72
     1
 10
126.5352780369255
 20
160.6106911963924
 11
126.8650855392622
 21
160.280883544342
 72
     2
 10
126.6529548741295
 20
160.0687501407717
 40
0.3000000000000024
 50
314.9996301809921
 51
326.442385177275
 73
     0
 72
     1
 10
126.9029539911881
 20
160.234582711366
 11
126.9029539911881
 21
161.6704236871978
 72
     1
 10
126.9029539911881
 20
161.6704236871978
 11
127.0029539911881
 21
161.6704236871978
 72
     1
 10
127.0029539911881
 20
161.6704236871978
 11
127.0029539911881
 21
162.2381315124009
 72
     2
 10
127.6529539911881
 20
161.1704236871978
 40
1.25
 50
121.3322514975931
 51
124.5429734677417
 73
     1
 72
     2
 10
126.6529550608766
 20
162.2721034006853
 40
0.2999999999999993
 50
13.8970253360332
 51
45.00001300470444
 73
     0
 72
     1
 10
126.865087047084
 20
162.0599713181807
 11
126.5352843369692
 21
161.7301687577774
 72
     2
 10
127.6529539911881
 20
161.1704236871978
 40
1.25
 50
153.3976310931325
 51
206.6017240240622
 73
     1
 97
        0
 75
     0
 76
     1
 98
        0
  0
HATCH
  5
131
330
126
100
AcDbEntity
  8
DV2_Füllung
  6
Continuous
 62
     7
100
AcDbHatch
 10
0.0
 20
0.0
 30
0.0
210
0.0
220
0.0
230
1.0
  2
SOLID
 70
     1
 71
     0
 91
        1
 92
        1
 93
       24
 72
     1
 10
127.0529539911881
 20
164.6704236871978
 11
127.0529539911881
 21
156.3100590326712
 72
     1
 10
127.0529539911881
 20
156.3100590326713
 11
127.0529539911881
 21
155.6704236871978
 72
     1
 10
127.0529539911881
 20
155.6704236871978
 11
130.8854913098577
 21
155.6704236871978
 72
     1
 10
130.8854913098577
 20
155.6704236871978
 11
130.8966561863433
 21
156.3100590326712
 72
     1
 10
130.8966561863433
 20
156.3100590326712
 11
130.9029463747859
 21
156.6704236871977
 72
     1
 10
130.9029463747859
 20
156.6704236871977
 11
134.0029616075903
 21
156.6704236871978
 72
     1
 10
134.0029616075903
 20
156.6704236871978
 11
134.0092517960329
 21
156.3100590326712
 72
     1
 10
134.0092517960329
 20
156.3100590326712
 11
134.0204166725186
 21
155.6704236871978
 72
     1
 10
134.0204166725185
 20
155.6704236871978
 11
137.8529539911881
 21
155.6704236871978
 72
     1
 10
137.8529539911881
 20
155.6704236871978
 11
137.8529539911881
 21
156.3100590326712
 72
     1
 10
137.8529539911881
 20
156.3100590326712
 11
137.8529539911881
 21
164.6704236871978
 72
     1
 10
137.8529539911881
 20
164.6704236871978
 11
134.0029539911881
 21
164.6704236871978
 72
     1
 10
134.0029539911881
 20
164.6704236871978
 11
134.0029539911881
 21
162.0603349985666
 72
     1
 10
134.0029539911881
 20
162.0603349985666
 11
133.6347559396542
 21
161.534493685182
 72
     3
 10
133.7408219568321
 20
161.3830157141662
 11
-2.168404344971009E-16
 21
0.2142222010113174
 40
0.7002075382097079
 50
34.99999999999561
 51
145.0000000000043
 73
     1
 72
     1
 10
133.6347559396542
 20
161.2315377431504
 11
134.0029539911881
 21
160.7056964297659
 72
     1
 10
134.0029539911881
 20
160.7056964297659
 11
134.0029539911881
 21
158.6704236871978
 72
     1
 10
134.0029539911881
 20
158.6704236871978
 11
130.9029539911881
 21
158.6704236871978
 72
     1
 10
130.9029539911881
 20
158.6704236871978
 11
130.9029539911881
 21
160.7056964297659
 72
     1
 10
130.9029539911881
 20
160.7056964297659
 11
131.2711520427221
 21
161.2315377431504
 72
     3
 10
131.1650860255441
 20
161.3830157141662
 11
0.0
 21
-0.2142222010113174
 40
0.7002075382097097
 50
34.99999999999571
 51
145.0000000000043
 73
     1
 72
     1
 10
131.271152042722
 20
161.534493685182
 11
130.9029539911881
 21
162.0603349985666
 72
     1
 10
130.9029539911882
 20
162.0603349985666
 11
130.9029539911881
 21
164.6704236871978
 72
     1
 10
130.9029539911881
 20
164.6704236871978
 11
127.0529539911881
 21
164.6704236871978
 97
        0
 75
     0
 76
     1
 98
        0
  0
HATCH
  5
132
330
126
100
AcDbEntity
  8
DV2_Füllung
  6
Continuous
 62
     7
100
AcDbHatch
 10
0.0
 20
0.0
 30
0.0
210
0.0
220
0.0
230
1.0
  2
SOLID
 70
     1
 71
     0
 91
        1
 92
        1
 93
       10
 72
     1
 10
127.0529539911881
 20
156.3100590326712
 11
127.0529539911881
 21
161.6704236871978
 72
     1
 10
127.0529539911881
 20
161.6704236871978
 11
126.9029539911881
 21
161.6704236871978
 72
     1
 10
126.9029539911881
 20
161.6704236871978
 11
126.9029539911881
 21
160.234582711366
 72
     2
 10
126.6529548741295
 20
160.0687501407717
 40
0.3000000000000024
 50
326.442385177275
 51
360.0
 73
     0
 72
     1
 10
126.9529548741295
 20
160.0687501407717
 11
126.9529539911881
 21
158.907840560078
 72
     1
 10
126.9529539911881
 20
158.907840560078
 11
126.9529539911881
 21
156.2704273448512
 72
     2
 10
126.3529539065437
 20
156.2704273448512
 40
0.6000000846444787
 50
0.0
 51
23.55646262369509
 73
     0
 72
     1
 10
126.9029539911881
 20
156.0306357510359
 11
126.9029539911881
 21
155.6704236871978
 72
     1
 10
126.9029539911881
 20
155.6704236871978
 11
127.0529539911881
 21
155.6704236871978
 72
     1
 10
127.0529539911881
 20
155.6704236871978
 11
127.0529539911881
 21
156.3100590326712
 97
        0
 75
     0
 76
     1
 98
        0
  0
HATCH
  5
133
330
126
100
AcDbEntity
  8
DV2_Füllung
  6
Continuous
 62
     7
100
AcDbHatch
 10
0.0
 20
0.0
 30
0.0
210
0.0
220
0.0
230
1.0
  2
SOLID
 70
     1
 71
     0
 91
        1
 92
        1
 93
        4
 72
     1
 10
127.0529539911881
 20
161.6704236871978
 11
127.0529539911881
 21
162.2670092971709
 72
     2
 10
127.6529539911881
 20
161.1704236871978
 40
1.25
 50
118.6854020141182
 51
121.3322514975931
 73
     1
 72
     1
 10
127.0029539911881
 20
162.2381315124009
 11
127.0029539911881
 21
161.6704236871978
 72
     1
 10
127.0029539911881
 20
161.6704236871978
 11
127.0529539911881
 21
161.6704236871978
 97
        0
 75
     0
 76
     1
 98
        0
  0
HATCH
  5
134
330
126
100
AcDbEntity
  8
DV2_Füllung
  6
Continuous
 62
     7
100
AcDbHatch
 10
0.0
 20
0.0
 30
0.0
210
0.0
220
0.0
230
1.0
  2
SOLID
 70
     1
 71
     0
 91
        1
 92
        1
 93
        7
 72
     1
 10
130.9029539911881
 20
164.6704236871978
 11
130.9029539911881
 21
162.0603349985666
 72
     1
 10
130.9029539911881
 20
162.0603349985666
 11
131.2711520427221
 21
161.534493685182
 72
     3
 10
131.1650860255441
 20
161.3830157141662
 11
0.0
 21
0.2142222010113174
 40
0.7002075382097097
 50
34.99999999999569
 51
90.0
 73
     0
 72
     1
 10
131.3150860255441
 20
161.3830157141662
 11
131.3150860255441
 21
164.3830157141662
 72
     3
 10
131.1650860255441
 20
164.3830157141662
 11
2.168404344971009E-15
 21
-0.214222201011317
 40
0.7002075382097086
 50
89.99999999999942
 51
144.9999999999939
 73
     1
 72
     1
 10
131.2711520427221
 20
164.534493685182
 11
131.1759728306418
 21
164.6704236871978
 72
     1
 10
131.1759728306418
 20
164.6704236871978
 11
130.9029539911881
 21
164.6704236871978
 97
        0
 75
     0
 76
     1
 98
        0
  0
HATCH
  5
135
330
126
100
AcDbEntity
  8
DV2_Füllung
  6
Continuous
 62
     7
100
AcDbHatch
 10
0.0
 20
0.0
 30
0.0
210
0.0
220
0.0
230
1.0
  2
SOLID
 70
     1
 71
     0
 91
        1
 92
        1
 93
        7
 72
     1
 10
133.5908219568322
 20
164.3830157141662
 11
133.5908219568322
 21
161.3830157141662
 72
     3
 10
133.7408219568321
 20
161.3830157141662
 11
2.168404344971009E-16
 21
-0.2142222010113174
 40
0.7002075382097079
 50
90.00001472479236
 51
145.0000000000044
 73
     0
 72
     1
 10
133.6347559396542
 20
161.534493685182
 11
134.0029539911881
 21
162.0603349985666
 72
     1
 10
134.0029539911881
 20
162.0603349985666
 11
134.0029539911881
 21
164.6704236871978
 72
     1
 10
134.0029539911881
 20
164.6704236871978
 11
133.7299351517345
 21
164.6704236871978
 72
     1
 10
133.7299351517345
 20
164.6704236871978
 11
133.6347559396542
 21
164.534493685182
 72
     3
 10
133.7408219568321
 20
164.3830157141662
 11
2.168404344971009E-16
 21
0.2142222010113179
 40
0.7002075382097077
 50
35.00000000000588
 51
90.00000000000006
 73
     1
 97
        0
 75
     0
 76
     1
 98
        0
  0
HATCH
  5
136
330
126
100
AcDbEntity
  8
DV2_Füllung
  6
Continuous
 62
     7
100
AcDbHatch
 10
0.0
 20
0.0
 30
0.0
210
0.0
220
0.0
230
1.0
  2
SOLID
 70
     1
 71
     0
 91
        1
 92
        1
 93
        6
 72
     1
 10
130.8854913098577
 20
155.6704236871978
 11
134.0204166725185
 21
155.6704236871978
 72
     1
 10
134.0204166725185
 20
155.6704236871978
 11
134.0092517960329
 21
156.3100590326712
 72
     1
 10
134.0092517960329
 20
156.3100590326712
 11
134.0029616075904
 21
156.6704236871977
 72
     1
 10
134.0029616075904
 20
156.6704236871977
 11
130.9029463747859
 21
156.6704236871978
 72
     1
 10
130.9029463747859
 20
156.6704236871978
 11
130.8966561863434
 21
156.3100590326712
 72
     1
 10
130.8966561863434
 20
156.3100590326712
 11
130.8854913098577
 21
155.6704236871978
 97
        0
 75
     0
 76
     1
 98
        0
  0
HATCH
  5
137
330
126
100
AcDbEntity
  8
DV2_Füllung
  6
Continuous
 62
     7
100
AcDbHatch
 10
0.0
 20
0.0
 30
0.0
210
0.0
220
0.0
230
1.0
  2
SOLID
 70
     1
 71
     0
 91
        1
 92
        1
 93
       10
 72
     1
 10
138.0029539911881
 20
160.234582711366
 11
138.0029539911881
 21
161.6704236871978
 72
     1
 10
138.0029539911881
 20
161.6704236871978
 11
137.8529539911881
 21
161.6704236871978
 72
     1
 10
137.8529539911881
 20
161.6704236871978
 11
137.8529539911881
 21
156.3100590326712
 72
     1
 10
137.8529539911881
 20
156.3100590326713
 11
137.8529539911881
 21
155.6704236871978
 72
     1
 10
137.8529539911881
 20
155.6704236871978
 11
138.0029539911881
 21
155.6704236871978
 72
     1
 10
138.0029539911881
 20
155.6704236871978
 11
138.0029539911881
 21
156.0306318765502
 72
     2
 10
138.5529536949326
 20
156.2704233909423
 40
0.5999997037444493
 50
156.4435297919525
 51
179.9999999995957
 73
     0
 72
     1
 10
137.9529539911881
 20
156.270423390938
 11
137.9529539911881
 21
158.907840560078
 72
     1
 10
137.9529539911881
 20
158.907840560078
 11
137.9529531082487
 21
160.0687512178383
 72
     2
 10
138.2529531082467
 20
160.0687501407717
 40
0.2999999999999965
 50
180.0002057045735
 51
213.5576148227311
 73
     0
 97
        0
 75
     0
 76
     1
 98
        0
  0
HATCH
  5
138
330
126
100
AcDbEntity
  8
DV2_Füllung
  6
Continuous
 62
     7
100
AcDbHatch
 10
0.0
 20
0.0
 30
0.0
210
0.0
220
0.0
230
1.0
  2
SOLID
 70
     1
 71
     0
 91
        1
 92
        1
 93
        4
 72
     1
 10
137.8529539911881
 20
162.2670092971709
 11
137.8529539911881
 21
161.6704236871978
 72
     1
 10
137.8529539911881
 20
161.6704236871978
 11
137.9029539911881
 21
161.6704236871978
 72
     1
 10
137.9029539911881
 20
161.6704236871978
 11
137.9029539911881
 21
162.2381315124009
 72
     2
 10
137.2529539911881
 20
161.1704236871978
 40
1.25
 50
58.66774850240581
 51
61.31459798588008
 73
     1
 97
        0
 75
     0
 76
     1
 98
        0
  0
LINE
  5
139
330
126
100
AcDbEntity
  8
D000125
  6
Continuous
 62
     7
100
AcDbLine
 10
137.9529539912
 20
158.9078405601
 30
0.0
 11
137.9529539912
 21
156.2704233909
 31
0.0
  0
ARC
  5
13A
330
126
100
AcDbEntity
  8
D000125
  6
Continuous
 62
     7
100
AcDbCircle
 10
138.5529536949
 20
156.2704233909
 30
0.0
 40
0.5999997037444493
100
AcDbArc
 50
180.0000000004
 51
0.0
  0
LINE
  5
13B
330
126
100
AcDbEntity
  8
D000125
  6
Continuous
 62
     7
100
AcDbLine
 10
139.1529533987
 20
156.2704233909
 30
0.0
 11
139.1529533987
 21
158.0916367865
 31
0.0
  0
ARC
  5
13C
330
126
100
AcDbEntity
  8
D000125
  6
Continuous
 62
     7
100
AcDbCircle
 10
126.3529539065
 20
156.2704273449
 30
0.0
 40
0.6000000846444787
100
AcDbArc
 50
180.0
 51
0.0
  0
LINE
  5
13D
330
126
100
AcDbEntity
  8
D000125
  6
Continuous
 62
     7
100
AcDbLine
 10
126.9529539912
 20
156.2704273449
 30
0.0
 11
126.9529539912
 21
158.9078405601
 31
0.0
  0
LINE
  5
13E
330
126
100
AcDbEntity
  8
D000125
  6
Continuous
 62
     7
100
AcDbLine
 10
126.9529548741
 20
160.0687501408
 30
0.0
 11
126.9529539912
 21
158.9078405601
 31
0.0
  0
ARC
  5
13F
330
126
100
AcDbEntity
  8
D000125
  6
Continuous
 62
     7
100
AcDbCircle
 10
126.2286905206
 20
162.6963681336
 30
0.0
 40
0.2999999999999999
100
AcDbArc
 50
44.9999869955
 51
135.1325628242
  0
LINE
  5
140
330
126
100
AcDbEntity
  8
D000125
  6
Continuous
 62
     7
100
AcDbLine
 10
126.4408226031
 20
162.9085001198
 30
0.0
 11
126.8650865755
 21
162.4842359548
 31
0.0
  0
ARC
  5
141
330
126
100
AcDbEntity
  8
D000125
  6
Continuous
 62
     7
100
AcDbCircle
 10
126.6529550609
 20
162.2721034007
 30
0.0
 40
0.2999999999999993
100
AcDbArc
 50
314.9999869953
 51
45.000140378
  0
LINE
  5
142
330
126
100
AcDbEntity
  8
D000125
  6
Continuous
 62
     7
100
AcDbLine
 10
126.8650870471
 20
162.0599713182
 30
0.0
 11
126.2583851829
 21
161.4532697294
 31
0.0
  0
ARC
  5
143
330
126
100
AcDbEntity
  8
D000125
  6
Continuous
 62
     7
100
AcDbCircle
 10
126.5412278312
 20
161.1704269528
 30
0.0
 40
0.3999999999999992
100
AcDbArc
 50
134.9999869955
 51
224.9999869955
  0
LINE
  5
144
330
126
100
AcDbEntity
  8
D000125
  6
Continuous
 62
     7
100
AcDbLine
 10
126.2583850545
 20
160.8875843045
 30
0.0
 11
126.8650855393
 21
160.2808835443
 31
0.0
  0
ARC
  5
145
330
126
100
AcDbEntity
  8
D000125
  6
Continuous
 62
     7
100
AcDbCircle
 10
126.6529548741
 20
160.0687501408
 30
0.0
 40
0.3000000000000024
100
AcDbArc
 50
0.0
 51
45.000369819
  0
ARC
  5
146
330
126
100
AcDbEntity
  8
D000125
  6
Continuous
 62
     7
100
AcDbCircle
 10
132.4529539912
 20
165.7773383583
 30
0.0
 40
8.79999999998198
100
AcDbArc
 50
37.8514817876
 51
52.698209708
  0
ARC
  5
147
330
126
100
AcDbEntity
  8
D000125
  6
Continuous
 62
     7
100
AcDbCircle
 10
132.4529539912
 20
164.0473383583
 30
0.0
 40
10.22999999999924
100
AcDbArc
 50
58.5803907698
 51
121.4196092302
  0
LINE
  5
148
330
126
100
AcDbEntity
  8
D000125
  6
Continuous
 62
     7
100
AcDbLine
 10
126.2825012368
 20
169.5821207001
 30
0.0
 11
129.3413867509
 21
169.5827845009
 31
0.0
  0
ARC
  5
149
330
126
100
AcDbEntity
  8
D000125
  6
Continuous
 62
     7
100
AcDbCircle
 10
129.3529330962
 20
168.9828956214
 30
0.0
 40
0.5999999882024648
100
AcDbArc
 50
270.0158895238
 51
91.1026628421
  0
LINE
  5
14A
330
126
100
AcDbEntity
  8
D000125
  6
Continuous
 62
     7
100
AcDbLine
 10
129.3530994909
 20
168.3828956562
 30
0.0
 11
127.5522648949
 21
168.3823962406
 31
0.0
  0
ARC
  5
14B
330
126
100
AcDbEntity
  8
D000125
  6
Continuous
 62
     7
100
AcDbCircle
 10
127.552403558
 20
167.8823962599
 30
0.0
 40
0.4999999999999999
100
AcDbArc
 50
90.015889624
 51
209.9999867473
  0
LINE
  5
14C
330
126
100
AcDbEntity
  8
D000125
  6
Continuous
 62
     7
100
AcDbLine
 10
127.1193907983
 20
167.63239636
 30
0.0
 11
127.603270698
 21
166.7942913497
 31
0.0
  0
ARC
  5
14D
330
126
100
AcDbEntity
  8
D000125
  6
Continuous
 62
     7
100
AcDbCircle
 10
127.0836553876
 20
166.4942914676
 30
0.0
 40
0.5999999999995178
100
AcDbArc
 50
209.9999869955
 51
29.9999869955
  0
LINE
  5
14E
330
126
100
AcDbEntity
  8
D000125
  6
Continuous
 62
     7
100
AcDbLine
 10
126.5640400773
 20
166.1942915855
 30
0.0
 11
125.1719943078
 21
168.6053868486
 31
0.0
  0
ARC
  5
14F
330
126
100
AcDbEntity
  8
D000125
  6
Continuous
 62
     7
100
AcDbCircle
 10
126.2823927331
 20
170.0821206883
 30
0.0
 40
0.4999999999999993
100
AcDbArc
 50
209.9999869955
 51
270.0124336076
  0
LINE
  5
150
330
126
100
AcDbEntity
  8
D000125
  6
Continuous
 62
     7
100
AcDbLine
 10
125.7529538219
 20
158.0916375101
 30
0.0
 11
125.7529538219
 21
156.2704273449
 31
0.0
  0
ARC
  5
151
330
126
100
AcDbEntity
  8
D000125
  6
Continuous
 62
     7
100
AcDbCircle
 10
125.1529538219
 20
158.0916375101
 30
0.0
 40
0.6000000000000011
100
AcDbArc
 50
0.0
 51
46.4743483278
  0
ARC
  5
152
330
126
100
AcDbEntity
  8
D000125
  6
Continuous
 62
     7
100
AcDbCircle
 10
124.6523789974
 20
168.3053869666
 30
0.0
 40
0.6000000000000008
100
AcDbArc
 50
29.9999869955
 51
162.0432732464
  0
ARC
  5
153
330
126
100
AcDbEntity
  8
D000125
  6
Continuous
 62
     7
100
AcDbCircle
 10
132.4529539912
 20
165.7773383583
 30
0.0
 40
8.799999999981981
100
AcDbArc
 50
127.301790292
 51
142.1485182124
  0
LINE
  5
154
330
126
100
AcDbEntity
  8
D000125
  6
Continuous
 62
     7
100
AcDbLine
 10
125.4585860438
 20
170.5089960847
 30
0.0
 11
125.8493799745
 21
169.8321207866
 31
0.0
  0
ARC
  5
155
330
126
100
AcDbEntity
  8
D000125
  6
Continuous
 62
     7
100
AcDbCircle
 10
125.9782013541
 20
170.8089959667
 30
0.0
 40
0.5999999999999988
100
AcDbArc
 50
142.1485182124
 51
209.9999869955
  0
ARC
  5
156
330
126
100
AcDbEntity
  8
D000125
  6
Continuous
 62
     7
100
AcDbCircle
 10
132.4529539912
 20
165.7773383583
 30
0.0
 40
8.79999999998198
100
AcDbArc
 50
162.0432732464
 51
202.6161245215
  0
LINE
  5
157
330
126
100
AcDbEntity
  8
D000125
  6
Continuous
 62
     7
100
AcDbLine
 10
125.3077813187
 20
162.1997221864
 30
0.0
 11
126.0160682535
 21
162.9080087997
 31
0.0
  0
ARC
  5
158
330
126
100
AcDbEntity
  8
D000125
  6
Continuous
 62
     7
100
AcDbCircle
 10
124.8835173463
 20
162.6239863514
 30
0.0
 40
0.6000000000000003
100
AcDbArc
 50
202.6161245215
 51
314.9999869955
  0
LINE
  5
159
330
126
100
AcDbEntity
  8
D000125
  6
Continuous
 62
     7
100
AcDbLine
 10
137.9529539912
 20
158.9078405601
 30
0.0
 11
137.9529531082
 21
160.0687512178
 31
0.0
  0
ARC
  5
15A
330
126
100
AcDbEntity
  8
D000125
  6
Continuous
 62
     7
100
AcDbCircle
 10
138.2529531082
 20
160.0687501408
 30
0.0
 40
0.2999999999999965
100
AcDbArc
 50
134.999630181
 51
179.9997942954
  0
LINE
  5
15B
330
126
100
AcDbEntity
  8
D000125
  6
Continuous
 62
     7
100
AcDbLine
 10
138.0408224431
 20
160.2808835443
 30
0.0
 11
138.6475229278
 21
160.8875843045
 31
0.0
  0
ARC
  5
15C
330
126
100
AcDbEntity
  8
D000125
  6
Continuous
 62
     7
100
AcDbCircle
 10
138.3646801512
 20
161.1704269528
 30
0.0
 40
0.4000000000000004
100
AcDbArc
 50
315.0000130045
 51
45.0000130045
  0
LINE
  5
15D
330
126
100
AcDbEntity
  8
D000125
  6
Continuous
 62
     7
100
AcDbLine
 10
138.6475227995
 20
161.4532697294
 30
0.0
 11
138.0408209353
 21
162.0599713182
 31
0.0
  0
ARC
  5
15E
330
126
100
AcDbEntity
  8
D000125
  6
Continuous
 62
     7
100
AcDbCircle
 10
138.2529529215
 20
162.2721034007
 30
0.0
 40
0.3000000000000002
100
AcDbArc
 50
134.999859622
 51
225.0000130047
  0
LINE
  5
15F
330
126
100
AcDbEntity
  8
D000125
  6
Continuous
 62
     7
100
AcDbLine
 10
138.0408214069
 20
162.4842359548
 30
0.0
 11
138.4650853793
 21
162.9085001198
 31
0.0
  0
ARC
  5
160
330
126
100
AcDbEntity
  8
D000125
  6
Continuous
 62
     7
100
AcDbCircle
 10
138.6772174618
 20
162.6963681336
 30
0.0
 40
0.3000000000000002
100
AcDbArc
 50
44.8674371759
 51
135.0000130045
  0
LINE
  5
161
330
126
100
AcDbEntity
  8
D000125
  6
Continuous
 62
     7
100
AcDbLine
 10
138.8898397289
 20
162.9080087997
 30
0.0
 11
139.5981266636
 21
162.1997221864
 31
0.0
  0
ARC
  5
162
330
126
100
AcDbEntity
  8
D000125
  6
Continuous
 62
     7
100
AcDbCircle
 10
135.5529748862
 20
168.9828956214
 30
0.0
 40
0.5999999882024651
100
AcDbArc
 50
88.8973371579
 51
269.9841104762
  0
LINE
  5
163
330
126
100
AcDbEntity
  8
D000125
  6
Continuous
 62
     7
100
AcDbLine
 10
135.5645212314
 20
169.5827845009
 30
0.0
 11
138.6234067456
 21
169.5821207001
 31
0.0
  0
ARC
  5
164
330
126
100
AcDbEntity
  8
D000125
  6
Continuous
 62
     7
100
AcDbCircle
 10
138.6235152493
 20
170.0821206883
 30
0.0
 40
0.5000000000000011
100
AcDbArc
 50
269.9875663924
 51
330.0000130045
  0
LINE
  5
165
330
126
100
AcDbEntity
  8
D000125
  6
Continuous
 62
     7
100
AcDbLine
 10
139.0565280079
 20
169.8321207866
 30
0.0
 11
139.4473219386
 21
170.5089960847
 31
0.0
  0
ARC
  5
166
330
126
100
AcDbEntity
  8
D000125
  6
Continuous
 62
     7
100
AcDbCircle
 10
137.8222525947
 20
166.4942914676
 30
0.0
 40
0.5999999999995178
100
AcDbArc
 50
150.0000130045
 51
330.0000130045
  0
LINE
  5
167
330
126
100
AcDbEntity
  8
D000125
  6
Continuous
 62
     7
100
AcDbLine
 10
137.3026372844
 20
166.7942913497
 30
0.0
 11
137.7865171841
 21
167.63239636
 31
0.0
  0
ARC
  5
168
330
126
100
AcDbEntity
  8
D000125
  6
Continuous
 62
     7
100
AcDbCircle
 10
137.3535044244
 20
167.8823962599
 30
0.0
 40
0.5
100
AcDbArc
 50
330.0000132527
 51
89.984110376
  0
LINE
  5
169
330
126
100
AcDbEntity
  8
D000125
  6
Continuous
 62
     7
100
AcDbLine
 10
137.3536430875
 20
168.3823962406
 30
0.0
 11
135.5528084915
 21
168.3828956562
 31
0.0
  0
ARC
  5
16A
330
126
100
AcDbEntity
  8
D000125
  6
Continuous
 62
     7
100
AcDbCircle
 10
132.4529539912
 20
165.7773383583
 30
0.0
 40
9.999999999981982
100
AcDbArc
 50
313.5256459931
 51
226.4743483278
  0
ARC
  5
16B
330
126
100
AcDbEntity
  8
D000125
  6
Continuous
 62
     7
100
AcDbCircle
 10
139.7529533987
 20
158.0916367865
 30
0.0
 40
0.5999999999999999
100
AcDbArc
 50
133.5256459931
 51
180.0
  0
ARC
  5
16C
330
126
100
AcDbEntity
  8
D000125
  6
Continuous
 62
     7
100
AcDbCircle
 10
132.4529539912
 20
165.7773383583
 30
0.0
 40
8.799999999981981
100
AcDbArc
 50
337.3838754785
 51
17.9567267536
  0
LINE
  5
16D
330
126
100
AcDbEntity
  8
D000125
  6
Continuous
 62
     7
100
AcDbLine
 10
139.7339136746
 20
168.6053868486
 30
0.0
 11
138.3418679051
 21
166.1942915855
 31
0.0
  0
ARC
  5
16E
330
126
100
AcDbEntity
  8
D000125
  6
Continuous
 62
     7
100
AcDbCircle
 10
140.253528985
 20
168.3053869666
 30
0.0
 40
0.6000000000000002
100
AcDbArc
 50
17.9567267536
 51
150.0000130045
  0
ARC
  5
16F
330
126
100
AcDbEntity
  8
D000125
  6
Continuous
 62
     7
100
AcDbCircle
 10
138.9277066283
 20
170.8089959667
 30
0.0
 40
0.6000000000000015
100
AcDbArc
 50
330.0000130045
 51
37.8514817876
  0
ARC
  5
170
330
126
100
AcDbEntity
  8
D000125
  6
Continuous
 62
     7
100
AcDbCircle
 10
140.022390636
 20
162.6239863514
 30
0.0
 40
0.5999999999999983
100
AcDbArc
 50
225.0000130045
 51
337.3838754785
  0
LINE
  5
171
330
126
100
AcDbEntity
  8
D000121
  6
Continuous
 62
     7
100
AcDbLine
 10
137.8529539912
 20
164.6704236872
 30
0.0
 11
137.8529539912
 21
156.3100590327
 31
0.0
  0
LINE
  5
172
330
126
100
AcDbEntity
  8
D000121
  6
Continuous
 62
     7
100
AcDbLine
 10
137.8529539912
 20
156.3100590327
 30
0.0
 11
137.8529539912
 21
155.6704236872
 31
0.0
  0
LINE
  5
173
330
126
100
AcDbEntity
  8
D000121
  6
Continuous
 62
     7
100
AcDbLine
 10
130.9029463748
 20
156.6704236872
 30
0.0
 11
134.0029616076
 21
156.6704236872
 31
0.0
  0
LINE
  5
174
330
126
100
AcDbEntity
  8
D000121
  6
Continuous
 62
     7
100
AcDbLine
 10
134.0029539912
 20
158.6704236872
 30
0.0
 11
130.9029539912
 21
158.6704236872
 31
0.0
  0
LINE
  5
175
330
126
100
AcDbEntity
  8
D000121
  6
Continuous
 62
     7
100
AcDbLine
 10
127.0529539912
 20
155.6704236872
 30
0.0
 11
127.0529539912
 21
156.3100590327
 31
0.0
  0
LINE
  5
176
330
126
100
AcDbEntity
  8
D000121
  6
Continuous
 62
     7
100
AcDbLine
 10
127.0529539912
 20
164.6704236872
 30
0.0
 11
127.0529539912
 21
156.3100590327
 31
0.0
  0
LINE
  5
177
330
126
100
AcDbEntity
  8
D000121
  6
Continuous
 62
     7
100
AcDbLine
 10
126.9029539912
 20
155.6704236872
 30
0.0
 11
127.0529539912
 21
155.6704236872
 31
0.0
  0
LINE
  5
178
330
126
100
AcDbEntity
  8
D000121
  6
Continuous
 62
     7
100
AcDbLine
 10
137.8529539912
 20
155.6704236872
 30
0.0
 11
138.0029539912
 21
155.6704236872
 31
0.0
  0
LINE
  5
179
330
126
100
AcDbEntity
  8
D000121
  6
Continuous
 62
     7
100
AcDbLine
 10
137.8529539912
 20
155.6704236872
 30
0.0
 11
134.0204166725
 21
155.6704236872
 31
0.0
  0
LINE
  5
17A
330
126
100
AcDbEntity
  8
D000121
  6
Continuous
 62
     7
100
AcDbLine
 10
134.0204166725
 20
155.6704236872
 30
0.0
 11
130.8854913099
 21
155.6704236872
 31
0.0
  0
LINE
  5
17B
330
126
100
AcDbEntity
  8
D000121
  6
Continuous
 62
     7
100
AcDbLine
 10
130.8854913099
 20
155.6704236872
 30
0.0
 11
127.0529539912
 21
155.6704236872
 31
0.0
  0
LINE
  5
17C
330
126
100
AcDbEntity
  8
D000121
  6
Continuous
 62
     7
100
AcDbLine
 10
130.9029539912
 20
164.6704236872
 30
0.0
 11
131.1759728306
 21
164.6704236872
 31
0.0
  0
LINE
  5
17D
330
126
100
AcDbEntity
  8
D000121
  6
Continuous
 62
     7
100
AcDbLine
 10
130.9029539912
 20
164.6704236872
 30
0.0
 11
127.0529539912
 21
164.6704236872
 31
0.0
  0
LINE
  5
17E
330
126
100
AcDbEntity
  8
D000121
  6
Continuous
 62
     7
100
AcDbLine
 10
131.2711520427
 20
161.5344936852
 30
0.0
 11
130.9029539912
 21
162.0603349986
 31
0.0
  0
LINE
  5
17F
330
126
100
AcDbEntity
  8
D000121
  6
Continuous
 62
     7
100
AcDbLine
 10
131.2711520427
 20
164.5344936852
 30
0.0
 11
131.1759728306
 21
164.6704236872
 31
0.0
  0
LINE
  5
180
330
126
100
AcDbEntity
  8
D000121
  6
Continuous
 62
     7
100
AcDbLine
 10
130.9029539912
 20
160.7056964298
 30
0.0
 11
131.2711520427
 21
161.2315377432
 31
0.0
  0
ELLIPSE
  5
181
330
126
100
AcDbEntity
  8
D000121
  6
Continuous
 62
     7
100
AcDbEllipse
 10
131.1650860255
 20
161.3830157142
 30
0.0
 11
0.0
 21
-0.2142222010113174
 31
0.0
210
0.0
220
0.0
230
1.0
 40
0.7002075382
 41
0.7853981633973683
 42
2.356194490192425
  0
ELLIPSE
  5
182
330
126
100
AcDbEntity
  8
D000121
  6
Continuous
 62
     7
100
AcDbEllipse
 10
131.1650860255
 20
164.3830157142
 30
0.0
 11
2.168404344971009E-15
 21
-0.214222201011317
 31
0.0
210
0.0
220
0.0
230
1.0
 40
0.7002075382
 41
1.570796326794889
 42
2.356194490192232
  0
LINE
  5
183
330
126
100
AcDbEntity
  8
D000121
  6
Continuous
 62
     7
100
AcDbLine
 10
130.9029539912
 20
162.0603349986
 30
0.0
 11
130.9029539912
 21
164.6704236872
 31
0.0
  0
LINE
  5
184
330
126
100
AcDbEntity
  8
D000121
  6
Continuous
 62
     7
100
AcDbLine
 10
133.7299351517
 20
164.6704236872
 30
0.0
 11
134.0029539912
 21
164.6704236872
 31
0.0
  0
LINE
  5
185
330
126
100
AcDbEntity
  8
D000121
  6
Continuous
 62
     7
100
AcDbLine
 10
137.8529539912
 20
164.6704236872
 30
0.0
 11
134.0029539912
 21
164.6704236872
 31
0.0
  0
LINE
  5
186
330
126
100
AcDbEntity
  8
D000121
  6
Continuous
 62
     7
100
AcDbLine
 10
134.0029539912
 20
162.0603349986
 30
0.0
 11
133.6347559397
 21
161.5344936852
 31
0.0
  0
LINE
  5
187
330
126
100
AcDbEntity
  8
D000121
  6
Continuous
 62
     7
100
AcDbLine
 10
133.7299351517
 20
164.6704236872
 30
0.0
 11
133.6347559397
 21
164.5344936852
 31
0.0
  0
LINE
  5
188
330
126
100
AcDbEntity
  8
D000121
  6
Continuous
 62
     7
100
AcDbLine
 10
133.6347559397
 20
161.2315377432
 30
0.0
 11
134.0029539912
 21
160.7056964298
 31
0.0
  0
ELLIPSE
  5
189
330
126
100
AcDbEntity
  8
D000121
  6
Continuous
 62
     7
100
AcDbEllipse
 10
133.7408219568
 20
161.3830157142
 30
0.0
 11
-2.168404344971009E-16
 21
0.2142222010113174
 31
0.0
210
0.0
220
0.0
230
1.0
 40
0.7002075382
 41
0.7853981633973683
 42
2.356194490192424
  0
ELLIPSE
  5
18A
330
126
100
AcDbEntity
  8
D000121
  6
Continuous
 62
     7
100
AcDbEllipse
 10
133.7408219568
 20
164.3830157142
 30
0.0
 11
2.168404344971009E-16
 21
0.2142222010113179
 31
0.0
210
0.0
220
0.0
230
1.0
 40
0.7002075382
 41
0.7853981633975593
 42
1.570796326794897
  0
LINE
  5
18B
330
126
100
AcDbEntity
  8
D000121
  6
Continuous
 62
     7
100
AcDbLine
 10
134.0029539912
 20
164.6704236872
 30
0.0
 11
134.0029539912
 21
162.0603349986
 31
0.0
  0
LINE
  5
18C
330
126
100
AcDbEntity
  8
D000121
  6
Continuous
 62
     7
100
AcDbLine
 10
134.009251796
 20
156.3100590327
 30
0.0
 11
134.0029616076
 21
156.6704236872
 31
0.0
  0
LINE
  5
18D
330
126
100
AcDbEntity
  8
D000121
  6
Continuous
 62
     7
100
AcDbLine
 10
134.0029539912
 20
160.7056964298
 30
0.0
 11
134.0029539912
 21
158.6704236872
 31
0.0
  0
LINE
  5
18E
330
126
100
AcDbEntity
  8
D000121
  6
Continuous
 62
     7
100
AcDbLine
 10
130.9029539912
 20
158.6704236872
 30
0.0
 11
130.9029539912
 21
160.7056964298
 31
0.0
  0
LINE
  5
18F
330
126
100
AcDbEntity
  8
D000121
  6
Continuous
 62
     7
100
AcDbLine
 10
130.9029463748
 20
156.6704236872
 30
0.0
 11
130.8966561863
 21
156.3100590327
 31
0.0
  0
LINE
  5
190
330
126
100
AcDbEntity
  8
D000121
  6
Continuous
 62
     7
100
AcDbLine
 10
130.8966561863
 20
156.3100590327
 30
0.0
 11
130.8854913099
 21
155.6704236872
 31
0.0
  0
LINE
  5
191
330
126
100
AcDbEntity
  8
D000121
  6
Continuous
 62
     7
100
AcDbLine
 10
134.0204166725
 20
155.6704236872
 30
0.0
 11
134.009251796
 21
156.3100590327
 31
0.0
  0
LINE
  5
192
330
126
100
AcDbEntity
  8
D000121
  6
Continuous
 62
     7
100
AcDbLine
 10
131.3150860255
 20
161.6704236872
 30
0.0
 11
133.5908219568
 21
161.6704236872
 31
0.0
  0
LINE
  5
193
330
126
100
AcDbEntity
  8
D000121
  6
Continuous
 62
     7
100
AcDbLine
 10
126.9029539912
 20
161.6704236872
 30
0.0
 11
127.0529539912
 21
161.6704236872
 31
0.0
  0
LINE
  5
194
330
126
100
AcDbEntity
  8
D000121
  6
Continuous
 62
     7
100
AcDbLine
 10
137.8529539912
 20
161.6704236872
 30
0.0
 11
138.0029539912
 21
161.6704236872
 31
0.0
  0
LINE
  5
195
330
126
100
AcDbEntity
  8
D000121
  6
Continuous
 62
     7
100
AcDbLine
 10
138.0029539912
 20
161.6704236872
 30
0.0
 11
138.0029539912
 21
160.2345827114
 31
0.0
  0
LINE
  5
196
330
126
100
AcDbEntity
  8
D000121
  6
Continuous
 62
     7
100
AcDbLine
 10
138.0029539912
 20
156.0306318766
 30
0.0
 11
138.0029539912
 21
155.6704236872
 31
0.0
  0
LINE
  5
197
330
126
100
AcDbEntity
  8
D000121
  6
Continuous
 62
     7
100
AcDbLine
 10
126.9029539912
 20
161.6704236872
 30
0.0
 11
126.9029539912
 21
160.2345827114
 31
0.0
  0
LINE
  5
198
330
126
100
AcDbEntity
  8
D000121
  6
Continuous
 62
     7
100
AcDbLine
 10
126.9029539912
 20
156.030635751
 30
0.0
 11
126.9029539912
 21
155.6704236872
 31
0.0
  0
LINE
  5
199
330
126
100
AcDbEntity
  8
D000121
  6
Continuous
 62
     7
100
AcDbLine
 10
131.3150860255
 20
161.3830157142
 30
0.0
 11
131.3150860255
 21
164.3830157142
 31
0.0
  0
LINE
  5
19A
330
126
100
AcDbEntity
  8
D000121
  6
Continuous
 62
     7
100
AcDbLine
 10
133.5908219568
 20
164.3830157142
 30
0.0
 11
133.5908219568
 21
161.3830157142
 31
0.0
  0
LINE
  5
19B
330
126
100
AcDbEntity
  8
D000122
  6
Continuous
 62
     7
100
AcDbLine
 10
130.4529539912
 20
168.1704236872
 30
0.0
 11
130.4529539912
 21
168.6704236872
 31
0.0
  0
LINE
  5
19C
330
126
100
AcDbEntity
  8
D000122
  6
Continuous
 62
     7
100
AcDbLine
 10
134.4529539912
 20
168.6704236872
 30
0.0
 11
134.4529539912
 21
168.1704236872
 31
0.0
  0
ELLIPSE
  5
19D
330
126
100
AcDbEntity
  8
D000122
  6
Continuous
 62
     7
100
AcDbEllipse
 10
131.538266185
 20
167.6704236872
 30
0.0
 11
2.168404344971009E-16
 21
-0.5000000000000004
 31
0.0
210
0.0
220
0.0
230
1.0
 40
0.3057306815
 41
1.919862177193763
 42
3.141592653589793
  0
LINE
  5
19E
330
126
100
AcDbEntity
  8
D000122
  6
Continuous
 62
     7
100
AcDbLine
 10
128.9030577603
 20
168.1704236872
 30
0.0
 11
131.538266185
 21
168.1704236872
 31
0.0
  0
ARC
  5
19F
330
126
100
AcDbEntity
  8
D000122
  6
Continuous
 62
     7
100
AcDbCircle
 10
128.9030577603
 20
167.6704236872
 30
0.0
 40
0.5000000000000022
100
AcDbArc
 50
90.0
 51
160.0
  0
LINE
  5
1A0
330
126
100
AcDbEntity
  8
D000122
  6
Continuous
 62
     7
100
AcDbLine
 10
131.6409177712
 20
168.2098377875
 30
0.0
 11
131.6819126176
 21
167.8414337589
 31
0.0
  0
ELLIPSE
  5
1A1
330
126
100
AcDbEntity
  8
D000122
  6
Continuous
 62
     7
100
AcDbEllipse
 10
131.4398127655
 20
167.9704236872
 30
0.0
 11
-1.517883041479706E-15
 21
-0.7000000000000079
 31
0.0
210
0.0
220
0.0
230
1.0
 40
0.3057306815
 41
1.919862177193794
 42
3.1415926535898
  0
LINE
  5
1A2
330
126
100
AcDbEntity
  8
D000122
  6
Continuous
 62
     7
100
AcDbLine
 10
131.4398127655
 20
168.6704236872
 30
0.0
 11
130.4529539912
 21
168.6704236872
 31
0.0
  0
LINE
  5
1A3
330
126
100
AcDbEntity
  8
D000122
  6
Continuous
 62
     7
100
AcDbLine
 10
131.4398127655
 20
168.6704236872
 30
0.0
 11
133.4660952168
 21
168.6704236872
 31
0.0
  0
LINE
  5
1A4
330
126
100
AcDbEntity
  8
D000122
  6
Continuous
 62
     7
100
AcDbLine
 10
134.4529539912
 20
168.6704236872
 30
0.0
 11
133.4660952168
 21
168.6704236872
 31
0.0
  0
LINE
  5
1A5
330
126
100
AcDbEntity
  8
D000122
  6
Continuous
 62
     7
100
AcDbLine
 10
133.3676417974
 20
168.1704236872
 30
0.0
 11
136.0028502221
 21
168.1704236872
 31
0.0
  0
LINE
  5
1A6
330
126
100
AcDbEntity
  8
D000122
  6
Continuous
 62
     7
100
AcDbLine
 10
137.9029539912
 20
161.6704236872
 30
0.0
 11
137.9029539912
 21
162.2381315124
 31
0.0
  0
ARC
  5
1A7
330
126
100
AcDbEntity
  8
D000122
  6
Continuous
 62
     7
100
AcDbCircle
 10
137.2529539912
 20
161.1704236872
 30
0.0
 40
1.25
100
AcDbArc
 50
58.6677485024
 51
61.3145979859
  0
LINE
  5
1A8
330
126
100
AcDbEntity
  8
D000122
  6
Continuous
 62
     7
100
AcDbLine
 10
133.5908219568
 20
164.049207558
 30
0.0
 11
131.3150860255
 21
164.049207558
 31
0.0
  0
ARC
  5
1A9
330
126
100
AcDbEntity
  8
D000122
  6
Continuous
 62
     7
100
AcDbCircle
 10
127.6529539912
 20
161.1704236872
 30
0.0
 40
1.25
100
AcDbArc
 50
118.6854020141
 51
121.3322514976
  0
LINE
  5
1AA
330
126
100
AcDbEntity
  8
D000122
  6
Continuous
 62
     7
100
AcDbLine
 10
127.0029539912
 20
162.2381315124
 30
0.0
 11
127.0029539912
 21
161.6704236872
 31
0.0
  0
ELLIPSE
  5
1AB
330
126
100
AcDbEntity
  8
D000122
  6
Continuous
 62
     7
100
AcDbEllipse
 10
133.3676417974
 20
167.6704236872
 30
0.0
 11
1.084202172485504E-16
 21
0.5000000000000022
 31
0.0
210
0.0
220
0.0
230
1.0
 40
0.3057306815
 41
0.0
 42
1.221730476396032
  0
ARC
  5
1AC
330
126
100
AcDbEntity
  8
D000122
  6
Continuous
 62
     7
100
AcDbCircle
 10
136.0028502221
 20
167.6704236872
 30
0.0
 40
0.5000000000000022
100
AcDbArc
 50
20.0
 51
90.0
  0
LINE
  5
1AD
330
126
100
AcDbEntity
  8
D000122
  6
Continuous
 62
     7
100
AcDbLine
 10
133.2649902111
 20
168.2098377875
 30
0.0
 11
133.2239953648
 21
167.8414337589
 31
0.0
  0
LINE
  5
1AE
330
126
100
AcDbEntity
  8
D000122
  6
Continuous
 62
     7
100
AcDbLine
 10
128.4332114499
 20
167.8414337589
 30
0.0
 11
127.2790581713
 21
164.6704236872
 31
0.0
  0
LINE
  5
1AF
330
126
100
AcDbEntity
  8
D000122
  6
Continuous
 62
     7
100
AcDbLine
 10
137.6268498111
 20
164.6704236872
 30
0.0
 11
136.4726965325
 21
167.8414337589
 31
0.0
  0
ARC
  5
1B0
330
126
100
AcDbEntity
  8
D000122
  6
Continuous
 62
     7
100
AcDbCircle
 10
127.6529539912
 20
161.1704236872
 30
0.0
 40
1.25
100
AcDbArc
 50
121.3322514976
 51
124.5429734677
  0
ARC
  5
1B1
330
126
100
AcDbEntity
  8
D000122
  6
Continuous
 62
     7
100
AcDbCircle
 10
127.6529539912
 20
161.1704236872
 30
0.0
 40
1.25
100
AcDbArc
 50
153.3976310931
 51
206.6017240241
  0
ARC
  5
1B2
330
126
100
AcDbEntity
  8
D000122
  6
Continuous
 62
     7
100
AcDbCircle
 10
137.2529539912
 20
161.1704236872
 30
0.0
 40
1.25
100
AcDbArc
 50
333.3982759759
 51
26.6023689069
  0
ARC
  5
1B3
330
126
100
AcDbEntity
  8
D000122
  6
Continuous
 62
     7
100
AcDbCircle
 10
137.2529539912
 20
161.1704236872
 30
0.0
 40
1.25
100
AcDbArc
 50
55.4570265323
 51
58.6677485024
  0
ELLIPSE
  5
1B4
330
126
100
AcDbEntity
  8
D000122
  6
Continuous
 62
     7
100
AcDbEllipse
 10
133.4660952168
 20
167.9704236872
 30
0.0
 11
2.168404344971009E-16
 21
0.6999999999999993
 31
0.0
210
0.0
220
0.0
230
1.0
 40
0.3057306815
 41
0.000000000000001
 42
1.221730476396039
  0
LINE
  5
1B6
330
126
100
AcDbEntity
  8
DV2_Standard
  6
CENTER2
 62
     7
100
AcDbLine
 10
132.4529539912
 20
152.1704236872
 30
0.0
 11
132.4529539912
 21
162.1704236872
 31
0.0
  0
ENDBLK
  5
1B8
330
126
100
AcDbEntity
  8
0
100
AcDbBlockEnd
  0
ENDSEC
  0
SECTION
  2
ENTITIES
  0
INSERT
  5
60
330
1F
100
AcDbEntity
  8
Standard
100
AcDbBlockReference
  2
SE
 10
0.0
 20
0.0
 30
0.0
  0
DIMENSION
  5
108
330
1F
100
AcDbEntity
  8
Standard
  6
Continuous
 62
     7
100
AcDbDimension
  2
DMBLK406
 10
68.4192846359
 20
147.2086260976
 30
0.0
 11
75.1192844303
 21
147.2086260976
 31
0.0
 70
   161
  1
\A1;<>
 71
     5
 42
-1.0
 73
     0
 74
     0
 75
     0
  3
E-Katalog
100
AcDbAlignedDimension
 13
68.4192846359
 23
156.2704273449
 33
0.0
 14
81.8192842127
 24
156.2704233909
 34
0.0
  0
DIMENSION
  5
112
330
1F
100
AcDbEntity
  8
Standard
  6
Continuous
 62
     7
100
AcDbDimension
  2
DMBLK407
 10
75.1192848052
 20
165.7773383583
 30
0.0
 11
86.696058333
 21
174.8637472946
 31
0.0
 70
   164
  1
\A1;<>
 71
     5
 42
-1.0
 73
     0
 74
     0
 75
     0
  3
E-Katalog
100
AcDbRadialDimension
 15
82.9856451765
 25
171.9515083032
 35
0.0
 40
0.0
1001
ACAD
1000
DSTYLE
1002
{
1070
   271
1070
     2
1070
   283
1070
     1
1070
     0
1002
}
  0
DIMENSION
  5
11A
330
1F
100
AcDbEntity
  8
Standard
  6
Continuous
 62
     7
100
AcDbDimension
  2
DMBLK408
 10
58.5832033931
 20
175.7773383583
 30
0.0
 11
58.5832033931
 21
165.7238830898
 31
0.0
 70
   160
  1
\A1;<>{\H0.7x; \S+4^ 0;}
 71
     5
 42
-1.0
 73
     0
 74
     0
 75
     0
  3
E-Katalog
100
AcDbAlignedDimension
 13
69.0192847206
 23
155.6704272602
 33
0.0
 14
75.1192853008
 24
175.7773383583
 34
0.0
 50
90.0
100
AcDbRotatedDimension
  0
INSERT
  5
127
330
1F
100
AcDbEntity
  8
Standard
100
AcDbBlockReference
  2
SE1
 10
0.0
 20
0.0
 30
0.0
  0
MTEXT
  5
1BA
330
1F
100
AcDbEntity
  8
Default
100
AcDbMText
 10
139.6221177889
 20
28.161474171
 30
0.0
 40
2.5
 41
60.0887616677
 46
5.4782708696
 71
     4
 72
     1
  1
{\fSolid Edge ISO|b0||i0||c0|p34;\C7;\H2.5;\W1.;BU-20K+}
 73
     1
 44
1.0
1001
ACAD
1000
ACAD_MTEXT_DEFINED_HEIGHT_BEGIN
1070
    46
1040
5.4782708696
1000
ACAD_MTEXT_DEFINED_HEIGHT_END
  0
LINE
  5
1BB
330
1F
100
AcDbEntity
  8
Default
  6
Continuous
 62
     7
100
AcDbLine
 10
138.2000000051
 20
9.9999999541
 30
0.0
 11
138.2000000051
 21
34.3502211504
 31
0.0
  0
MTEXT
  5
1BC
330
1F
100
AcDbEntity
  8
Default
100
AcDbMText
 10
122.5168744495
 20
17.5485405285
 30
0.0
 40
2.2
 41
15.7520375387
 46
4.0615484615
 71
     1
 72
     1
  1
{\fCiutadella Regular|b0||i0||c0|p34;\C7;\H2.2;\W0.5776;Maßst.}{\fCiutadella Regular|b0||i0||c0|p34;\C7;\H1.5;\W0.5776;/ scale}
 73
     1
 44
1.0
1001
ACAD
1000
ACAD_MTEXT_DEFINED_HEIGHT_BEGIN
1070
    46
1040
4.0615484615
1000
ACAD_MTEXT_DEFINED_HEIGHT_END
  0
MTEXT
  5
1BD
330
1F
100
AcDbEntity
  8
Default
100
AcDbMText
 10
148.2238718478
 20
15.907103298
 30
0.0
 40
2.2
 41
18.1206027323
 46
4.0615484615
 71
     5
 72
     1
  1
{\fCiutadella Regular|b0||i0||c0|p34;\C7;\H2.2;\W0.5776;Art. Nr.}{\fCiutadella Regular|b0||i0||c0|p34;\C7;\H1.5;\W0.5776;/ art. no.}
 73
     1
 44
1.0
1001
ACAD
1000
ACAD_MTEXT_DEFINED_HEIGHT_BEGIN
1070
    46
1040
4.0615484615
1000
ACAD_MTEXT_DEFINED_HEIGHT_END
  0
MTEXT
  5
1BE
330
1F
100
AcDbEntity
  8
Default
100
AcDbMText
 10
139.5512791446
 20
32.9682471949
 30
0.0
 40
2.2
 41
21.7100432289
 46
4.0615484615
 71
     1
 72
     1
  1
{\fCiutadella Regular|b0||i0||c0|p34;\C7;\H2.2;\W0.82;Benennung}{\fCiutadella Regular|b0||i0||c0|p34;\C7;\H1.5;\W0.82;/ title}
 73
     1
 44
1.0
1001
ACAD
1000
ACAD_MTEXT_DEFINED_HEIGHT_BEGIN
1070
    46
1040
4.0615484615
1000
ACAD_MTEXT_DEFINED_HEIGHT_END
  0
LINE
  5
1BF
330
1F
100
AcDbEntity
  8
Default
  6
Continuous
 62
     7
100
AcDbLine
 10
9.9999999859
 20
25.9987912971
 30
0.0
 11
199.9999999859
 21
25.9987912971
 31
0.0
  0
LINE
  5
1C0
330
1F
100
AcDbEntity
  8
Default
  6
Continuous
 62
     7
100
AcDbLine
 10
138.2000000051
 20
34.3502211504
 30
0.0
 11
199.9999999859
 21
34.3502211504
 31
0.0
  0
MTEXT
  5
1C1
330
1F
100
AcDbEntity
  8
Default
100
AcDbMText
 10
139.7786414766
 20
12.1030055624
 30
0.0
 40
3.0
 41
18.7991063348
 46
5.0845858028
 71
     4
 72
     1
  1
{\fSolid Edge ISO|b0||i0||c0|p34;\C7;\H3.;\W1.;5-330}
 73
     1
 44
1.0
1001
ACAD
1000
ACAD_MTEXT_DEFINED_HEIGHT_BEGIN
1070
    46
1040
5.0845858028
1000
ACAD_MTEXT_DEFINED_HEIGHT_END
  0
MTEXT
  5
1C2
330
1F
100
AcDbEntity
  8
Standard
100
AcDbMText
 10
128.2243715112
 20
21.9523050455
 30
0.0
 40
2.5
 41
4.125011
 46
4.0909190909
 71
     1
 72
     1
  1
{\fSolid Edge ISO|b0||i0||c0|p34;\C7;\H2.5;\W1.;mm}
 73
     1
 44
1.0
1001
ACAD
1000
ACAD_MTEXT_DEFINED_HEIGHT_BEGIN
1070
    46
1040
4.0909190909
1000
ACAD_MTEXT_DEFINED_HEIGHT_END
  0
LINE
  5
1C3
330
1F
100
AcDbEntity
  8
Standard
  6
Continuous
 62
     7
100
AcDbLine
 10
138.2000000051
 20
18.2287912793
 30
0.0
 11
106.3095894048
 21
18.2287912793
 31
0.0
  0
LINE
  5
1C4
330
1F
100
AcDbEntity
  8
Standard
  6
Continuous
 62
     7
100
AcDbLine
 10
106.3095894048
 20
25.9987912971
 30
0.0
 11
106.3095894048
 21
9.9999999541
 31
0.0
  0
MTEXT
  5
1C5
330
1F
100
AcDbEntity
  8
Standard
100
AcDbMText
 10
106.9145404388
 20
25.2290846617
 30
0.0
 40
2.2
 41
14.4015494615
 46
4.0615484615
 71
     1
 72
     1
  1
{\fCiutadella Regular|b0||i0||c0|p34;\C7;\H2.2;\W0.5776;freig.}{\fCiutadella Regular|b0||i0||c0|p34;\C7;\H1.5;\W0.5776;/ appr.}
 73
     1
 44
1.0
1001
ACAD
1000
ACAD_MTEXT_DEFINED_HEIGHT_BEGIN
1070
    46
1040
4.0615484615
1000
ACAD_MTEXT_DEFINED_HEIGHT_END
  0
MTEXT
  5
1C6
330
1F
100
AcDbEntity
  8
Default
100
AcDbMText
 10
107.6188207159
 20
17.6037681847
 30
0.0
 40
2.2
 41
13.1956831311
 46
4.0615484615
 71
     1
 72
     1
  1
{\fCiutadella Regular|b0||i0||c0|p34;\C7;\H2.2;\W0.5776;Blatt}{\fCiutadella Regular|b0||i0||c0|p34;\C7;\H1.5;\W0.5776;/ sheet}
 73
     1
 44
1.0
1001
ACAD
1000
ACAD_MTEXT_DEFINED_HEIGHT_BEGIN
1070
    46
1040
4.0615484615
1000
ACAD_MTEXT_DEFINED_HEIGHT_END
  0
MTEXT
  5
1C7
330
1F
100
AcDbEntity
  8
Standard
100
AcDbMText
 10
112.0531670475
 20
14.2192192227
 30
0.0
 40
3.0
 41
3.750011
 46
4.9091009091
 71
     1
 72
     1
  1
{\fSolid Edge ISO|b0||i0||c0|p34;\C7;\H3.;\W1.;A4}
 73
     1
 44
1.0
1001
ACAD
1000
ACAD_MTEXT_DEFINED_HEIGHT_BEGIN
1070
    46
1040
4.9091009091
1000
ACAD_MTEXT_DEFINED_HEIGHT_END
  0
MTEXT
  5
1C8
330
1F
100
AcDbEntity
  8
Default
100
AcDbMText
 10
107.1395513873
 20
20.4081738308
 30
0.0
 40
2.2
 41
14.7330465525
 46
3.6
 71
     4
 72
     1
  1
{\fSolid Edge ISO|b0||i0||c0|p34;\C7;\H2.2;\W1.;02.11.2023}
 73
     1
 44
1.0
1001
ACAD
1000
ACAD_MTEXT_DEFINED_HEIGHT_BEGIN
1070
    46
1040
3.6
1000
ACAD_MTEXT_DEFINED_HEIGHT_END
  0
MTEXT
  5
1C9
330
1F
100
AcDbEntity
  8
Standard
100
AcDbMText
 10
10.6587314417
 20
33.7981133176
 30
0.0
 40
1.2
 41
127.5412685634
 46
8.1685527897
 71
     1
 72
     1
  3
{\fCiutadella Regular|b0||i0||c0|p34;\C7;\H1.2;\W0.82;Weitergabe sowie Vervielfältigung dieser vertraulichen Unterlage(n), Verwertung und Mitteilung ihres Inhalts nicht ohne unsere vorherige schriftliche Genehmigung gestattet. \P}{\fCiutadella Regula
  3
r|b0||i0||c0|p34;\C7;\H1.2;\W0.82;Zuwiderhandlungen verpflichten zu Schadenersatz. Alle Rechte für den Fall der Patenterteilung oder Gebrauchsmuster-Eintragung vorbehalten.\P}{\fCiutadella Regular|b0||i0||c0|p34;\C7;\H1.;\W0.82;The copying, use, dist
  3
ribution or disclosure of the confidential and proprietary information contained in this document(s) is strictly prohibited without prior written consent. Any breach shall subject the \P}{\fCiutadella Regular|b0||i0||c0|p34;\C7;\H1.;\W0.82;infringing
  1
 party to remedies. The owner reserves all rights in the event of the grant of a patent or the registration of a utility model or design.}
 73
     1
 44
0.9
1001
ACAD
1000
ACAD_MTEXT_DEFINED_HEIGHT_BEGIN
1070
    46
1040
8.1685527897
1000
ACAD_MTEXT_DEFINED_HEIGHT_END
  0
MTEXT
  5
1CA
330
1F
100
AcDbEntity
  8
Default
100
AcDbMText
 10
139.5531289039
 20
20.5520608538
 30
0.0
 40
2.5
 41
59.872727305
 46
4.6153946154
 71
     4
 72
     1
  1
{\fSolid Edge ISO|b0||i0||c0|p34;\C7;\H2.5;\W1.;technische Zeichnung mkt}
 73
     1
 44
1.0
1001
ACAD
1000
ACAD_MTEXT_DEFINED_HEIGHT_BEGIN
1070
    46
1040
4.6153946154
1000
ACAD_MTEXT_DEFINED_HEIGHT_END
  0
MTEXT
  5
1CB
330
1F
100
AcDbEntity
  8
Default
100
AcDbMText
 10
139.645932934
 20
25.5772390452
 30
0.0
 40
2.2
 41
33.0612482929
 46
4.0615484615
 71
     1
 72
     1
  1
{\fCiutadella Regular|b0||i0||c0|p34;\C7;\H2.2;\W0.82;Zeichnungsart}{\fCiutadella Regular|b0||i0||c0|p34;\C7;\H1.5;\W0.82;/ drawing type}
 73
     1
 44
1.0
1001
ACAD
1000
ACAD_MTEXT_DEFINED_HEIGHT_BEGIN
1070
    46
1040
4.0615484615
1000
ACAD_MTEXT_DEFINED_HEIGHT_END
  0
MTEXT
  5
1CC
330
1F
100
AcDbEntity
  8
Standard
100
AcDbMText
 10
122.722860057
 20
25.1473558409
 30
0.0
 40
2.2
 41
15.8428315128
 46
4.0615484615
 71
     1
 72
     1
  1
{\fCiutadella Regular|b0||i0||c0|p34;\C7;\H2.2;\W0.5776;Einheit}{\fCiutadella Regular|b0||i0||c0|p34;\C7;\H1.5;\W0.5776;/ unit}
 73
     1
 44
1.0
1001
ACAD
1000
ACAD_MTEXT_DEFINED_HEIGHT_BEGIN
1070
    46
1040
4.0615484615
1000
ACAD_MTEXT_DEFINED_HEIGHT_END
  0
LINE
  5
1CD
330
1F
100
AcDbEntity
  8
Standard
  6
Continuous
 62
     7
100
AcDbLine
 10
122.1841943695
 20
25.9987912971
 30
0.0
 11
122.1841943695
 21
10.0
 31
0.0
  0
LINE
  5
1CE
330
1F
100
AcDbEntity
  8
Standard
  6
Continuous
 62
     7
100
AcDbLine
 10
138.2000000051
 20
18.2287912793
 30
0.0
 11
200.0
 21
18.2287912793
 31
0.0
  0
LINE
  5
1CF
330
1F
100
AcDbEntity
  8
Standard
  6
Continuous
 62
     7
100
AcDbLine
 10
138.2000000051
 20
34.3502211504
 30
0.0
 11
10.0
 21
34.3502211504
 31
0.0
  0
LINE
  5
1D1
330
1F
100
AcDbEntity
  8
Skizziergeometrie(DIN)
  6
Continuous
 62
     7
100
AcDbLine
 10
10.0
 20
287.0
 30
0.0
 11
200.0
 21
287.0
 31
0.0
  0
LINE
  5
1D2
330
1F
100
AcDbEntity
  8
Skizziergeometrie(DIN)
  6
Continuous
 62
     7
100
AcDbLine
 10
200.0
 20
287.0
 30
0.0
 11
200.0
 21
9.9999926436
 31
0.0
  0
LINE
  5
1D3
330
1F
100
AcDbEntity
  8
Skizziergeometrie(DIN)
  6
Continuous
 62
     7
100
AcDbLine
 10
200.0
 20
9.9999926436
 30
0.0
 11
10.0
 21
9.9999926436
 31
0.0
  0
LINE
  5
1D4
330
1F
100
AcDbEntity
  8
Skizziergeometrie(DIN)
  6
Continuous
 62
     7
100
AcDbLine
 10
10.0
 20
10.0
 30
0.0
 11
10.0
 21
287.0
 31
0.0
  0
MTEXT
  5
1D5
330
1F
100
AcDbEntity
  8
Standard
100
AcDbMText
 10
127.9218611799
 20
14.0080680645
 30
0.0
 40
3.0
 41
3.225011
 46
4.9091009091
 71
     1
 72
     1
  1
{\fSolid Edge ISO|b0||i0||c0|p34;\C7;\H3.;\W1.;1:1}
 73
     1
 44
1.0
1001
ACAD
1000
ACAD_MTEXT_DEFINED_HEIGHT_BEGIN
1070
    46
1040
4.9091009091
1000
ACAD_MTEXT_DEFINED_HEIGHT_END
  0
IMAGE
  5
1D9
330
1F
100
AcDbEntity
  8
0
 92
      140
310
8C000000010000008400000006000000050000000E64D78BE9972B40BC01B030F29425400000000000000000559114E8E5774740BC01B030F29425400000000000000000559114E8E5774740017F9619FA7E384000000000000000000E64D78BE9972B40017F9619FA7E384000000000000000000E64D78BE9972B40BC01B0
310
30F29425400000000000000000
100
AcDbRasterImage
 90
        0
 10
13.7967036915
 20
10.7909102645
 30
0.0
 11
0.07742990654205607
 21
0.0
 31
0.0
 12
0.0
 22
0.07742990654205609
 32
0.0
 13
428.0
 23
177.0
340
1D8
 70
     7
280
     0
281
    50
282
    50
283
     0
360
1DA
 71
     1
 91
        2
 14
-0.5
 24
-0.5
 14
427.5
 24
176.5
  0
ENDSEC
  0
SECTION
  2
OBJECTS
  0
DICTIONARY
  5
C
330
0
100
AcDbDictionary
281
     1
  3
ACAD_DETAILVIEWSTYLE
350
216
  3
ACAD_GROUP
350
D
  3
ACAD_IMAGE_DICT
350
1D7
  3
ACAD_IMAGE_VARS
350
1D6
  3
ACAD_LAYOUT
350
1A
  3
ACAD_MATERIAL
350
43
  3
ACAD_MLEADERSTYLE
350
5B
  3
ACAD_MLINESTYLE
350
17
  3
ACAD_PLOTSETTINGS
350
19
  3
ACAD_PLOTSTYLENAME
350
E
  3
ACAD_SCALELIST
350
47
  3
ACAD_SECTIONVIEWSTYLE
350
217
  3
ACAD_TABLESTYLE
350
59
  3
ACAD_VISUALSTYLE
350
2A
  3
ACDB_RECOMPOSE_DATA
350
213
  3
AcDbVariableDictionary
350
1DB
  0
SUN
  5
5D
330
29
100
AcDbSun
 90
        1
290
     0
 63
     7
421
 16777215
 40
1.0
291
     1
 91
  2455826
 92
 54000000
292
     0
 70
     2
 71
   256
280
     1
  0
IMAGEDEF_REACTOR
  5
1DA
330
1D9
100
AcDbRasterImageDefReactor
 90
        2
330
1D9
  0
DICTIONARY
  5
216
102
{ACAD_REACTORS
330
C
102
}
330
C
100
AcDbDictionary
281
     1
  0
DICTIONARY
  5
D
102
{ACAD_REACTORS
330
C
102
}
330
C
100
AcDbDictionary
281
     1
  0
DICTIONARY
  5
1D7
102
{ACAD_REACTORS
330
C
102
}
330
C
100
AcDbDictionary
281
     1
  3
BU-20K+-1x_1.bmp
350
1D8
  0
RASTERVARIABLES
  5
1D6
102
{ACAD_REACTORS
330
C
102
}
330
C
100
AcDbRasterVariables
 90
        0
 70
     1
 71
     1
 72
     1
  0
DICTIONARY
  5
1A
102
{ACAD_REACTORS
330
C
102
}
330
C
100
AcDbDictionary
281
     1
  3
Layout1
350
1E
  3
Model
350
22
  0
DICTIONARY
  5
43
102
{ACAD_REACTORS
330
C
102
}
330
C
100
AcDbDictionary
281
     1
  3
ByBlock
350
45
  3
ByLayer
350
44
  3
Global
350
46
  0
DICTIONARY
  5
5B
102
{ACAD_REACTORS
330
C
102
}
330
C
100
AcDbDictionary
281
     1
  3
Standard
350
5C
  0
DICTIONARY
  5
17
102
{ACAD_REACTORS
330
C
102
}
330
C
100
AcDbDictionary
281
     1
  3
Standard
350
18
  0
DICTIONARY
  5
19
102
{ACAD_REACTORS
330
C
102
}
330
C
100
AcDbDictionary
281
     1
  0
ACDBDICTIONARYWDFLT
  5
E
102
{ACAD_REACTORS
330
C
102
}
330
C
100
AcDbDictionary
281
     1
  3
Normal
350
F
100
AcDbDictionaryWithDefault
340
F
  0
DICTIONARY
  5
47
102
{ACAD_REACTORS
330
C
102
}
330
C
100
AcDbDictionary
281
     1
  3
A0
350
48
  3
A1
350
49
  3
A2
350
4A
  3
A3
350
4B
  3
A4
350
4C
  3
A5
350
4D
  3
A6
350
4E
  3
A7
350
4F
  3
A8
350
50
  3
A9
350
51
  3
B0
350
52
  3
B1
350
53
  3
B2
350
54
  3
B3
350
55
  3
B4
350
56
  3
B5
350
57
  3
B6
350
58
  0
DICTIONARY
  5
217
102
{ACAD_REACTORS
330
C
102
}
330
C
100
AcDbDictionary
281
     1
  0
DICTIONARY
  5
59
102
{ACAD_REACTORS
330
C
102
}
330
C
100
AcDbDictionary
281
     1
  3
Standard
350
5A
  0
DICTIONARY
  5
2A
102
{ACAD_REACTORS
330
C
102
}
330
C
100
AcDbDictionary
281
     1
  3
2dWireframe
350
2F
  3
Basic
350
32
  3
Brighten
350
36
  3
ColorChange
350
3A
  3
Conceptual
350
34
  3
Dim
350
35
  3
EdgeColorOff
350
3D
  3
Facepattern
350
39
  3
Flat
350
2B
  3
FlatWithEdges
350
2C
  3
Gouraud
350
2D
  3
GouraudWithEdges
350
2E
  3
Hidden
350
31
  3
JitterOff
350
3B
  3
Linepattern
350
38
  3
OverhangOff
350
3C
  3
Realistic
350
33
  3
Shaded
350
42
  3
Shaded with edges
350
41
  3
Shades of Gray
350
3E
  3
Sketchy
350
3F
  3
Thicken
350
37
  3
Wireframe
350
30
  3
X-Ray
350
40
  0
XRECORD
  5
213
102
{ACAD_REACTORS
330
C
102
}
330
C
100
AcDbXrecord
280
     1
 90
        1
330
5A
  0
DICTIONARY
  5
1DB
102
{ACAD_REACTORS
330
C
102
}
330
C
100
AcDbDictionary
281
     1
  3
CANNOSCALE
350
1DC
  3
CENTEREXE
350
218
  3
CENTERLTYPEFILE
350
219
  3
CMLEADERSTYLE
350
215
  3
CTABLESTYLE
350
214
  3
XCLIPFRAME
350
1DD
  0
IMAGEDEF
  5
1D8
102
{ACAD_REACTORS
330
1D7
330
1DA
102
}
330
1D7
100
AcDbRasterImageDef
 90
        0
  1
BU-20K+-1x_1.bmp
 10
428.0
 20
177.0
 11
0.002336448598130841
 21
0.002336448598130841
280
     1
281
     5
  0
LAYOUT
  5
1E
102
{ACAD_REACTORS
330
1A
102
}
330
1A
100
AcDbPlotSettings
  1

  2
none_device
  4

  6

 40
0.0
 41
0.0
 42
0.0
 43
0.0
 44
0.0
 45
0.0
 46
0.0
 47
0.0
 48
0.0
 49
0.0
140
0.0
141
0.0
142
1.0
143
1.0
 70
   688
 72
     1
 73
     0
 74
     5
  7

 75
    16
 76
     0
 77
     2
 78
   300
147
1.0
148
0.0
149
0.0
100
AcDbLayout
  1
Layout1
 70
     1
 71
     1
 10
0.0
 20
0.0
 11
210.0
 21
297.0
 12
0.0
 22
0.0
 32
0.0
 14
0.0
 24
0.0
 34
0.0
 15
210.0
 25
297.0
 35
0.0
146
0.0
 13
0.0
 23
0.0
 33
0.0
 16
1.0
 26
0.0
 36
0.0
 17
0.0
 27
1.0
 37
0.0
 76
     0
330
1B
  0
LAYOUT
  5
22
102
{ACAD_REACTORS
330
1A
102
}
330
1A
100
AcDbPlotSettings
  1

  2
none_device
  4
Letter_(8.50_x_11.00_Inches)
  6

 40
6.35
 41
6.35
 42
6.35000508
 43
6.35000508
 44
215.9
 45
279.4
 46
0.0
 47
0.0
 48
0.0
 49
0.0
140
0.0
141
0.0
142
1.0
143
1.0
 70
  1712
 72
     1
 73
     0
 74
     0
  7

 75
     0
 76
     0
 77
     2
 78
   300
147
1.0
148
0.0
149
0.0
100
AcDbLayout
  1
Model
 70
     1
 71
     0
 10
0.0
 20
0.0
 11
210.0
 21
297.0
 12
0.0
 22
0.0
 32
0.0
 14
0.0
 24
0.0
 34
0.0
 15
210.0
 25
297.0
 35
0.0
146
0.0
 13
0.0
 23
0.0
 33
0.0
 16
1.0
 26
0.0
 36
0.0
 17
0.0
 27
1.0
 37
0.0
 76
     0
330
1F
331
29
  0
MATERIAL
  5
45
102
{ACAD_REACTORS
330
43
102
}
330
43
100
AcDbMaterial
  1
ByBlock
 72
     1
 94
      127
  0
MATERIAL
  5
44
102
{ACAD_REACTORS
330
43
102
}
330
43
100
AcDbMaterial
  1
ByLayer
 72
     1
 94
      127
  0
MATERIAL
  5
46
102
{ACAD_REACTORS
330
43
102
}
330
43
100
AcDbMaterial
  1
Global
 72
     1
 94
      127
  0
MLEADERSTYLE
  5
5C
102
{ACAD_REACTORS
330
5B
102
}
102
{ACAD_XDICTIONARY
360
211
102
}
330
5B
100
AcDbMLeaderStyle
170
     2
171
     1
172
     0
 90
        2
 40
0.0
 41
0.0
173
     1
 91
-1056964608
340
14
 92
       -2
290
     1
 42
2.0
291
     1
 43
8.0
  3
Standard
341
0
 44
4.0
300

342
11
174
     1
178
     6
175
     1
176
     0
 93
-1056964608
 45
4.0
292
     0
297
     0
 46
4.0
343
0
 94
-1056964608
 47
1.0
 49
1.0
140
1.0
293
     1
141
0.0
294
     1
177
     0
142
1.0
295
     0
296
     0
143
3.75
1001
ACAD_MLEADERVER
1070
     2
  0
MLINESTYLE
  5
18
102
{ACAD_REACTORS
330
17
102
}
330
17
100
AcDbMlineStyle
  2
Standard
 70
     0
  3

 62
   256
 51
90.0
 52
90.0
 71
     2
 49
0.5
 62
   256
  6
BYLAYER
 49
-0.5
 62
   256
  6
BYLAYER
  0
ACDBPLACEHOLDER
  5
F
102
{ACAD_REACTORS
330
E
102
}
330
E
  0
SCALE
  5
48
102
{ACAD_REACTORS
330
47
102
}
330
47
100
AcDbScale
 70
     0
300
1:1
140
1.0
141
1.0
290
     1
  0
SCALE
  5
49
102
{ACAD_REACTORS
330
47
102
}
330
47
100
AcDbScale
 70
     0
300
1:2
140
1.0
141
2.0
290
     0
  0
SCALE
  5
4A
102
{ACAD_REACTORS
330
47
102
}
330
47
100
AcDbScale
 70
     0
300
1:4
140
1.0
141
4.0
290
     0
  0
SCALE
  5
4B
102
{ACAD_REACTORS
330
47
102
}
330
47
100
AcDbScale
 70
     0
300
1:5
140
1.0
141
5.0
290
     0
  0
SCALE
  5
4C
102
{ACAD_REACTORS
330
47
102
}
330
47
100
AcDbScale
 70
     0
300
1:8
140
1.0
141
8.0
290
     0
  0
SCALE
  5
4D
102
{ACAD_REACTORS
330
47
102
}
330
47
100
AcDbScale
 70
     0
300
1:10
140
1.0
141
10.0
290
     0
  0
SCALE
  5
4E
102
{ACAD_REACTORS
330
47
102
}
330
47
100
AcDbScale
 70
     0
300
1:16
140
1.0
141
16.0
290
     0
  0
SCALE
  5
4F
102
{ACAD_REACTORS
330
47
102
}
330
47
100
AcDbScale
 70
     0
300
1:20
140
1.0
141
20.0
290
     0
  0
SCALE
  5
50
102
{ACAD_REACTORS
330
47
102
}
330
47
100
AcDbScale
 70
     0
300
1:30
140
1.0
141
30.0
290
     0
  0
SCALE
  5
51
102
{ACAD_REACTORS
330
47
102
}
330
47
100
AcDbScale
 70
     0
300
1:40
140
1.0
141
40.0
290
     0
  0
SCALE
  5
52
102
{ACAD_REACTORS
330
47
102
}
330
47
100
AcDbScale
 70
     0
300
1:50
140
1.0
141
50.0
290
     0
  0
SCALE
  5
53
102
{ACAD_REACTORS
330
47
102
}
330
47
100
AcDbScale
 70
     0
300
1:100
140
1.0
141
100.0
290
     0
  0
SCALE
  5
54
102
{ACAD_REACTORS
330
47
102
}
330
47
100
AcDbScale
 70
     0
300
2:1
140
2.0
141
1.0
290
     0
  0
SCALE
  5
55
102
{ACAD_REACTORS
330
47
102
}
330
47
100
AcDbScale
 70
     0
300
4:1
140
4.0
141
1.0
290
     0
  0
SCALE
  5
56
102
{ACAD_REACTORS
330
47
102
}
330
47
100
AcDbScale
 70
     0
300
8:1
140
8.0
141
1.0
290
     0
  0
SCALE
  5
57
102
{ACAD_REACTORS
330
47
102
}
330
47
100
AcDbScale
 70
     0
300
10:1
140
10.0
141
1.0
290
     0
  0
SCALE
  5
58
102
{ACAD_REACTORS
330
47
102
}
330
47
100
AcDbScale
 70
     0
300
100:1
140
100.0
141
1.0
290
     0
  0
TABLESTYLE
  5
5A
102
{ACAD_REACTORS
330
59
102
}
102
{ACAD_XDICTIONARY
360
20E
102
}
330
59
100
AcDbTableStyle
  3
Standard
 70
     0
 71
     0
 40
0.06
 41
0.06
280
     0
281
     0
  7
Standard
140
4.5
170
     2
 62
     0
 63
   257
283
     0
 90
        4
 91
        0
  1

274
    -2
284
     1
 64
     0
275
    -2
285
     1
 65
     0
276
    -2
286
     1
 66
     0
277
    -2
287
     1
 67
     0
278
    -2
288
     1
 68
     0
279
    -2
289
     1
 69
     0
  7
Standard
140
6.0
170
     5
 62
     0
 63
   257
283
     0
 90
        4
 91
        0
  1

274
    -2
284
     1
 64
     0
275
    -2
285
     1
 65
     0
276
    -2
286
     1
 66
     0
277
    -2
287
     1
 67
     0
278
    -2
288
     1
 68
     0
279
    -2
289
     1
 69
     0
  7
Standard
140
4.5
170
     5
 62
     0
 63
   257
283
     0
 90
        4
 91
        0
  1

274
    -2
284
     1
 64
     0
275
    -2
285
     1
 65
     0
276
    -2
286
     1
 66
     0
277
    -2
287
     1
 67
     0
278
    -2
288
     1
 68
     0
279
    -2
289
     1
 69
     0
  0
VISUALSTYLE
  5
2F
102
{ACAD_REACTORS
330
2A
102
}
102
{ACAD_XDICTIONARY
360
1E6
102
}
330
2A
100
AcDbVisualStyle
  2
2dWireframe
 70
     4
 71
     0
 72
     2
 73
     0
 90
        0
 40
0.6
 41
30.0
 62
     5
 63
     7
421
 16777215
 74
     1
 91
        4
 64
     7
 65
   257
 75
     1
175
     1
 42
1.0
 92
        0
 66
   257
 43
1.0
 76
     1
 77
     6
 78
     2
 67
     7
 79
     5
170
     0
171
     0
290
     0
174
     0
 93
        1
 44
0.0
173
     0
291
     0
 45
0.0
  0
VISUALSTYLE
  5
32
102
{ACAD_REACTORS
330
2A
102
}
102
{ACAD_XDICTIONARY
360
1EC
102
}
330
2A
100
AcDbVisualStyle
  2
Basic
 70
     7
 71
     1
 72
     0
 73
     1
 90
        0
 40
0.6
 41
30.0
 62
     5
 63
     7
421
 16777215
 74
     0
 91
        4
 64
     7
 65
   257
 75
     1
175
     1
 42
1.0
 92
        8
 66
     7
 43
1.0
 76
     1
 77
     6
 78
     2
 67
     7
 79
     5
170
     0
171
     0
290
     0
174
     0
 93
        1
 44
0.0
173
     0
291
     1
 45
0.0
  0
VISUALSTYLE
  5
36
102
{ACAD_REACTORS
330
2A
102
}
102
{ACAD_XDICTIONARY
360
1F4
102
}
330
2A
100
AcDbVisualStyle
  2
Brighten
 70
    12
 71
     2
 72
     2
 73
     0
 90
        0
 40
0.6
 41
30.0
 62
     5
 63
     7
421
 16777215
 74
     1
 91
        4
 64
     7
 65
   257
 75
     1
175
     1
 42
1.0
 92
        8
 66
     7
 43
1.0
 76
     1
 77
     6
 78
     2
 67
     7
 79
     5
170
     0
171
     0
290
     0
174
     0
 93
        1
 44
50.0
173
     0
291
     1
 45
0.0
  0
VISUALSTYLE
  5
3A
102
{ACAD_REACTORS
330
2A
102
}
102
{ACAD_XDICTIONARY
360
1FC
102
}
330
2A
100
AcDbVisualStyle
  2
ColorChange
 70
    16
 71
     2
 72
     2
 73
     3
 90
        0
 40
0.6
 41
30.0
 62
     5
 63
     8
421
  8421504
 74
     1
 91
        4
 64
     7
 65
   257
 75
     1
175
     1
 42
1.0
 92
        8
 66
     8
424
  8421504
 43
1.0
 76
     1
 77
     6
 78
     2
 67
     7
 79
     5
170
     0
171
     0
290
     0
174
     0
 93
        1
 44
0.0
173
     0
291
     1
 45
0.0
  0
VISUALSTYLE
  5
34
102
{ACAD_REACTORS
330
2A
102
}
102
{ACAD_XDICTIONARY
360
1F0
102
}
330
2A
100
AcDbVisualStyle
  2
Conceptual
 70
     9
 71
     3
 72
     2
 73
     0
 90
        0
 40
0.6
 41
30.0
 62
     5
 63
     7
421
 16777215
 74
     2
 91
        2
 64
     7
 65
   257
 75
     1
175
     1
 42
179.0
 92
        8
 66
     7
 43
1.0
 76
     1
 77
     6
 78
     2
 67
     7
 79
     3
170
     0
171
     0
290
     0
174
     0
 93
        1
 44
0.0
173
     0
291
     0
 45
0.0
  0
VISUALSTYLE
  5
35
102
{ACAD_REACTORS
330
2A
102
}
102
{ACAD_XDICTIONARY
360
1F2
102
}
330
2A
100
AcDbVisualStyle
  2
Dim
 70
    11
 71
     2
 72
     2
 73
     0
 90
        0
 40
0.6
 41
30.0
 62
     5
 63
     7
421
 16777215
 74
     1
 91
        4
 64
     7
 65
   257
 75
     1
175
     1
 42
1.0
 92
        8
 66
     7
 43
1.0
 76
     1
 77
     6
 78
     2
 67
     7
 79
     5
170
     0
171
     0
290
     0
174
     0
 93
        1
 44
-50.0
173
     0
291
     1
 45
0.0
  0
VISUALSTYLE
  5
3D
102
{ACAD_REACTORS
330
2A
102
}
102
{ACAD_XDICTIONARY
360
202
102
}
330
2A
100
AcDbVisualStyle
  2
EdgeColorOff
 70
    22
 71
     2
 72
     2
 73
     0
 90
        0
 40
0.6
 41
30.0
 62
     5
 63
     7
421
 16777215
 74
     1
 91
        4
 64
     7
 65
   257
 75
     1
175
     1
 42
1.0
 92
        8
 66
     7
 43
1.0
 76
     1
 77
     6
 78
     2
 67
     7
 79
     5
170
     0
171
     0
290
     0
174
     0
 93
        1
 44
0.0
173
     0
291
     1
 45
0.0
  0
VISUALSTYLE
  5
39
102
{ACAD_REACTORS
330
2A
102
}
102
{ACAD_XDICTIONARY
360
1FA
102
}
330
2A
100
AcDbVisualStyle
  2
Facepattern
 70
    15
 71
     2
 72
     2
 73
     0
 90
        0
 40
0.6
 41
30.0
 62
     5
 63
     7
421
 16777215
 74
     1
 91
        4
 64
     7
 65
   257
 75
     1
175
     1
 42
1.0
 92
        8
 66
     7
 43
1.0
 76
     1
 77
     6
 78
     2
 67
     7
 79
     5
170
     0
171
     0
290
     0
174
     0
 93
        1
 44
0.0
173
     0
291
     1
 45
0.0
  0
VISUALSTYLE
  5
2B
102
{ACAD_REACTORS
330
2A
102
}
102
{ACAD_XDICTIONARY
360
1DE
102
}
330
2A
100
AcDbVisualStyle
  2
Flat
 70
     0
 71
     2
 72
     1
 73
     1
 90
        2
 40
0.6
 41
30.0
 62
     5
 63
     7
421
 16777215
 74
     0
 91
        0
 64
     7
 65
   257
 75
     1
175
     1
 42
1.0
 92
        8
 66
     7
 43
1.0
 76
     1
 77
     6
 78
     2
 67
     7
 79
     5
170
     0
171
     0
290
     0
174
     0
 93
       13
 44
0.0
173
     0
291
     1
 45
0.0
  0
VISUALSTYLE
  5
2C
102
{ACAD_REACTORS
330
2A
102
}
102
{ACAD_XDICTIONARY
360
1E0
102
}
330
2A
100
AcDbVisualStyle
  2
FlatWithEdges
 70
     1
 71
     2
 72
     1
 73
     1
 90
        2
 40
0.6
 41
30.0
 62
     5
 63
     7
421
 16777215
 74
     1
 91
        0
 64
     7
 65
   257
 75
     1
175
     1
 42
1.0
 92
        0
 66
   257
 43
1.0
 76
     1
 77
     6
 78
     2
 67
     7
 79
     5
170
     0
171
     0
290
     0
174
     0
 93
       13
 44
0.0
173
     0
291
     1
 45
0.0
  0
VISUALSTYLE
  5
2D
102
{ACAD_REACTORS
330
2A
102
}
102
{ACAD_XDICTIONARY
360
1E2
102
}
330
2A
100
AcDbVisualStyle
  2
Gouraud
 70
     2
 71
     2
 72
     2
 73
     1
 90
        2
 40
0.6
 41
30.0
 62
     5
 63
     7
421
 16777215
 74
     0
 91
        0
 64
     7
 65
   257
 75
     1
175
     1
 42
1.0
 92
        0
 66
     7
 43
1.0
 76
     1
 77
     6
 78
     2
 67
     7
 79
     5
170
     0
171
     0
290
     0
174
     0
 93
       13
 44
0.0
173
     0
291
     1
 45
0.0
  0
VISUALSTYLE
  5
2E
102
{ACAD_REACTORS
330
2A
102
}
102
{ACAD_XDICTIONARY
360
1E4
102
}
330
2A
100
AcDbVisualStyle
  2
GouraudWithEdges
 70
     3
 71
     2
 72
     2
 73
     1
 90
        2
 40
0.6
 41
30.0
 62
     5
 63
     7
421
 16777215
 74
     1
 91
        0
 64
     7
 65
   257
 75
     1
175
     1
 42
1.0
 92
        0
 66
   257
 43
1.0
 76
     1
 77
     6
 78
     2
 67
     7
 79
     5
170
     0
171
     0
290
     0
174
     0
 93
       13
 44
0.0
173
     0
291
     1
 45
0.0
  0
VISUALSTYLE
  5
31
102
{ACAD_REACTORS
330
2A
102
}
102
{ACAD_XDICTIONARY
360
1EA
102
}
330
2A
100
AcDbVisualStyle
  2
Hidden
 70
     6
 71
     1
 72
     2
 73
     2
 90
        0
 40
0.6
 41
30.0
 62
     5
 63
     7
421
 16777215
 74
     2
 91
        2
 64
     7
 65
   257
 75
     2
175
     1
 42
40.0
 92
        0
 66
   257
 43
1.0
 76
     1
 77
     6
 78
     2
 67
     7
 79
     3
170
     0
171
     0
290
     0
174
     0
 93
        1
 44
0.0
173
     0
291
     0
 45
0.0
  0
VISUALSTYLE
  5
3B
102
{ACAD_REACTORS
330
2A
102
}
102
{ACAD_XDICTIONARY
360
1FE
102
}
330
2A
100
AcDbVisualStyle
  2
JitterOff
 70
    20
 71
     2
 72
     2
 73
     0
 90
        0
 40
0.6
 41
30.0
 62
     5
 63
     7
421
 16777215
 74
     1
 91
        4
 64
     7
 65
   257
 75
     1
175
     1
 42
1.0
 92
       10
 66
     7
 43
1.0
 76
     1
 77
     6
 78
     2
 67
     7
 79
     5
170
     0
171
     0
290
     0
174
     0
 93
        1
 44
0.0
173
     0
291
     1
 45
0.0
  0
VISUALSTYLE
  5
38
102
{ACAD_REACTORS
330
2A
102
}
102
{ACAD_XDICTIONARY
360
1F8
102
}
330
2A
100
AcDbVisualStyle
  2
Linepattern
 70
    14
 71
     2
 72
     2
 73
     0
 90
        0
 40
0.6
 41
30.0
 62
     5
 63
     7
421
 16777215
 74
     1
 91
        4
 64
     7
 65
   257
 75
     7
175
     7
 42
1.0
 92
        8
 66
     7
 43
1.0
 76
     1
 77
     6
 78
     2
 67
     7
 79
     5
170
     0
171
     0
290
     0
174
     0
 93
        1
 44
0.0
173
     0
291
     1
 45
0.0
  0
VISUALSTYLE
  5
3C
102
{ACAD_REACTORS
330
2A
102
}
102
{ACAD_XDICTIONARY
360
200
102
}
330
2A
100
AcDbVisualStyle
  2
OverhangOff
 70
    21
 71
     2
 72
     2
 73
     0
 90
        0
 40
0.6
 41
30.0
 62
     5
 63
     7
421
 16777215
 74
     1
 91
        4
 64
     7
 65
   257
 75
     1
175
     1
 42
1.0
 92
        9
 66
     7
 43
1.0
 76
     1
 77
     6
 78
     2
 67
     7
 79
     5
170
     0
171
     0
290
     0
174
     0
 93
        1
 44
0.0
173
     0
291
     1
 45
0.0
  0
VISUALSTYLE
  5
33
102
{ACAD_REACTORS
330
2A
102
}
102
{ACAD_XDICTIONARY
360
1EE
102
}
330
2A
100
AcDbVisualStyle
  2
Realistic
 70
     8
 71
     2
 72
     3
 73
     0
 90
        2
 40
0.6
 41
30.0
 62
     5
 63
     7
421
 16777215
 74
     0
 91
        0
 64
     7
 65
   257
 75
     1
175
     1
 42
1.0
 92
        8
 66
   257
 43
1.0
 76
     1
 77
     6
 78
     2
 67
     7
 79
     3
170
     0
171
     0
290
     0
174
     0
 93
       13
 44
0.0
173
     0
291
     0
 45
0.0
  0
VISUALSTYLE
  5
42
102
{ACAD_REACTORS
330
2A
102
}
102
{ACAD_XDICTIONARY
360
20C
102
}
330
2A
100
AcDbVisualStyle
  2
Shaded
 70
    27
 71
     2
 72
     2
 73
     1
 90
        2
 40
0.6
 41
30.0
 62
     5
 63
     7
421
 16777215
 74
     0
 91
        4
 64
     7
 65
   257
 75
     1
175
     1
 42
1.0
 92
        8
 66
   257
 43
1.0
 76
     1
 77
     6
 78
     2
 67
     8
425
  7895160
 79
     3
170
     0
171
     0
290
     0
174
     0
 93
        5
 44
0.0
173
     0
291
     0
 45
0.0
  0
VISUALSTYLE
  5
41
102
{ACAD_REACTORS
330
2A
102
}
102
{ACAD_XDICTIONARY
360
20A
102
}
330
2A
100
AcDbVisualStyle
  2
Shaded with edges
 70
    26
 71
     2
 72
     2
 73
     1
 90
        2
 40
0.6
 41
30.0
 62
     5
 63
     7
421
 16777215
 74
     1
 91
       10
 64
     7
 65
   257
 75
     2
175
     1
 42
1.0
 92
        8
 66
   257
 43
1.0
 76
     1
 77
     6
 78
     2
 67
     7
 79
     3
170
     0
171
     0
290
     0
174
     0
 93
        5
 44
0.0
173
     0
291
     0
 45
0.0
  0
VISUALSTYLE
  5
3E
102
{ACAD_REACTORS
330
2A
102
}
102
{ACAD_XDICTIONARY
360
204
102
}
330
2A
100
AcDbVisualStyle
  2
Shades of Gray
 70
    23
 71
     2
 72
     2
 73
     3
 90
        0
 40
0.6
 41
30.0
 62
     5
 63
     7
421
 16777215
 74
     2
 91
        2
 64
     7
 65
     7
 75
     1
175
     1
 42
40.0
 92
        8
 66
     7
 43
1.0
 76
     1
 77
     6
 78
     2
 67
     7
 79
     3
170
     0
171
     0
290
     0
174
     0
 93
        1
 44
0.0
173
     0
291
     0
 45
0.0
  0
VISUALSTYLE
  5
3F
102
{ACAD_REACTORS
330
2A
102
}
102
{ACAD_XDICTIONARY
360
206
102
}
330
2A
100
AcDbVisualStyle
  2
Sketchy
 70
    24
 71
     1
 72
     2
 73
     2
 90
        0
 40
0.6
 41
30.0
 62
     5
 63
     7
421
 16777215
 74
     2
 91
        2
 64
     7
 65
     7
 75
     1
175
     1
 42
40.0
 92
       11
 66
     7
 43
1.0
 76
     1
 77
     6
 78
     2
 67
     7
 79
     6
170
     0
171
     0
290
     0
174
     0
 93
        1
 44
0.0
173
     0
291
     0
 45
0.0
  0
VISUALSTYLE
  5
37
102
{ACAD_REACTORS
330
2A
102
}
102
{ACAD_XDICTIONARY
360
1F6
102
}
330
2A
100
AcDbVisualStyle
  2
Thicken
 70
    13
 71
     2
 72
     2
 73
     0
 90
        0
 40
0.6
 41
30.0
 62
     5
 63
     7
421
 16777215
 74
     1
 91
        4
 64
     7
 65
   257
 75
     1
175
     1
 42
1.0
 92
       12
 66
     7
 43
1.0
 76
     1
 77
     6
 78
     2
 67
     7
 79
     5
170
     0
171
     0
290
     0
174
     0
 93
        1
 44
0.0
173
     0
291
     1
 45
0.0
  0
VISUALSTYLE
  5
30
102
{ACAD_REACTORS
330
2A
102
}
102
{ACAD_XDICTIONARY
360
1E8
102
}
330
2A
100
AcDbVisualStyle
  2
Wireframe
 70
     5
 71
     0
 72
     2
 73
     0
 90
        0
 40
0.6
 41
30.0
 62
     5
 63
     7
421
 16777215
 74
     1
 91
        4
 64
     7
 65
   257
 75
     1
175
     1
 42
1.0
 92
        0
 66
   257
 43
1.0
 76
     1
 77
     6
 78
     2
 67
     7
 79
     3
170
     0
171
     0
290
     0
174
     0
 93
        1
 44
0.0
173
     0
291
     0
 45
0.0
  0
VISUALSTYLE
  5
40
102
{ACAD_REACTORS
330
2A
102
}
102
{ACAD_XDICTIONARY
360
208
102
}
330
2A
100
AcDbVisualStyle
  2
X-Ray
 70
    25
 71
     2
 72
     2
 73
     1
 90
        1
 40
0.5
 41
30.0
 62
     5
 63
     7
421
 16777215
 74
     1
 91
        0
 64
     7
 65
   257
 75
     1
175
     1
 42
1.0
 92
        8
 66
     7
 43
1.0
 76
     1
 77
     6
 78
     2
 67
     7
 79
     3
170
     0
171
     0
290
     0
174
     0
 93
       13
 44
0.0
173
     0
291
     0
 45
0.0
  0
DICTIONARYVAR
  5
1DC
102
{ACAD_REACTORS
330
1DB
102
}
330
1DB
100
DictionaryVariables
280
     0
  1
1:1
  0
DICTIONARYVAR
  5
218
102
{ACAD_REACTORS
330
1DB
102
}
330
1DB
100
DictionaryVariables
280
     0
  1
3.500000
  0
DICTIONARYVAR
  5
219
102
{ACAD_REACTORS
330
1DB
102
}
330
1DB
100
DictionaryVariables
280
     0
  1
acadiso.lin
  0
DICTIONARYVAR
  5
215
102
{ACAD_REACTORS
330
1DB
102
}
330
1DB
100
DictionaryVariables
280
     0
  1
Standard
  0
DICTIONARYVAR
  5
214
102
{ACAD_REACTORS
330
1DB
102
}
330
1DB
100
DictionaryVariables
280
     0
  1
Standard
  0
DICTIONARYVAR
  5
1DD
102
{ACAD_REACTORS
330
1DB
102
}
330
1DB
100
DictionaryVariables
280
     0
  1
2
  0
DICTIONARY
  5
211
330
5C
100
AcDbDictionary
280
     1
281
     1
  3
ACAD_XREC_ROUNDTRIP
360
212
  0
DICTIONARY
  5
20E
330
5A
100
AcDbDictionary
280
     1
281
     1
  3
ACAD_ROUNDTRIP_2008_TABLESTYLE_CELLSTYLEMAP
360
20F
  0
DICTIONARY
  5
1E6
330
2F
100
AcDbDictionary
280
     1
281
     1
  3
ACAD_XREC_ROUNDTRIP
360
1E7
  0
DICTIONARY
  5
1EC
330
32
100
AcDbDictionary
280
     1
281
     1
  3
ACAD_XREC_ROUNDTRIP
360
1ED
  0
DICTIONARY
  5
1F4
330
36
100
AcDbDictionary
280
     1
281
     1
  3
ACAD_XREC_ROUNDTRIP
360
1F5
  0
DICTIONARY
  5
1FC
330
3A
100
AcDbDictionary
280
     1
281
     1
  3
ACAD_XREC_ROUNDTRIP
360
1FD
  0
DICTIONARY
  5
1F0
330
34
100
AcDbDictionary
280
     1
281
     1
  3
ACAD_XREC_ROUNDTRIP
360
1F1
  0
DICTIONARY
  5
1F2
330
35
100
AcDbDictionary
280
     1
281
     1
  3
ACAD_XREC_ROUNDTRIP
360
1F3
  0
DICTIONARY
  5
202
330
3D
100
AcDbDictionary
280
     1
281
     1
  3
ACAD_XREC_ROUNDTRIP
360
203
  0
DICTIONARY
  5
1FA
330
39
100
AcDbDictionary
280
     1
281
     1
  3
ACAD_XREC_ROUNDTRIP
360
1FB
  0
DICTIONARY
  5
1DE
330
2B
100
AcDbDictionary
280
     1
281
     1
  3
ACAD_XREC_ROUNDTRIP
360
1DF
  0
DICTIONARY
  5
1E0
330
2C
100
AcDbDictionary
280
     1
281
     1
  3
ACAD_XREC_ROUNDTRIP
360
1E1
  0
DICTIONARY
  5
1E2
330
2D
100
AcDbDictionary
280
     1
281
     1
  3
ACAD_XREC_ROUNDTRIP
360
1E3
  0
DICTIONARY
  5
1E4
330
2E
100
AcDbDictionary
280
     1
281
     1
  3
ACAD_XREC_ROUNDTRIP
360
1E5
  0
DICTIONARY
  5
1EA
330
31
100
AcDbDictionary
280
     1
281
     1
  3
ACAD_XREC_ROUNDTRIP
360
1EB
  0
DICTIONARY
  5
1FE
330
3B
100
AcDbDictionary
280
     1
281
     1
  3
ACAD_XREC_ROUNDTRIP
360
1FF
  0
DICTIONARY
  5
1F8
330
38
100
AcDbDictionary
280
     1
281
     1
  3
ACAD_XREC_ROUNDTRIP
360
1F9
  0
DICTIONARY
  5
200
330
3C
100
AcDbDictionary
280
     1
281
     1
  3
ACAD_XREC_ROUNDTRIP
360
201
  0
DICTIONARY
  5
1EE
330
33
100
AcDbDictionary
280
     1
281
     1
  3
ACAD_XREC_ROUNDTRIP
360
1EF
  0
DICTIONARY
  5
20C
330
42
100
AcDbDictionary
280
     1
281
     1
  3
ACAD_XREC_ROUNDTRIP
360
20D
  0
DICTIONARY
  5
20A
330
41
100
AcDbDictionary
280
     1
281
     1
  3
ACAD_XREC_ROUNDTRIP
360
20B
  0
DICTIONARY
  5
204
330
3E
100
AcDbDictionary
280
     1
281
     1
  3
ACAD_XREC_ROUNDTRIP
360
205
  0
DICTIONARY
  5
206
330
3F
100
AcDbDictionary
280
     1
281
     1
  3
ACAD_XREC_ROUNDTRIP
360
207
  0
DICTIONARY
  5
1F6
330
37
100
AcDbDictionary
280
     1
281
     1
  3
ACAD_XREC_ROUNDTRIP
360
1F7
  0
DICTIONARY
  5
1E8
330
30
100
AcDbDictionary
280
     1
281
     1
  3
ACAD_XREC_ROUNDTRIP
360
1E9
  0
DICTIONARY
  5
208
330
40
100
AcDbDictionary
280
     1
281
     1
  3
ACAD_XREC_ROUNDTRIP
360
209
  0
XRECORD
  5
212
102
{ACAD_REACTORS
330
211
102
}
330
211
100
AcDbXrecord
280
     1
102
ACAD_ROUNDTRIP_2010_MLEADER_STYLE
  0
CELLSTYLEMAP
  5
20F
102
{ACAD_REACTORS
330
20E
102
}
330
20E
100
AcDbCellStyleMap
 90
        3
300
CELLSTYLE
  1
TABLEFORMAT_BEGIN
 90
        5
170
     1
 91
        0
 92
    32768
 62
   257
 93
        1
300
CONTENTFORMAT
  1
CONTENTFORMAT_BEGIN
 90
        0
 91
        0
 92
        4
 93
        0
300

 40
0.0
140
1.0
 94
        5
 62
     0
340
11
144
6.0
309
CONTENTFORMAT_END
171
     1
301
MARGIN
  1
CELLMARGIN_BEGIN
 40
1.5
 40
1.5
 40
1.5
 40
1.5
 40
1.5
 40
1.5
309
CELLMARGIN_END
 94
        6
 95
        1
302
GRIDFORMAT
  1
GRIDFORMAT_BEGIN
 90
        0
 91
        1
 62
     0
 92
       -2
340
14
 93
        0
 40
0.045
309
GRIDFORMAT_END
 95
        2
302
GRIDFORMAT
  1
GRIDFORMAT_BEGIN
 90
        0
 91
        1
 62
     0
 92
       -2
340
14
 93
        0
 40
0.045
309
GRIDFORMAT_END
 95
        4
302
GRIDFORMAT
  1
GRIDFORMAT_BEGIN
 90
        0
 91
        1
 62
     0
 92
       -2
340
14
 93
        0
 40
0.045
309
GRIDFORMAT_END
 95
        8
302
GRIDFORMAT
  1
GRIDFORMAT_BEGIN
 90
        0
 91
        1
 62
     0
 92
       -2
340
14
 93
        0
 40
0.045
309
GRIDFORMAT_END
 95
       16
302
GRIDFORMAT
  1
GRIDFORMAT_BEGIN
 90
        0
 91
        1
 62
     0
 92
       -2
340
14
 93
        0
 40
0.045
309
GRIDFORMAT_END
 95
       32
302
GRIDFORMAT
  1
GRIDFORMAT_BEGIN
 90
        0
 91
        1
 62
     0
 92
       -2
340
14
 93
        0
 40
0.045
309
GRIDFORMAT_END
309
TABLEFORMAT_END
  1
CELLSTYLE_BEGIN
 90
        1
 91
        1
300
_TITLE
309
CELLSTYLE_END
300
CELLSTYLE
  1
TABLEFORMAT_BEGIN
 90
        5
170
     1
 91
        0
 92
        0
 62
   257
 93
        1
300
CONTENTFORMAT
  1
CONTENTFORMAT_BEGIN
 90
        0
 91
        0
 92
        4
 93
        0
300

 40
0.0
140
1.0
 94
        5
 62
     0
340
11
144
4.5
309
CONTENTFORMAT_END
171
     1
301
MARGIN
  1
CELLMARGIN_BEGIN
 40
1.5
 40
1.5
 40
1.5
 40
1.5
 40
1.5
 40
1.5
309
CELLMARGIN_END
 94
        6
 95
        1
302
GRIDFORMAT
  1
GRIDFORMAT_BEGIN
 90
        0
 91
        1
 62
     0
 92
       -2
340
14
 93
        0
 40
0.045
309
GRIDFORMAT_END
 95
        2
302
GRIDFORMAT
  1
GRIDFORMAT_BEGIN
 90
        0
 91
        1
 62
     0
 92
       -2
340
14
 93
        0
 40
0.045
309
GRIDFORMAT_END
 95
        4
302
GRIDFORMAT
  1
GRIDFORMAT_BEGIN
 90
        0
 91
        1
 62
     0
 92
       -2
340
14
 93
        0
 40
0.045
309
GRIDFORMAT_END
 95
        8
302
GRIDFORMAT
  1
GRIDFORMAT_BEGIN
 90
        0
 91
        1
 62
     0
 92
       -2
340
14
 93
        0
 40
0.045
309
GRIDFORMAT_END
 95
       16
302
GRIDFORMAT
  1
GRIDFORMAT_BEGIN
 90
        0
 91
        1
 62
     0
 92
       -2
340
14
 93
        0
 40
0.045
309
GRIDFORMAT_END
 95
       32
302
GRIDFORMAT
  1
GRIDFORMAT_BEGIN
 90
        0
 91
        1
 62
     0
 92
       -2
340
14
 93
        0
 40
0.045
309
GRIDFORMAT_END
309
TABLEFORMAT_END
  1
CELLSTYLE_BEGIN
 90
        2
 91
        1
300
_HEADER
309
CELLSTYLE_END
300
CELLSTYLE
  1
TABLEFORMAT_BEGIN
 90
        5
170
     1
 91
        0
 92
        0
 62
   257
 93
        1
300
CONTENTFORMAT
  1
CONTENTFORMAT_BEGIN
 90
        0
 91
        0
 92
        4
 93
        0
300

 40
0.0
140
1.0
 94
        2
 62
     0
340
11
144
4.5
309
CONTENTFORMAT_END
171
     1
301
MARGIN
  1
CELLMARGIN_BEGIN
 40
1.5
 40
1.5
 40
1.5
 40
1.5
 40
1.5
 40
1.5
309
CELLMARGIN_END
 94
        6
 95
        1
302
GRIDFORMAT
  1
GRIDFORMAT_BEGIN
 90
        0
 91
        1
 62
     0
 92
       -2
340
14
 93
        0
 40
0.045
309
GRIDFORMAT_END
 95
        2
302
GRIDFORMAT
  1
GRIDFORMAT_BEGIN
 90
        0
 91
        1
 62
     0
 92
       -2
340
14
 93
        0
 40
0.045
309
GRIDFORMAT_END
 95
        4
302
GRIDFORMAT
  1
GRIDFORMAT_BEGIN
 90
        0
 91
        1
 62
     0
 92
       -2
340
14
 93
        0
 40
0.045
309
GRIDFORMAT_END
 95
        8
302
GRIDFORMAT
  1
GRIDFORMAT_BEGIN
 90
        0
 91
        1
 62
     0
 92
       -2
340
14
 93
        0
 40
0.045
309
GRIDFORMAT_END
 95
       16
302
GRIDFORMAT
  1
GRIDFORMAT_BEGIN
 90
        0
 91
        1
 62
     0
 92
       -2
340
14
 93
        0
 40
0.045
309
GRIDFORMAT_END
 95
       32
302
GRIDFORMAT
  1
GRIDFORMAT_BEGIN
 90
        0
 91
        1
 62
     0
 92
       -2
340
14
 93
        0
 40
0.045
309
GRIDFORMAT_END
309
TABLEFORMAT_END
  1
CELLSTYLE_BEGIN
 90
        3
 91
        2
300
_DATA
309
CELLSTYLE_END
  0
XRECORD
  5
1E7
102
{ACAD_REACTORS
330
1E6
102
}
330
1E6
100
AcDbXrecord
280
     1
102
RTVSPropertyOp0
 70
     1
102
RTVSPropertyOp1
 70
     1
102
RTVSPropertyOp2
 70
     1
102
RTVSPropertyOp3
 70
     1
102
RTVSPropertyOp4
 70
     1
102
RTVSPropertyOp5
 70
     1
102
RTVSPropertyOp6
 70
     1
102
RTVSPropertyOp7
 70
     1
102
RTVSPropertyOp8
 70
     1
102
RTVSPropertyOp9
 70
     1
102
RTVSPropertyOp10
 70
     1
102
RTVSPropertyOp11
 70
     1
102
RTVSPropertyOp12
 70
     1
102
RTVSPropertyOp13
 70
     1
102
RTVSPropertyOp14
 70
     1
102
RTVSPropertyOp15
 70
     1
102
RTVSPropertyOp16
 70
     1
102
RTVSPropertyOp17
 70
     1
102
RTVSPropertyOp18
 70
     1
102
RTVSPropertyOp19
 70
     1
102
RTVSPropertyOp20
 70
     1
102
RTVSPropertyOp21
 70
     1
102
RTVSPropertyOp22
 70
     1
102
RTVSPropertyOp23
 70
     1
102
RTVSPropertyOp24
 70
     1
102
RTVSPropertyOp25
 70
     1
102
RTVSPropertyOp26
 70
     1
102
RTVSPropertyOp27
 70
     1
102
RTVSPropertyOp28
 70
     1
102
RTVSPropertyOp29
 70
     1
102
RTVSPropertyOp30
 70
     1
102
RTVSPropertyOp31
 70
     1
102
RTVSPropertyOp32
 70
     1
102
RTVSPropertyOp33
 70
     1
102
RTVSPropertyOp34
 70
     1
102
RTVSPropertyOp35
 70
     1
102
RTVSPropertyOp36
 70
     1
102
RTVSPropertyOp37
 70
     1
102
RTVSPropertyOp38
 70
     1
102
RTVSPropertyOp39
 70
     1
102
RTVSPropertyOp40
 70
     1
102
RTVSPropertyOp41
 70
     1
102
RTVSPropertyOp42
 70
     1
102
RTVSPropertyOp43
 70
     1
102
RTVSPropertyOp44
 70
     1
102
RTVSPropertyOp45
 70
     1
102
RTVSPropertyOp46
 70
     1
102
RTVSPropertyOp47
 70
     1
102
RTVSPropertyOp48
 70
     1
102
RTVSPropertyOp49
 70
     1
102
RTVSPropertyOp50
 70
     1
102
RTVSPropertyOp51
 70
     0
102
RTVSPropertyOp52
 70
     0
102
RTVSPropertyOp53
 70
     1
102
RTVSPropertyOp54
 70
     1
102
RTVSPropertyOp55
 70
     1
102
RTVSPropertyOp56
 70
     1
102
RTVSPropertyOp57
 70
     1
102
RTVSPost2010Prop28
280
     1
102
RTVSPost2010PropOp28
 70
     1
102
RTVSPost2010Prop29
280
     1
102
RTVSPost2010PropOp29
 70
     1
102
RTVSPost2010Prop30
280
     0
102
RTVSPost2010PropOp30
 70
     1
102
RTVSPost2010Prop31
280
     0
102
RTVSPost2010PropOp31
 70
     1
102
RTVSPost2010Prop32
280
     0
102
RTVSPost2010PropOp32
 70
     1
102
RTVSPost2010Prop33
280
     0
102
RTVSPost2010PropOp33
 70
     1
102
RTVSPost2010Prop34
280
     0
102
RTVSPost2010PropOp34
 70
     1
102
RTVSPost2010Prop35
280
     0
102
RTVSPost2010PropOp35
 70
     1
102
RTVSPost2010Prop36
280
     0
102
RTVSPost2010PropOp36
 70
     1
102
RTVSPost2010Prop37
 90
       50
102
RTVSPost2010PropOp37
 70
     1
102
RTVSPost2010Prop38
140
0.0
102
RTVSPost2010PropOp38
 70
     1
102
RTVSPost2010Prop39
140
1.0
102
RTVSPost2010PropOp39
 70
     1
102
RTVSPost2010Prop40
 90
        0
102
RTVSPost2010PropOp40
 70
     1
102
RTVSPost2010Prop41ColorIndex
 90
       18
102
RTVSPost2010Prop41ColorRGB
 90
        0
102
RTVSPost2010PropOp41
 70
     1
102
RTVSPost2010Prop42
 90
       50
102
RTVSPost2010PropOp42
 70
     1
102
RTVSPost2010Prop43
 90
        3
102
RTVSPost2010PropOp43
 70
     1
102
RTVSPost2010Prop44ColorIndex
 90
        5
102
RTVSPost2010Prop44ColorRGB
 90
      255
102
RTVSPost2010PropOp44
 70
     1
102
RTVSPost2010Prop45
280
     0
102
RTVSPost2010PropOp45
 70
     1
102
RTVSPost2010Prop46
 90
       50
102
RTVSPost2010PropOp46
 70
     1
102
RTVSPost2010Prop47
 90
       50
102
RTVSPost2010PropOp47
 70
     1
102
RTVSPost2010Prop48
 90
       50
102
RTVSPost2010PropOp48
 70
     1
102
RTVSPost2010Prop49
280
     0
102
RTVSPost2010PropOp49
 70
     1
102
RTVSPost2010Prop50
 90
       50
102
RTVSPost2010PropOp50
 70
     1
102
RTVSPost2010Prop51ColorIndex
 90
      256
102
RTVSPost2010Prop51ColorRGB
 90
-16777216
102
RTVSPost2010PropOp51
 70
     0
102
RTVSPost2010Prop52
140
1.0
102
RTVSPost2010PropOp52
 70
     0
102
RTVSPost2010Prop53
 90
        2
102
RTVSPost2010PropOp53
 70
     1
102
RTVSPost2010Prop54
  1
strokes_ogs.tif
102
RTVSPost2010PropOp54
 70
     1
102
RTVSPost2010Prop55
280
     0
102
RTVSPost2010PropOp55
 70
     1
102
RTVSPost2010Prop56
140
1.0
102
RTVSPost2010PropOp56
 70
     1
102
RTVSPost2010Prop57
140
1.0
102
RTVSPost2010PropOp57
 70
     1
  0
XRECORD
  5
1ED
102
{ACAD_REACTORS
330
1EC
102
}
330
1EC
100
AcDbXrecord
280
     1
102
RTVSPropertyOp0
 70
     1
102
RTVSPropertyOp1
 70
     1
102
RTVSPropertyOp2
 70
     1
102
RTVSPropertyOp3
 70
     1
102
RTVSPropertyOp4
 70
     1
102
RTVSPropertyOp5
 70
     1
102
RTVSPropertyOp6
 70
     1
102
RTVSPropertyOp7
 70
     1
102
RTVSPropertyOp8
 70
     1
102
RTVSPropertyOp9
 70
     1
102
RTVSPropertyOp10
 70
     1
102
RTVSPropertyOp11
 70
     1
102
RTVSPropertyOp12
 70
     1
102
RTVSPropertyOp13
 70
     1
102
RTVSPropertyOp14
 70
     1
102
RTVSPropertyOp15
 70
     1
102
RTVSPropertyOp16
 70
     1
102
RTVSPropertyOp17
 70
     1
102
RTVSPropertyOp18
 70
     1
102
RTVSPropertyOp19
 70
     1
102
RTVSPropertyOp20
 70
     1
102
RTVSPropertyOp21
 70
     1
102
RTVSPropertyOp22
 70
     1
102
RTVSPropertyOp23
 70
     1
102
RTVSPropertyOp24
 70
     1
102
RTVSPropertyOp25
 70
     1
102
RTVSPropertyOp26
 70
     1
102
RTVSPropertyOp27
 70
     1
102
RTVSPropertyOp28
 70
     1
102
RTVSPropertyOp29
 70
     1
102
RTVSPropertyOp30
 70
     1
102
RTVSPropertyOp31
 70
     1
102
RTVSPropertyOp32
 70
     1
102
RTVSPropertyOp33
 70
     1
102
RTVSPropertyOp34
 70
     1
102
RTVSPropertyOp35
 70
     1
102
RTVSPropertyOp36
 70
     1
102
RTVSPropertyOp37
 70
     1
102
RTVSPropertyOp38
 70
     1
102
RTVSPropertyOp39
 70
     1
102
RTVSPropertyOp40
 70
     1
102
RTVSPropertyOp41
 70
     1
102
RTVSPropertyOp42
 70
     1
102
RTVSPropertyOp43
 70
     1
102
RTVSPropertyOp44
 70
     1
102
RTVSPropertyOp45
 70
     1
102
RTVSPropertyOp46
 70
     1
102
RTVSPropertyOp47
 70
     1
102
RTVSPropertyOp48
 70
     1
102
RTVSPropertyOp49
 70
     1
102
RTVSPropertyOp50
 70
     1
102
RTVSPropertyOp51
 70
     0
102
RTVSPropertyOp52
 70
     0
102
RTVSPropertyOp53
 70
     1
102
RTVSPropertyOp54
 70
     1
102
RTVSPropertyOp55
 70
     1
102
RTVSPropertyOp56
 70
     1
102
RTVSPropertyOp57
 70
     1
102
RTVSPost2010Prop28
280
     0
102
RTVSPost2010PropOp28
 70
     1
102
RTVSPost2010Prop29
280
     1
102
RTVSPost2010PropOp29
 70
     1
102
RTVSPost2010Prop30
280
     1
102
RTVSPost2010PropOp30
 70
     1
102
RTVSPost2010Prop31
280
     0
102
RTVSPost2010PropOp31
 70
     1
102
RTVSPost2010Prop32
280
     0
102
RTVSPost2010PropOp32
 70
     1
102
RTVSPost2010Prop33
280
     0
102
RTVSPost2010PropOp33
 70
     1
102
RTVSPost2010Prop34
280
     0
102
RTVSPost2010PropOp34
 70
     1
102
RTVSPost2010Prop35
280
     0
102
RTVSPost2010PropOp35
 70
     1
102
RTVSPost2010Prop36
280
     0
102
RTVSPost2010PropOp36
 70
     1
102
RTVSPost2010Prop37
 90
       50
102
RTVSPost2010PropOp37
 70
     1
102
RTVSPost2010Prop38
140
0.0
102
RTVSPost2010PropOp38
 70
     1
102
RTVSPost2010Prop39
140
1.0
102
RTVSPost2010PropOp39
 70
     1
102
RTVSPost2010Prop40
 90
        0
102
RTVSPost2010PropOp40
 70
     1
102
RTVSPost2010Prop41ColorIndex
 90
       18
102
RTVSPost2010Prop41ColorRGB
 90
        0
102
RTVSPost2010PropOp41
 70
     1
102
RTVSPost2010Prop42
 90
       50
102
RTVSPost2010PropOp42
 70
     1
102
RTVSPost2010Prop43
 90
        3
102
RTVSPost2010PropOp43
 70
     1
102
RTVSPost2010Prop44ColorIndex
 90
        5
102
RTVSPost2010Prop44ColorRGB
 90
      255
102
RTVSPost2010PropOp44
 70
     1
102
RTVSPost2010Prop45
280
     0
102
RTVSPost2010PropOp45
 70
     1
102
RTVSPost2010Prop46
 90
       50
102
RTVSPost2010PropOp46
 70
     1
102
RTVSPost2010Prop47
 90
       50
102
RTVSPost2010PropOp47
 70
     1
102
RTVSPost2010Prop48
 90
       50
102
RTVSPost2010PropOp48
 70
     1
102
RTVSPost2010Prop49
280
     0
102
RTVSPost2010PropOp49
 70
     1
102
RTVSPost2010Prop50
 90
       50
102
RTVSPost2010PropOp50
 70
     1
102
RTVSPost2010Prop51ColorIndex
 90
      256
102
RTVSPost2010Prop51ColorRGB
 90
-16777216
102
RTVSPost2010PropOp51
 70
     0
102
RTVSPost2010Prop52
140
1.0
102
RTVSPost2010PropOp52
 70
     0
102
RTVSPost2010Prop53
 90
        2
102
RTVSPost2010PropOp53
 70
     1
102
RTVSPost2010Prop54
  1
strokes_ogs.tif
102
RTVSPost2010PropOp54
 70
     1
102
RTVSPost2010Prop55
280
     0
102
RTVSPost2010PropOp55
 70
     1
102
RTVSPost2010Prop56
140
1.0
102
RTVSPost2010PropOp56
 70
     1
102
RTVSPost2010Prop57
140
1.0
102
RTVSPost2010PropOp57
 70
     1
  0
XRECORD
  5
1F5
102
{ACAD_REACTORS
330
1F4
102
}
330
1F4
100
AcDbXrecord
280
     1
102
RTVSPropertyOp0
 70
     1
102
RTVSPropertyOp1
 70
     1
102
RTVSPropertyOp2
 70
     1
102
RTVSPropertyOp3
 70
     1
102
RTVSPropertyOp4
 70
     1
102
RTVSPropertyOp5
 70
     1
102
RTVSPropertyOp6
 70
     1
102
RTVSPropertyOp7
 70
     1
102
RTVSPropertyOp8
 70
     1
102
RTVSPropertyOp9
 70
     1
102
RTVSPropertyOp10
 70
     1
102
RTVSPropertyOp11
 70
     1
102
RTVSPropertyOp12
 70
     1
102
RTVSPropertyOp13
 70
     1
102
RTVSPropertyOp14
 70
     1
102
RTVSPropertyOp15
 70
     1
102
RTVSPropertyOp16
 70
     1
102
RTVSPropertyOp17
 70
     1
102
RTVSPropertyOp18
 70
     1
102
RTVSPropertyOp19
 70
     1
102
RTVSPropertyOp20
 70
     1
102
RTVSPropertyOp21
 70
     1
102
RTVSPropertyOp22
 70
     1
102
RTVSPropertyOp23
 70
     1
102
RTVSPropertyOp24
 70
     1
102
RTVSPropertyOp25
 70
     1
102
RTVSPropertyOp26
 70
     1
102
RTVSPropertyOp27
 70
     1
102
RTVSPropertyOp28
 70
     1
102
RTVSPropertyOp29
 70
     1
102
RTVSPropertyOp30
 70
     1
102
RTVSPropertyOp31
 70
     1
102
RTVSPropertyOp32
 70
     1
102
RTVSPropertyOp33
 70
     1
102
RTVSPropertyOp34
 70
     1
102
RTVSPropertyOp35
 70
     1
102
RTVSPropertyOp36
 70
     1
102
RTVSPropertyOp37
 70
     1
102
RTVSPropertyOp38
 70
     1
102
RTVSPropertyOp39
 70
     1
102
RTVSPropertyOp40
 70
     1
102
RTVSPropertyOp41
 70
     1
102
RTVSPropertyOp42
 70
     1
102
RTVSPropertyOp43
 70
     1
102
RTVSPropertyOp44
 70
     1
102
RTVSPropertyOp45
 70
     1
102
RTVSPropertyOp46
 70
     1
102
RTVSPropertyOp47
 70
     1
102
RTVSPropertyOp48
 70
     1
102
RTVSPropertyOp49
 70
     1
102
RTVSPropertyOp50
 70
     1
102
RTVSPropertyOp51
 70
     0
102
RTVSPropertyOp52
 70
     0
102
RTVSPropertyOp53
 70
     1
102
RTVSPropertyOp54
 70
     1
102
RTVSPropertyOp55
 70
     1
102
RTVSPropertyOp56
 70
     1
102
RTVSPropertyOp57
 70
     1
102
RTVSPost2010Prop28
280
     0
102
RTVSPost2010PropOp28
 70
     1
102
RTVSPost2010Prop29
280
     1
102
RTVSPost2010PropOp29
 70
     1
102
RTVSPost2010Prop30
280
     1
102
RTVSPost2010PropOp30
 70
     1
102
RTVSPost2010Prop31
280
     0
102
RTVSPost2010PropOp31
 70
     1
102
RTVSPost2010Prop32
280
     0
102
RTVSPost2010PropOp32
 70
     1
102
RTVSPost2010Prop33
280
     0
102
RTVSPost2010PropOp33
 70
     1
102
RTVSPost2010Prop34
280
     0
102
RTVSPost2010PropOp34
 70
     1
102
RTVSPost2010Prop35
280
     0
102
RTVSPost2010PropOp35
 70
     1
102
RTVSPost2010Prop36
280
     0
102
RTVSPost2010PropOp36
 70
     1
102
RTVSPost2010Prop37
 90
       50
102
RTVSPost2010PropOp37
 70
     1
102
RTVSPost2010Prop38
140
0.0
102
RTVSPost2010PropOp38
 70
     1
102
RTVSPost2010Prop39
140
1.0
102
RTVSPost2010PropOp39
 70
     1
102
RTVSPost2010Prop40
 90
        0
102
RTVSPost2010PropOp40
 70
     1
102
RTVSPost2010Prop41ColorIndex
 90
       18
102
RTVSPost2010Prop41ColorRGB
 90
        0
102
RTVSPost2010PropOp41
 70
     1
102
RTVSPost2010Prop42
 90
       50
102
RTVSPost2010PropOp42
 70
     1
102
RTVSPost2010Prop43
 90
        3
102
RTVSPost2010PropOp43
 70
     1
102
RTVSPost2010Prop44ColorIndex
 90
        5
102
RTVSPost2010Prop44ColorRGB
 90
      255
102
RTVSPost2010PropOp44
 70
     1
102
RTVSPost2010Prop45
280
     0
102
RTVSPost2010PropOp45
 70
     1
102
RTVSPost2010Prop46
 90
       50
102
RTVSPost2010PropOp46
 70
     1
102
RTVSPost2010Prop47
 90
       50
102
RTVSPost2010PropOp47
 70
     1
102
RTVSPost2010Prop48
 90
       50
102
RTVSPost2010PropOp48
 70
     1
102
RTVSPost2010Prop49
280
     0
102
RTVSPost2010PropOp49
 70
     1
102
RTVSPost2010Prop50
 90
       50
102
RTVSPost2010PropOp50
 70
     1
102
RTVSPost2010Prop51ColorIndex
 90
      256
102
RTVSPost2010Prop51ColorRGB
 90
-16777216
102
RTVSPost2010PropOp51
 70
     0
102
RTVSPost2010Prop52
140
1.0
102
RTVSPost2010PropOp52
 70
     0
102
RTVSPost2010Prop53
 90
        2
102
RTVSPost2010PropOp53
 70
     1
102
RTVSPost2010Prop54
  1
strokes_ogs.tif
102
RTVSPost2010PropOp54
 70
     1
102
RTVSPost2010Prop55
280
     0
102
RTVSPost2010PropOp55
 70
     1
102
RTVSPost2010Prop56
140
1.0
102
RTVSPost2010PropOp56
 70
     1
102
RTVSPost2010Prop57
140
1.0
102
RTVSPost2010PropOp57
 70
     1
  0
XRECORD
  5
1FD
102
{ACAD_REACTORS
330
1FC
102
}
330
1FC
100
AcDbXrecord
280
     1
102
RTVSPropertyOp0
 70
     1
102
RTVSPropertyOp1
 70
     1
102
RTVSPropertyOp2
 70
     1
102
RTVSPropertyOp3
 70
     1
102
RTVSPropertyOp4
 70
     1
102
RTVSPropertyOp5
 70
     1
102
RTVSPropertyOp6
 70
     1
102
RTVSPropertyOp7
 70
     1
102
RTVSPropertyOp8
 70
     1
102
RTVSPropertyOp9
 70
     1
102
RTVSPropertyOp10
 70
     1
102
RTVSPropertyOp11
 70
     1
102
RTVSPropertyOp12
 70
     1
102
RTVSPropertyOp13
 70
     1
102
RTVSPropertyOp14
 70
     1
102
RTVSPropertyOp15
 70
     1
102
RTVSPropertyOp16
 70
     1
102
RTVSPropertyOp17
 70
     1
102
RTVSPropertyOp18
 70
     1
102
RTVSPropertyOp19
 70
     1
102
RTVSPropertyOp20
 70
     1
102
RTVSPropertyOp21
 70
     1
102
RTVSPropertyOp22
 70
     1
102
RTVSPropertyOp23
 70
     1
102
RTVSPropertyOp24
 70
     1
102
RTVSPropertyOp25
 70
     1
102
RTVSPropertyOp26
 70
     1
102
RTVSPropertyOp27
 70
     1
102
RTVSPropertyOp28
 70
     1
102
RTVSPropertyOp29
 70
     1
102
RTVSPropertyOp30
 70
     1
102
RTVSPropertyOp31
 70
     1
102
RTVSPropertyOp32
 70
     1
102
RTVSPropertyOp33
 70
     1
102
RTVSPropertyOp34
 70
     1
102
RTVSPropertyOp35
 70
     1
102
RTVSPropertyOp36
 70
     1
102
RTVSPropertyOp37
 70
     1
102
RTVSPropertyOp38
 70
     1
102
RTVSPropertyOp39
 70
     1
102
RTVSPropertyOp40
 70
     1
102
RTVSPropertyOp41
 70
     1
102
RTVSPropertyOp42
 70
     1
102
RTVSPropertyOp43
 70
     1
102
RTVSPropertyOp44
 70
     1
102
RTVSPropertyOp45
 70
     1
102
RTVSPropertyOp46
 70
     1
102
RTVSPropertyOp47
 70
     1
102
RTVSPropertyOp48
 70
     1
102
RTVSPropertyOp49
 70
     1
102
RTVSPropertyOp50
 70
     1
102
RTVSPropertyOp51
 70
     0
102
RTVSPropertyOp52
 70
     0
102
RTVSPropertyOp53
 70
     1
102
RTVSPropertyOp54
 70
     1
102
RTVSPropertyOp55
 70
     1
102
RTVSPropertyOp56
 70
     1
102
RTVSPropertyOp57
 70
     1
102
RTVSPost2010Prop28
280
     0
102
RTVSPost2010PropOp28
 70
     1
102
RTVSPost2010Prop29
280
     1
102
RTVSPost2010PropOp29
 70
     1
102
RTVSPost2010Prop30
280
     1
102
RTVSPost2010PropOp30
 70
     1
102
RTVSPost2010Prop31
280
     0
102
RTVSPost2010PropOp31
 70
     1
102
RTVSPost2010Prop32
280
     0
102
RTVSPost2010PropOp32
 70
     1
102
RTVSPost2010Prop33
280
     0
102
RTVSPost2010PropOp33
 70
     1
102
RTVSPost2010Prop34
280
     0
102
RTVSPost2010PropOp34
 70
     1
102
RTVSPost2010Prop35
280
     0
102
RTVSPost2010PropOp35
 70
     1
102
RTVSPost2010Prop36
280
     0
102
RTVSPost2010PropOp36
 70
     1
102
RTVSPost2010Prop37
 90
       50
102
RTVSPost2010PropOp37
 70
     1
102
RTVSPost2010Prop38
140
0.0
102
RTVSPost2010PropOp38
 70
     1
102
RTVSPost2010Prop39
140
1.0
102
RTVSPost2010PropOp39
 70
     1
102
RTVSPost2010Prop40
 90
        0
102
RTVSPost2010PropOp40
 70
     1
102
RTVSPost2010Prop41ColorIndex
 90
       18
102
RTVSPost2010Prop41ColorRGB
 90
        0
102
RTVSPost2010PropOp41
 70
     1
102
RTVSPost2010Prop42
 90
       50
102
RTVSPost2010PropOp42
 70
     1
102
RTVSPost2010Prop43
 90
        3
102
RTVSPost2010PropOp43
 70
     1
102
RTVSPost2010Prop44ColorIndex
 90
        5
102
RTVSPost2010Prop44ColorRGB
 90
      255
102
RTVSPost2010PropOp44
 70
     1
102
RTVSPost2010Prop45
280
     0
102
RTVSPost2010PropOp45
 70
     1
102
RTVSPost2010Prop46
 90
       50
102
RTVSPost2010PropOp46
 70
     1
102
RTVSPost2010Prop47
 90
       50
102
RTVSPost2010PropOp47
 70
     1
102
RTVSPost2010Prop48
 90
       50
102
RTVSPost2010PropOp48
 70
     1
102
RTVSPost2010Prop49
280
     0
102
RTVSPost2010PropOp49
 70
     1
102
RTVSPost2010Prop50
 90
       50
102
RTVSPost2010PropOp50
 70
     1
102
RTVSPost2010Prop51ColorIndex
 90
      256
102
RTVSPost2010Prop51ColorRGB
 90
-16777216
102
RTVSPost2010PropOp51
 70
     0
102
RTVSPost2010Prop52
140
1.0
102
RTVSPost2010PropOp52
 70
     0
102
RTVSPost2010Prop53
 90
        2
102
RTVSPost2010PropOp53
 70
     1
102
RTVSPost2010Prop54
  1
strokes_ogs.tif
102
RTVSPost2010PropOp54
 70
     1
102
RTVSPost2010Prop55
280
     0
102
RTVSPost2010PropOp55
 70
     1
102
RTVSPost2010Prop56
140
1.0
102
RTVSPost2010PropOp56
 70
     1
102
RTVSPost2010Prop57
140
1.0
102
RTVSPost2010PropOp57
 70
     1
  0
XRECORD
  5
1F1
102
{ACAD_REACTORS
330
1F0
102
}
330
1F0
100
AcDbXrecord
280
     1
102
RTVSPropertyOp0
 70
     1
102
RTVSPropertyOp1
 70
     1
102
RTVSPropertyOp2
 70
     1
102
RTVSPropertyOp3
 70
     1
102
RTVSPropertyOp4
 70
     1
102
RTVSPropertyOp5
 70
     1
102
RTVSPropertyOp6
 70
     1
102
RTVSPropertyOp7
 70
     1
102
RTVSPropertyOp8
 70
     1
102
RTVSPropertyOp9
 70
     1
102
RTVSPropertyOp10
 70
     1
102
RTVSPropertyOp11
 70
     1
102
RTVSPropertyOp12
 70
     1
102
RTVSPropertyOp13
 70
     1
102
RTVSPropertyOp14
 70
     1
102
RTVSPropertyOp15
 70
     1
102
RTVSPropertyOp16
 70
     1
102
RTVSPropertyOp17
 70
     1
102
RTVSPropertyOp18
 70
     1
102
RTVSPropertyOp19
 70
     1
102
RTVSPropertyOp20
 70
     1
102
RTVSPropertyOp21
 70
     1
102
RTVSPropertyOp22
 70
     1
102
RTVSPropertyOp23
 70
     1
102
RTVSPropertyOp24
 70
     1
102
RTVSPropertyOp25
 70
     1
102
RTVSPropertyOp26
 70
     1
102
RTVSPropertyOp27
 70
     1
102
RTVSPropertyOp28
 70
     1
102
RTVSPropertyOp29
 70
     1
102
RTVSPropertyOp30
 70
     1
102
RTVSPropertyOp31
 70
     1
102
RTVSPropertyOp32
 70
     1
102
RTVSPropertyOp33
 70
     1
102
RTVSPropertyOp34
 70
     1
102
RTVSPropertyOp35
 70
     1
102
RTVSPropertyOp36
 70
     1
102
RTVSPropertyOp37
 70
     1
102
RTVSPropertyOp38
 70
     1
102
RTVSPropertyOp39
 70
     1
102
RTVSPropertyOp40
 70
     1
102
RTVSPropertyOp41
 70
     1
102
RTVSPropertyOp42
 70
     1
102
RTVSPropertyOp43
 70
     1
102
RTVSPropertyOp44
 70
     1
102
RTVSPropertyOp45
 70
     1
102
RTVSPropertyOp46
 70
     1
102
RTVSPropertyOp47
 70
     1
102
RTVSPropertyOp48
 70
     1
102
RTVSPropertyOp49
 70
     1
102
RTVSPropertyOp50
 70
     1
102
RTVSPropertyOp51
 70
     0
102
RTVSPropertyOp52
 70
     0
102
RTVSPropertyOp53
 70
     1
102
RTVSPropertyOp54
 70
     1
102
RTVSPropertyOp55
 70
     1
102
RTVSPropertyOp56
 70
     1
102
RTVSPropertyOp57
 70
     1
102
RTVSPost2010Prop28
280
     0
102
RTVSPost2010PropOp28
 70
     1
102
RTVSPost2010Prop29
280
     1
102
RTVSPost2010PropOp29
 70
     1
102
RTVSPost2010Prop30
280
     1
102
RTVSPost2010PropOp30
 70
     1
102
RTVSPost2010Prop31
280
     0
102
RTVSPost2010PropOp31
 70
     1
102
RTVSPost2010Prop32
280
     0
102
RTVSPost2010PropOp32
 70
     1
102
RTVSPost2010Prop33
280
     0
102
RTVSPost2010PropOp33
 70
     1
102
RTVSPost2010Prop34
280
     0
102
RTVSPost2010PropOp34
 70
     1
102
RTVSPost2010Prop35
280
     0
102
RTVSPost2010PropOp35
 70
     1
102
RTVSPost2010Prop36
280
     0
102
RTVSPost2010PropOp36
 70
     1
102
RTVSPost2010Prop37
 90
       50
102
RTVSPost2010PropOp37
 70
     1
102
RTVSPost2010Prop38
140
0.0
102
RTVSPost2010PropOp38
 70
     1
102
RTVSPost2010Prop39
140
1.0
102
RTVSPost2010PropOp39
 70
     1
102
RTVSPost2010Prop40
 90
        0
102
RTVSPost2010PropOp40
 70
     1
102
RTVSPost2010Prop41ColorIndex
 90
       18
102
RTVSPost2010Prop41ColorRGB
 90
        0
102
RTVSPost2010PropOp41
 70
     1
102
RTVSPost2010Prop42
 90
       50
102
RTVSPost2010PropOp42
 70
     1
102
RTVSPost2010Prop43
 90
        3
102
RTVSPost2010PropOp43
 70
     1
102
RTVSPost2010Prop44ColorIndex
 90
        5
102
RTVSPost2010Prop44ColorRGB
 90
      255
102
RTVSPost2010PropOp44
 70
     1
102
RTVSPost2010Prop45
280
     0
102
RTVSPost2010PropOp45
 70
     1
102
RTVSPost2010Prop46
 90
       50
102
RTVSPost2010PropOp46
 70
     1
102
RTVSPost2010Prop47
 90
       50
102
RTVSPost2010PropOp47
 70
     1
102
RTVSPost2010Prop48
 90
       50
102
RTVSPost2010PropOp48
 70
     1
102
RTVSPost2010Prop49
280
     0
102
RTVSPost2010PropOp49
 70
     1
102
RTVSPost2010Prop50
 90
       50
102
RTVSPost2010PropOp50
 70
     1
102
RTVSPost2010Prop51ColorIndex
 90
      256
102
RTVSPost2010Prop51ColorRGB
 90
-16777216
102
RTVSPost2010PropOp51
 70
     0
102
RTVSPost2010Prop52
140
1.0
102
RTVSPost2010PropOp52
 70
     0
102
RTVSPost2010Prop53
 90
        2
102
RTVSPost2010PropOp53
 70
     1
102
RTVSPost2010Prop54
  1
strokes_ogs.tif
102
RTVSPost2010PropOp54
 70
     1
102
RTVSPost2010Prop55
280
     0
102
RTVSPost2010PropOp55
 70
     1
102
RTVSPost2010Prop56
140
1.0
102
RTVSPost2010PropOp56
 70
     1
102
RTVSPost2010Prop57
140
1.0
102
RTVSPost2010PropOp57
 70
     1
  0
XRECORD
  5
1F3
102
{ACAD_REACTORS
330
1F2
102
}
330
1F2
100
AcDbXrecord
280
     1
102
RTVSPropertyOp0
 70
     1
102
RTVSPropertyOp1
 70
     1
102
RTVSPropertyOp2
 70
     1
102
RTVSPropertyOp3
 70
     1
102
RTVSPropertyOp4
 70
     1
102
RTVSPropertyOp5
 70
     1
102
RTVSPropertyOp6
 70
     1
102
RTVSPropertyOp7
 70
     1
102
RTVSPropertyOp8
 70
     1
102
RTVSPropertyOp9
 70
     1
102
RTVSPropertyOp10
 70
     1
102
RTVSPropertyOp11
 70
     1
102
RTVSPropertyOp12
 70
     1
102
RTVSPropertyOp13
 70
     1
102
RTVSPropertyOp14
 70
     1
102
RTVSPropertyOp15
 70
     1
102
RTVSPropertyOp16
 70
     1
102
RTVSPropertyOp17
 70
     1
102
RTVSPropertyOp18
 70
     1
102
RTVSPropertyOp19
 70
     1
102
RTVSPropertyOp20
 70
     1
102
RTVSPropertyOp21
 70
     1
102
RTVSPropertyOp22
 70
     1
102
RTVSPropertyOp23
 70
     1
102
RTVSPropertyOp24
 70
     1
102
RTVSPropertyOp25
 70
     1
102
RTVSPropertyOp26
 70
     1
102
RTVSPropertyOp27
 70
     1
102
RTVSPropertyOp28
 70
     1
102
RTVSPropertyOp29
 70
     1
102
RTVSPropertyOp30
 70
     1
102
RTVSPropertyOp31
 70
     1
102
RTVSPropertyOp32
 70
     1
102
RTVSPropertyOp33
 70
     1
102
RTVSPropertyOp34
 70
     1
102
RTVSPropertyOp35
 70
     1
102
RTVSPropertyOp36
 70
     1
102
RTVSPropertyOp37
 70
     1
102
RTVSPropertyOp38
 70
     1
102
RTVSPropertyOp39
 70
     1
102
RTVSPropertyOp40
 70
     1
102
RTVSPropertyOp41
 70
     1
102
RTVSPropertyOp42
 70
     1
102
RTVSPropertyOp43
 70
     1
102
RTVSPropertyOp44
 70
     1
102
RTVSPropertyOp45
 70
     1
102
RTVSPropertyOp46
 70
     1
102
RTVSPropertyOp47
 70
     1
102
RTVSPropertyOp48
 70
     1
102
RTVSPropertyOp49
 70
     1
102
RTVSPropertyOp50
 70
     1
102
RTVSPropertyOp51
 70
     0
102
RTVSPropertyOp52
 70
     0
102
RTVSPropertyOp53
 70
     1
102
RTVSPropertyOp54
 70
     1
102
RTVSPropertyOp55
 70
     1
102
RTVSPropertyOp56
 70
     1
102
RTVSPropertyOp57
 70
     1
102
RTVSPost2010Prop28
280
     0
102
RTVSPost2010PropOp28
 70
     1
102
RTVSPost2010Prop29
280
     1
102
RTVSPost2010PropOp29
 70
     1
102
RTVSPost2010Prop30
280
     1
102
RTVSPost2010PropOp30
 70
     1
102
RTVSPost2010Prop31
280
     0
102
RTVSPost2010PropOp31
 70
     1
102
RTVSPost2010Prop32
280
     0
102
RTVSPost2010PropOp32
 70
     1
102
RTVSPost2010Prop33
280
     0
102
RTVSPost2010PropOp33
 70
     1
102
RTVSPost2010Prop34
280
     0
102
RTVSPost2010PropOp34
 70
     1
102
RTVSPost2010Prop35
280
     0
102
RTVSPost2010PropOp35
 70
     1
102
RTVSPost2010Prop36
280
     0
102
RTVSPost2010PropOp36
 70
     1
102
RTVSPost2010Prop37
 90
       50
102
RTVSPost2010PropOp37
 70
     1
102
RTVSPost2010Prop38
140
0.0
102
RTVSPost2010PropOp38
 70
     1
102
RTVSPost2010Prop39
140
1.0
102
RTVSPost2010PropOp39
 70
     1
102
RTVSPost2010Prop40
 90
        0
102
RTVSPost2010PropOp40
 70
     1
102
RTVSPost2010Prop41ColorIndex
 90
       18
102
RTVSPost2010Prop41ColorRGB
 90
        0
102
RTVSPost2010PropOp41
 70
     1
102
RTVSPost2010Prop42
 90
       50
102
RTVSPost2010PropOp42
 70
     1
102
RTVSPost2010Prop43
 90
        3
102
RTVSPost2010PropOp43
 70
     1
102
RTVSPost2010Prop44ColorIndex
 90
        5
102
RTVSPost2010Prop44ColorRGB
 90
      255
102
RTVSPost2010PropOp44
 70
     1
102
RTVSPost2010Prop45
280
     0
102
RTVSPost2010PropOp45
 70
     1
102
RTVSPost2010Prop46
 90
       50
102
RTVSPost2010PropOp46
 70
     1
102
RTVSPost2010Prop47
 90
       50
102
RTVSPost2010PropOp47
 70
     1
102
RTVSPost2010Prop48
 90
       50
102
RTVSPost2010PropOp48
 70
     1
102
RTVSPost2010Prop49
280
     0
102
RTVSPost2010PropOp49
 70
     1
102
RTVSPost2010Prop50
 90
       50
102
RTVSPost2010PropOp50
 70
     1
102
RTVSPost2010Prop51ColorIndex
 90
      256
102
RTVSPost2010Prop51ColorRGB
 90
-16777216
102
RTVSPost2010PropOp51
 70
     0
102
RTVSPost2010Prop52
140
1.0
102
RTVSPost2010PropOp52
 70
     0
102
RTVSPost2010Prop53
 90
        2
102
RTVSPost2010PropOp53
 70
     1
102
RTVSPost2010Prop54
  1
strokes_ogs.tif
102
RTVSPost2010PropOp54
 70
     1
102
RTVSPost2010Prop55
280
     0
102
RTVSPost2010PropOp55
 70
     1
102
RTVSPost2010Prop56
140
1.0
102
RTVSPost2010PropOp56
 70
     1
102
RTVSPost2010Prop57
140
1.0
102
RTVSPost2010PropOp57
 70
     1
  0
XRECORD
  5
203
102
{ACAD_REACTORS
330
202
102
}
330
202
100
AcDbXrecord
280
     1
102
RTVSPropertyOp0
 70
     0
102
RTVSPropertyOp1
 70
     0
102
RTVSPropertyOp2
 70
     0
102
RTVSPropertyOp3
 70
     0
102
RTVSPropertyOp4
 70
     0
102
RTVSPropertyOp5
 70
     0
102
RTVSPropertyOp6
 70
     0
102
RTVSPropertyOp7
 70
     0
102
RTVSPropertyOp8
 70
     0
102
RTVSPropertyOp9
 70
     0
102
RTVSPropertyOp10
 70
     0
102
RTVSPropertyOp11
 70
     0
102
RTVSPropertyOp12
 70
     0
102
RTVSPropertyOp13
 70
     0
102
RTVSPropertyOp14
 70
     2
102
RTVSPropertyOp15
 70
     0
102
RTVSPropertyOp16
 70
     0
102
RTVSPropertyOp17
 70
     0
102
RTVSPropertyOp18
 70
     0
102
RTVSPropertyOp19
 70
     0
102
RTVSPropertyOp20
 70
     0
102
RTVSPropertyOp21
 70
     0
102
RTVSPropertyOp22
 70
     0
102
RTVSPropertyOp23
 70
     0
102
RTVSPropertyOp24
 70
     0
102
RTVSPropertyOp25
 70
     0
102
RTVSPropertyOp26
 70
     0
102
RTVSPropertyOp27
 70
     0
102
RTVSPropertyOp28
 70
     0
102
RTVSPropertyOp29
 70
     0
102
RTVSPropertyOp30
 70
     0
102
RTVSPropertyOp31
 70
     0
102
RTVSPropertyOp32
 70
     0
102
RTVSPropertyOp33
 70
     0
102
RTVSPropertyOp34
 70
     0
102
RTVSPropertyOp35
 70
     0
102
RTVSPropertyOp36
 70
     0
102
RTVSPropertyOp37
 70
     0
102
RTVSPropertyOp38
 70
     0
102
RTVSPropertyOp39
 70
     0
102
RTVSPropertyOp40
 70
     0
102
RTVSPropertyOp41
 70
     0
102
RTVSPropertyOp42
 70
     0
102
RTVSPropertyOp43
 70
     0
102
RTVSPropertyOp44
 70
     0
102
RTVSPropertyOp45
 70
     0
102
RTVSPropertyOp46
 70
     0
102
RTVSPropertyOp47
 70
     0
102
RTVSPropertyOp48
 70
     0
102
RTVSPropertyOp49
 70
     0
102
RTVSPropertyOp50
 70
     0
102
RTVSPropertyOp51
 70
     0
102
RTVSPropertyOp52
 70
     0
102
RTVSPropertyOp53
 70
     0
102
RTVSPropertyOp54
 70
     0
102
RTVSPropertyOp55
 70
     0
102
RTVSPropertyOp56
 70
     0
102
RTVSPropertyOp57
 70
     0
102
RTVSPost2010Prop28
280
     0
102
RTVSPost2010PropOp28
 70
     0
102
RTVSPost2010Prop29
280
     1
102
RTVSPost2010PropOp29
 70
     0
102
RTVSPost2010Prop30
280
     1
102
RTVSPost2010PropOp30
 70
     0
102
RTVSPost2010Prop31
280
     0
102
RTVSPost2010PropOp31
 70
     0
102
RTVSPost2010Prop32
280
     0
102
RTVSPost2010PropOp32
 70
     0
102
RTVSPost2010Prop33
280
     0
102
RTVSPost2010PropOp33
 70
     0
102
RTVSPost2010Prop34
280
     0
102
RTVSPost2010PropOp34
 70
     0
102
RTVSPost2010Prop35
280
     0
102
RTVSPost2010PropOp35
 70
     0
102
RTVSPost2010Prop36
280
     0
102
RTVSPost2010PropOp36
 70
     0
102
RTVSPost2010Prop37
 90
       50
102
RTVSPost2010PropOp37
 70
     0
102
RTVSPost2010Prop38
140
0.0
102
RTVSPost2010PropOp38
 70
     0
102
RTVSPost2010Prop39
140
1.0
102
RTVSPost2010PropOp39
 70
     0
102
RTVSPost2010Prop40
 90
        0
102
RTVSPost2010PropOp40
 70
     0
102
RTVSPost2010Prop41ColorIndex
 90
       18
102
RTVSPost2010Prop41ColorRGB
 90
        0
102
RTVSPost2010PropOp41
 70
     0
102
RTVSPost2010Prop42
 90
       50
102
RTVSPost2010PropOp42
 70
     0
102
RTVSPost2010Prop43
 90
        3
102
RTVSPost2010PropOp43
 70
     0
102
RTVSPost2010Prop44ColorIndex
 90
        5
102
RTVSPost2010Prop44ColorRGB
 90
      255
102
RTVSPost2010PropOp44
 70
     0
102
RTVSPost2010Prop45
280
     0
102
RTVSPost2010PropOp45
 70
     0
102
RTVSPost2010Prop46
 90
       50
102
RTVSPost2010PropOp46
 70
     0
102
RTVSPost2010Prop47
 90
       50
102
RTVSPost2010PropOp47
 70
     0
102
RTVSPost2010Prop48
 90
       50
102
RTVSPost2010PropOp48
 70
     0
102
RTVSPost2010Prop49
280
     0
102
RTVSPost2010PropOp49
 70
     0
102
RTVSPost2010Prop50
 90
       50
102
RTVSPost2010PropOp50
 70
     0
102
RTVSPost2010Prop51ColorIndex
 90
      256
102
RTVSPost2010Prop51ColorRGB
 90
-16777216
102
RTVSPost2010PropOp51
 70
     0
102
RTVSPost2010Prop52
140
1.0
102
RTVSPost2010PropOp52
 70
     0
102
RTVSPost2010Prop53
 90
        2
102
RTVSPost2010PropOp53
 70
     0
102
RTVSPost2010Prop54
  1
strokes_ogs.tif
102
RTVSPost2010PropOp54
 70
     0
102
RTVSPost2010Prop55
280
     0
102
RTVSPost2010PropOp55
 70
     0
102
RTVSPost2010Prop56
140
1.0
102
RTVSPost2010PropOp56
 70
     0
102
RTVSPost2010Prop57
140
1.0
102
RTVSPost2010PropOp57
 70
     0
  0
XRECORD
  5
1FB
102
{ACAD_REACTORS
330
1FA
102
}
330
1FA
100
AcDbXrecord
280
     1
102
RTVSPropertyOp0
 70
     1
102
RTVSPropertyOp1
 70
     1
102
RTVSPropertyOp2
 70
     1
102
RTVSPropertyOp3
 70
     1
102
RTVSPropertyOp4
 70
     1
102
RTVSPropertyOp5
 70
     1
102
RTVSPropertyOp6
 70
     1
102
RTVSPropertyOp7
 70
     1
102
RTVSPropertyOp8
 70
     1
102
RTVSPropertyOp9
 70
     1
102
RTVSPropertyOp10
 70
     1
102
RTVSPropertyOp11
 70
     1
102
RTVSPropertyOp12
 70
     1
102
RTVSPropertyOp13
 70
     1
102
RTVSPropertyOp14
 70
     1
102
RTVSPropertyOp15
 70
     1
102
RTVSPropertyOp16
 70
     1
102
RTVSPropertyOp17
 70
     1
102
RTVSPropertyOp18
 70
     1
102
RTVSPropertyOp19
 70
     1
102
RTVSPropertyOp20
 70
     1
102
RTVSPropertyOp21
 70
     1
102
RTVSPropertyOp22
 70
     1
102
RTVSPropertyOp23
 70
     1
102
RTVSPropertyOp24
 70
     1
102
RTVSPropertyOp25
 70
     1
102
RTVSPropertyOp26
 70
     1
102
RTVSPropertyOp27
 70
     1
102
RTVSPropertyOp28
 70
     1
102
RTVSPropertyOp29
 70
     1
102
RTVSPropertyOp30
 70
     1
102
RTVSPropertyOp31
 70
     1
102
RTVSPropertyOp32
 70
     1
102
RTVSPropertyOp33
 70
     1
102
RTVSPropertyOp34
 70
     1
102
RTVSPropertyOp35
 70
     1
102
RTVSPropertyOp36
 70
     1
102
RTVSPropertyOp37
 70
     1
102
RTVSPropertyOp38
 70
     1
102
RTVSPropertyOp39
 70
     1
102
RTVSPropertyOp40
 70
     1
102
RTVSPropertyOp41
 70
     1
102
RTVSPropertyOp42
 70
     1
102
RTVSPropertyOp43
 70
     1
102
RTVSPropertyOp44
 70
     1
102
RTVSPropertyOp45
 70
     1
102
RTVSPropertyOp46
 70
     1
102
RTVSPropertyOp47
 70
     1
102
RTVSPropertyOp48
 70
     1
102
RTVSPropertyOp49
 70
     1
102
RTVSPropertyOp50
 70
     1
102
RTVSPropertyOp51
 70
     0
102
RTVSPropertyOp52
 70
     0
102
RTVSPropertyOp53
 70
     1
102
RTVSPropertyOp54
 70
     1
102
RTVSPropertyOp55
 70
     1
102
RTVSPropertyOp56
 70
     1
102
RTVSPropertyOp57
 70
     1
102
RTVSPost2010Prop28
280
     0
102
RTVSPost2010PropOp28
 70
     1
102
RTVSPost2010Prop29
280
     1
102
RTVSPost2010PropOp29
 70
     1
102
RTVSPost2010Prop30
280
     1
102
RTVSPost2010PropOp30
 70
     1
102
RTVSPost2010Prop31
280
     0
102
RTVSPost2010PropOp31
 70
     1
102
RTVSPost2010Prop32
280
     0
102
RTVSPost2010PropOp32
 70
     1
102
RTVSPost2010Prop33
280
     0
102
RTVSPost2010PropOp33
 70
     1
102
RTVSPost2010Prop34
280
     0
102
RTVSPost2010PropOp34
 70
     1
102
RTVSPost2010Prop35
280
     0
102
RTVSPost2010PropOp35
 70
     1
102
RTVSPost2010Prop36
280
     0
102
RTVSPost2010PropOp36
 70
     1
102
RTVSPost2010Prop37
 90
       50
102
RTVSPost2010PropOp37
 70
     1
102
RTVSPost2010Prop38
140
0.0
102
RTVSPost2010PropOp38
 70
     1
102
RTVSPost2010Prop39
140
1.0
102
RTVSPost2010PropOp39
 70
     1
102
RTVSPost2010Prop40
 90
        0
102
RTVSPost2010PropOp40
 70
     1
102
RTVSPost2010Prop41ColorIndex
 90
       18
102
RTVSPost2010Prop41ColorRGB
 90
        0
102
RTVSPost2010PropOp41
 70
     1
102
RTVSPost2010Prop42
 90
       50
102
RTVSPost2010PropOp42
 70
     1
102
RTVSPost2010Prop43
 90
        3
102
RTVSPost2010PropOp43
 70
     1
102
RTVSPost2010Prop44ColorIndex
 90
        5
102
RTVSPost2010Prop44ColorRGB
 90
      255
102
RTVSPost2010PropOp44
 70
     1
102
RTVSPost2010Prop45
280
     0
102
RTVSPost2010PropOp45
 70
     1
102
RTVSPost2010Prop46
 90
       50
102
RTVSPost2010PropOp46
 70
     1
102
RTVSPost2010Prop47
 90
       50
102
RTVSPost2010PropOp47
 70
     1
102
RTVSPost2010Prop48
 90
       50
102
RTVSPost2010PropOp48
 70
     1
102
RTVSPost2010Prop49
280
     0
102
RTVSPost2010PropOp49
 70
     1
102
RTVSPost2010Prop50
 90
       50
102
RTVSPost2010PropOp50
 70
     1
102
RTVSPost2010Prop51ColorIndex
 90
      256
102
RTVSPost2010Prop51ColorRGB
 90
-16777216
102
RTVSPost2010PropOp51
 70
     0
102
RTVSPost2010Prop52
140
1.0
102
RTVSPost2010PropOp52
 70
     0
102
RTVSPost2010Prop53
 90
        2
102
RTVSPost2010PropOp53
 70
     1
102
RTVSPost2010Prop54
  1
strokes_ogs.tif
102
RTVSPost2010PropOp54
 70
     1
102
RTVSPost2010Prop55
280
     0
102
RTVSPost2010PropOp55
 70
     1
102
RTVSPost2010Prop56
140
1.0
102
RTVSPost2010PropOp56
 70
     1
102
RTVSPost2010Prop57
140
1.0
102
RTVSPost2010PropOp57
 70
     1
  0
XRECORD
  5
1DF
102
{ACAD_REACTORS
330
1DE
102
}
330
1DE
100
AcDbXrecord
280
     1
102
RTVSPropertyOp0
 70
     1
102
RTVSPropertyOp1
 70
     1
102
RTVSPropertyOp2
 70
     1
102
RTVSPropertyOp3
 70
     1
102
RTVSPropertyOp4
 70
     1
102
RTVSPropertyOp5
 70
     1
102
RTVSPropertyOp6
 70
     1
102
RTVSPropertyOp7
 70
     1
102
RTVSPropertyOp8
 70
     1
102
RTVSPropertyOp9
 70
     1
102
RTVSPropertyOp10
 70
     1
102
RTVSPropertyOp11
 70
     1
102
RTVSPropertyOp12
 70
     1
102
RTVSPropertyOp13
 70
     1
102
RTVSPropertyOp14
 70
     1
102
RTVSPropertyOp15
 70
     1
102
RTVSPropertyOp16
 70
     1
102
RTVSPropertyOp17
 70
     1
102
RTVSPropertyOp18
 70
     1
102
RTVSPropertyOp19
 70
     1
102
RTVSPropertyOp20
 70
     1
102
RTVSPropertyOp21
 70
     1
102
RTVSPropertyOp22
 70
     1
102
RTVSPropertyOp23
 70
     1
102
RTVSPropertyOp24
 70
     1
102
RTVSPropertyOp25
 70
     1
102
RTVSPropertyOp26
 70
     1
102
RTVSPropertyOp27
 70
     1
102
RTVSPropertyOp28
 70
     1
102
RTVSPropertyOp29
 70
     1
102
RTVSPropertyOp30
 70
     1
102
RTVSPropertyOp31
 70
     1
102
RTVSPropertyOp32
 70
     1
102
RTVSPropertyOp33
 70
     1
102
RTVSPropertyOp34
 70
     1
102
RTVSPropertyOp35
 70
     1
102
RTVSPropertyOp36
 70
     1
102
RTVSPropertyOp37
 70
     1
102
RTVSPropertyOp38
 70
     1
102
RTVSPropertyOp39
 70
     1
102
RTVSPropertyOp40
 70
     1
102
RTVSPropertyOp41
 70
     1
102
RTVSPropertyOp42
 70
     1
102
RTVSPropertyOp43
 70
     1
102
RTVSPropertyOp44
 70
     1
102
RTVSPropertyOp45
 70
     1
102
RTVSPropertyOp46
 70
     1
102
RTVSPropertyOp47
 70
     1
102
RTVSPropertyOp48
 70
     1
102
RTVSPropertyOp49
 70
     1
102
RTVSPropertyOp50
 70
     1
102
RTVSPropertyOp51
 70
     0
102
RTVSPropertyOp52
 70
     0
102
RTVSPropertyOp53
 70
     1
102
RTVSPropertyOp54
 70
     1
102
RTVSPropertyOp55
 70
     1
102
RTVSPropertyOp56
 70
     1
102
RTVSPropertyOp57
 70
     1
102
RTVSPost2010Prop28
280
     0
102
RTVSPost2010PropOp28
 70
     1
102
RTVSPost2010Prop29
280
     1
102
RTVSPost2010PropOp29
 70
     1
102
RTVSPost2010Prop30
280
     1
102
RTVSPost2010PropOp30
 70
     1
102
RTVSPost2010Prop31
280
     0
102
RTVSPost2010PropOp31
 70
     1
102
RTVSPost2010Prop32
280
     0
102
RTVSPost2010PropOp32
 70
     1
102
RTVSPost2010Prop33
280
     0
102
RTVSPost2010PropOp33
 70
     1
102
RTVSPost2010Prop34
280
     0
102
RTVSPost2010PropOp34
 70
     1
102
RTVSPost2010Prop35
280
     0
102
RTVSPost2010PropOp35
 70
     1
102
RTVSPost2010Prop36
280
     0
102
RTVSPost2010PropOp36
 70
     1
102
RTVSPost2010Prop37
 90
       50
102
RTVSPost2010PropOp37
 70
     1
102
RTVSPost2010Prop38
140
0.0
102
RTVSPost2010PropOp38
 70
     1
102
RTVSPost2010Prop39
140
1.0
102
RTVSPost2010PropOp39
 70
     1
102
RTVSPost2010Prop40
 90
        0
102
RTVSPost2010PropOp40
 70
     1
102
RTVSPost2010Prop41ColorIndex
 90
       18
102
RTVSPost2010Prop41ColorRGB
 90
        0
102
RTVSPost2010PropOp41
 70
     1
102
RTVSPost2010Prop42
 90
       50
102
RTVSPost2010PropOp42
 70
     1
102
RTVSPost2010Prop43
 90
        3
102
RTVSPost2010PropOp43
 70
     1
102
RTVSPost2010Prop44ColorIndex
 90
        5
102
RTVSPost2010Prop44ColorRGB
 90
      255
102
RTVSPost2010PropOp44
 70
     1
102
RTVSPost2010Prop45
280
     0
102
RTVSPost2010PropOp45
 70
     1
102
RTVSPost2010Prop46
 90
       50
102
RTVSPost2010PropOp46
 70
     1
102
RTVSPost2010Prop47
 90
       50
102
RTVSPost2010PropOp47
 70
     1
102
RTVSPost2010Prop48
 90
       50
102
RTVSPost2010PropOp48
 70
     1
102
RTVSPost2010Prop49
280
     0
102
RTVSPost2010PropOp49
 70
     1
102
RTVSPost2010Prop50
 90
       50
102
RTVSPost2010PropOp50
 70
     1
102
RTVSPost2010Prop51ColorIndex
 90
      256
102
RTVSPost2010Prop51ColorRGB
 90
-16777216
102
RTVSPost2010PropOp51
 70
     0
102
RTVSPost2010Prop52
140
1.0
102
RTVSPost2010PropOp52
 70
     0
102
RTVSPost2010Prop53
 90
        2
102
RTVSPost2010PropOp53
 70
     1
102
RTVSPost2010Prop54
  1
strokes_ogs.tif
102
RTVSPost2010PropOp54
 70
     1
102
RTVSPost2010Prop55
280
     0
102
RTVSPost2010PropOp55
 70
     1
102
RTVSPost2010Prop56
140
1.0
102
RTVSPost2010PropOp56
 70
     1
102
RTVSPost2010Prop57
140
1.0
102
RTVSPost2010PropOp57
 70
     1
  0
XRECORD
  5
1E1
102
{ACAD_REACTORS
330
1E0
102
}
330
1E0
100
AcDbXrecord
280
     1
102
RTVSPropertyOp0
 70
     1
102
RTVSPropertyOp1
 70
     1
102
RTVSPropertyOp2
 70
     1
102
RTVSPropertyOp3
 70
     1
102
RTVSPropertyOp4
 70
     1
102
RTVSPropertyOp5
 70
     1
102
RTVSPropertyOp6
 70
     1
102
RTVSPropertyOp7
 70
     1
102
RTVSPropertyOp8
 70
     1
102
RTVSPropertyOp9
 70
     1
102
RTVSPropertyOp10
 70
     1
102
RTVSPropertyOp11
 70
     1
102
RTVSPropertyOp12
 70
     1
102
RTVSPropertyOp13
 70
     1
102
RTVSPropertyOp14
 70
     1
102
RTVSPropertyOp15
 70
     1
102
RTVSPropertyOp16
 70
     1
102
RTVSPropertyOp17
 70
     1
102
RTVSPropertyOp18
 70
     1
102
RTVSPropertyOp19
 70
     1
102
RTVSPropertyOp20
 70
     1
102
RTVSPropertyOp21
 70
     1
102
RTVSPropertyOp22
 70
     1
102
RTVSPropertyOp23
 70
     1
102
RTVSPropertyOp24
 70
     1
102
RTVSPropertyOp25
 70
     1
102
RTVSPropertyOp26
 70
     1
102
RTVSPropertyOp27
 70
     1
102
RTVSPropertyOp28
 70
     1
102
RTVSPropertyOp29
 70
     1
102
RTVSPropertyOp30
 70
     1
102
RTVSPropertyOp31
 70
     1
102
RTVSPropertyOp32
 70
     1
102
RTVSPropertyOp33
 70
     1
102
RTVSPropertyOp34
 70
     1
102
RTVSPropertyOp35
 70
     1
102
RTVSPropertyOp36
 70
     1
102
RTVSPropertyOp37
 70
     1
102
RTVSPropertyOp38
 70
     1
102
RTVSPropertyOp39
 70
     1
102
RTVSPropertyOp40
 70
     1
102
RTVSPropertyOp41
 70
     1
102
RTVSPropertyOp42
 70
     1
102
RTVSPropertyOp43
 70
     1
102
RTVSPropertyOp44
 70
     1
102
RTVSPropertyOp45
 70
     1
102
RTVSPropertyOp46
 70
     1
102
RTVSPropertyOp47
 70
     1
102
RTVSPropertyOp48
 70
     1
102
RTVSPropertyOp49
 70
     1
102
RTVSPropertyOp50
 70
     1
102
RTVSPropertyOp51
 70
     0
102
RTVSPropertyOp52
 70
     0
102
RTVSPropertyOp53
 70
     1
102
RTVSPropertyOp54
 70
     1
102
RTVSPropertyOp55
 70
     1
102
RTVSPropertyOp56
 70
     1
102
RTVSPropertyOp57
 70
     1
102
RTVSPost2010Prop28
280
     0
102
RTVSPost2010PropOp28
 70
     1
102
RTVSPost2010Prop29
280
     1
102
RTVSPost2010PropOp29
 70
     1
102
RTVSPost2010Prop30
280
     1
102
RTVSPost2010PropOp30
 70
     1
102
RTVSPost2010Prop31
280
     0
102
RTVSPost2010PropOp31
 70
     1
102
RTVSPost2010Prop32
280
     0
102
RTVSPost2010PropOp32
 70
     1
102
RTVSPost2010Prop33
280
     0
102
RTVSPost2010PropOp33
 70
     1
102
RTVSPost2010Prop34
280
     0
102
RTVSPost2010PropOp34
 70
     1
102
RTVSPost2010Prop35
280
     0
102
RTVSPost2010PropOp35
 70
     1
102
RTVSPost2010Prop36
280
     0
102
RTVSPost2010PropOp36
 70
     1
102
RTVSPost2010Prop37
 90
       50
102
RTVSPost2010PropOp37
 70
     1
102
RTVSPost2010Prop38
140
0.0
102
RTVSPost2010PropOp38
 70
     1
102
RTVSPost2010Prop39
140
1.0
102
RTVSPost2010PropOp39
 70
     1
102
RTVSPost2010Prop40
 90
        0
102
RTVSPost2010PropOp40
 70
     1
102
RTVSPost2010Prop41ColorIndex
 90
       18
102
RTVSPost2010Prop41ColorRGB
 90
        0
102
RTVSPost2010PropOp41
 70
     1
102
RTVSPost2010Prop42
 90
       50
102
RTVSPost2010PropOp42
 70
     1
102
RTVSPost2010Prop43
 90
        3
102
RTVSPost2010PropOp43
 70
     1
102
RTVSPost2010Prop44ColorIndex
 90
        5
102
RTVSPost2010Prop44ColorRGB
 90
      255
102
RTVSPost2010PropOp44
 70
     1
102
RTVSPost2010Prop45
280
     0
102
RTVSPost2010PropOp45
 70
     1
102
RTVSPost2010Prop46
 90
       50
102
RTVSPost2010PropOp46
 70
     1
102
RTVSPost2010Prop47
 90
       50
102
RTVSPost2010PropOp47
 70
     1
102
RTVSPost2010Prop48
 90
       50
102
RTVSPost2010PropOp48
 70
     1
102
RTVSPost2010Prop49
280
     0
102
RTVSPost2010PropOp49
 70
     1
102
RTVSPost2010Prop50
 90
       50
102
RTVSPost2010PropOp50
 70
     1
102
RTVSPost2010Prop51ColorIndex
 90
      256
102
RTVSPost2010Prop51ColorRGB
 90
-16777216
102
RTVSPost2010PropOp51
 70
     0
102
RTVSPost2010Prop52
140
1.0
102
RTVSPost2010PropOp52
 70
     0
102
RTVSPost2010Prop53
 90
        2
102
RTVSPost2010PropOp53
 70
     1
102
RTVSPost2010Prop54
  1
strokes_ogs.tif
102
RTVSPost2010PropOp54
 70
     1
102
RTVSPost2010Prop55
280
     0
102
RTVSPost2010PropOp55
 70
     1
102
RTVSPost2010Prop56
140
1.0
102
RTVSPost2010PropOp56
 70
     1
102
RTVSPost2010Prop57
140
1.0
102
RTVSPost2010PropOp57
 70
     1
  0
XRECORD
  5
1E3
102
{ACAD_REACTORS
330
1E2
102
}
330
1E2
100
AcDbXrecord
280
     1
102
RTVSPropertyOp0
 70
     1
102
RTVSPropertyOp1
 70
     1
102
RTVSPropertyOp2
 70
     1
102
RTVSPropertyOp3
 70
     1
102
RTVSPropertyOp4
 70
     1
102
RTVSPropertyOp5
 70
     1
102
RTVSPropertyOp6
 70
     1
102
RTVSPropertyOp7
 70
     1
102
RTVSPropertyOp8
 70
     1
102
RTVSPropertyOp9
 70
     1
102
RTVSPropertyOp10
 70
     1
102
RTVSPropertyOp11
 70
     1
102
RTVSPropertyOp12
 70
     1
102
RTVSPropertyOp13
 70
     1
102
RTVSPropertyOp14
 70
     1
102
RTVSPropertyOp15
 70
     1
102
RTVSPropertyOp16
 70
     1
102
RTVSPropertyOp17
 70
     1
102
RTVSPropertyOp18
 70
     1
102
RTVSPropertyOp19
 70
     1
102
RTVSPropertyOp20
 70
     1
102
RTVSPropertyOp21
 70
     1
102
RTVSPropertyOp22
 70
     1
102
RTVSPropertyOp23
 70
     1
102
RTVSPropertyOp24
 70
     1
102
RTVSPropertyOp25
 70
     1
102
RTVSPropertyOp26
 70
     1
102
RTVSPropertyOp27
 70
     1
102
RTVSPropertyOp28
 70
     1
102
RTVSPropertyOp29
 70
     1
102
RTVSPropertyOp30
 70
     1
102
RTVSPropertyOp31
 70
     1
102
RTVSPropertyOp32
 70
     1
102
RTVSPropertyOp33
 70
     1
102
RTVSPropertyOp34
 70
     1
102
RTVSPropertyOp35
 70
     1
102
RTVSPropertyOp36
 70
     1
102
RTVSPropertyOp37
 70
     1
102
RTVSPropertyOp38
 70
     1
102
RTVSPropertyOp39
 70
     1
102
RTVSPropertyOp40
 70
     1
102
RTVSPropertyOp41
 70
     1
102
RTVSPropertyOp42
 70
     1
102
RTVSPropertyOp43
 70
     1
102
RTVSPropertyOp44
 70
     1
102
RTVSPropertyOp45
 70
     1
102
RTVSPropertyOp46
 70
     1
102
RTVSPropertyOp47
 70
     1
102
RTVSPropertyOp48
 70
     1
102
RTVSPropertyOp49
 70
     1
102
RTVSPropertyOp50
 70
     1
102
RTVSPropertyOp51
 70
     0
102
RTVSPropertyOp52
 70
     0
102
RTVSPropertyOp53
 70
     1
102
RTVSPropertyOp54
 70
     1
102
RTVSPropertyOp55
 70
     1
102
RTVSPropertyOp56
 70
     1
102
RTVSPropertyOp57
 70
     1
102
RTVSPost2010Prop28
280
     0
102
RTVSPost2010PropOp28
 70
     1
102
RTVSPost2010Prop29
280
     1
102
RTVSPost2010PropOp29
 70
     1
102
RTVSPost2010Prop30
280
     1
102
RTVSPost2010PropOp30
 70
     1
102
RTVSPost2010Prop31
280
     0
102
RTVSPost2010PropOp31
 70
     1
102
RTVSPost2010Prop32
280
     0
102
RTVSPost2010PropOp32
 70
     1
102
RTVSPost2010Prop33
280
     0
102
RTVSPost2010PropOp33
 70
     1
102
RTVSPost2010Prop34
280
     0
102
RTVSPost2010PropOp34
 70
     1
102
RTVSPost2010Prop35
280
     0
102
RTVSPost2010PropOp35
 70
     1
102
RTVSPost2010Prop36
280
     0
102
RTVSPost2010PropOp36
 70
     1
102
RTVSPost2010Prop37
 90
       50
102
RTVSPost2010PropOp37
 70
     1
102
RTVSPost2010Prop38
140
0.0
102
RTVSPost2010PropOp38
 70
     1
102
RTVSPost2010Prop39
140
1.0
102
RTVSPost2010PropOp39
 70
     1
102
RTVSPost2010Prop40
 90
        0
102
RTVSPost2010PropOp40
 70
     1
102
RTVSPost2010Prop41ColorIndex
 90
       18
102
RTVSPost2010Prop41ColorRGB
 90
        0
102
RTVSPost2010PropOp41
 70
     1
102
RTVSPost2010Prop42
 90
       50
102
RTVSPost2010PropOp42
 70
     1
102
RTVSPost2010Prop43
 90
        3
102
RTVSPost2010PropOp43
 70
     1
102
RTVSPost2010Prop44ColorIndex
 90
        5
102
RTVSPost2010Prop44ColorRGB
 90
      255
102
RTVSPost2010PropOp44
 70
     1
102
RTVSPost2010Prop45
280
     0
102
RTVSPost2010PropOp45
 70
     1
102
RTVSPost2010Prop46
 90
       50
102
RTVSPost2010PropOp46
 70
     1
102
RTVSPost2010Prop47
 90
       50
102
RTVSPost2010PropOp47
 70
     1
102
RTVSPost2010Prop48
 90
       50
102
RTVSPost2010PropOp48
 70
     1
102
RTVSPost2010Prop49
280
     0
102
RTVSPost2010PropOp49
 70
     1
102
RTVSPost2010Prop50
 90
       50
102
RTVSPost2010PropOp50
 70
     1
102
RTVSPost2010Prop51ColorIndex
 90
      256
102
RTVSPost2010Prop51ColorRGB
 90
-16777216
102
RTVSPost2010PropOp51
 70
     0
102
RTVSPost2010Prop52
140
1.0
102
RTVSPost2010PropOp52
 70
     0
102
RTVSPost2010Prop53
 90
        2
102
RTVSPost2010PropOp53
 70
     1
102
RTVSPost2010Prop54
  1
strokes_ogs.tif
102
RTVSPost2010PropOp54
 70
     1
102
RTVSPost2010Prop55
280
     0
102
RTVSPost2010PropOp55
 70
     1
102
RTVSPost2010Prop56
140
1.0
102
RTVSPost2010PropOp56
 70
     1
102
RTVSPost2010Prop57
140
1.0
102
RTVSPost2010PropOp57
 70
     1
  0
XRECORD
  5
1E5
102
{ACAD_REACTORS
330
1E4
102
}
330
1E4
100
AcDbXrecord
280
     1
102
RTVSPropertyOp0
 70
     1
102
RTVSPropertyOp1
 70
     1
102
RTVSPropertyOp2
 70
     1
102
RTVSPropertyOp3
 70
     1
102
RTVSPropertyOp4
 70
     1
102
RTVSPropertyOp5
 70
     1
102
RTVSPropertyOp6
 70
     1
102
RTVSPropertyOp7
 70
     1
102
RTVSPropertyOp8
 70
     1
102
RTVSPropertyOp9
 70
     1
102
RTVSPropertyOp10
 70
     1
102
RTVSPropertyOp11
 70
     1
102
RTVSPropertyOp12
 70
     1
102
RTVSPropertyOp13
 70
     1
102
RTVSPropertyOp14
 70
     1
102
RTVSPropertyOp15
 70
     1
102
RTVSPropertyOp16
 70
     1
102
RTVSPropertyOp17
 70
     1
102
RTVSPropertyOp18
 70
     1
102
RTVSPropertyOp19
 70
     1
102
RTVSPropertyOp20
 70
     1
102
RTVSPropertyOp21
 70
     1
102
RTVSPropertyOp22
 70
     1
102
RTVSPropertyOp23
 70
     1
102
RTVSPropertyOp24
 70
     1
102
RTVSPropertyOp25
 70
     1
102
RTVSPropertyOp26
 70
     1
102
RTVSPropertyOp27
 70
     1
102
RTVSPropertyOp28
 70
     1
102
RTVSPropertyOp29
 70
     1
102
RTVSPropertyOp30
 70
     1
102
RTVSPropertyOp31
 70
     1
102
RTVSPropertyOp32
 70
     1
102
RTVSPropertyOp33
 70
     1
102
RTVSPropertyOp34
 70
     1
102
RTVSPropertyOp35
 70
     1
102
RTVSPropertyOp36
 70
     1
102
RTVSPropertyOp37
 70
     1
102
RTVSPropertyOp38
 70
     1
102
RTVSPropertyOp39
 70
     1
102
RTVSPropertyOp40
 70
     1
102
RTVSPropertyOp41
 70
     1
102
RTVSPropertyOp42
 70
     1
102
RTVSPropertyOp43
 70
     1
102
RTVSPropertyOp44
 70
     1
102
RTVSPropertyOp45
 70
     1
102
RTVSPropertyOp46
 70
     1
102
RTVSPropertyOp47
 70
     1
102
RTVSPropertyOp48
 70
     1
102
RTVSPropertyOp49
 70
     1
102
RTVSPropertyOp50
 70
     1
102
RTVSPropertyOp51
 70
     0
102
RTVSPropertyOp52
 70
     0
102
RTVSPropertyOp53
 70
     1
102
RTVSPropertyOp54
 70
     1
102
RTVSPropertyOp55
 70
     1
102
RTVSPropertyOp56
 70
     1
102
RTVSPropertyOp57
 70
     1
102
RTVSPost2010Prop28
280
     0
102
RTVSPost2010PropOp28
 70
     1
102
RTVSPost2010Prop29
280
     1
102
RTVSPost2010PropOp29
 70
     1
102
RTVSPost2010Prop30
280
     1
102
RTVSPost2010PropOp30
 70
     1
102
RTVSPost2010Prop31
280
     0
102
RTVSPost2010PropOp31
 70
     1
102
RTVSPost2010Prop32
280
     0
102
RTVSPost2010PropOp32
 70
     1
102
RTVSPost2010Prop33
280
     0
102
RTVSPost2010PropOp33
 70
     1
102
RTVSPost2010Prop34
280
     0
102
RTVSPost2010PropOp34
 70
     1
102
RTVSPost2010Prop35
280
     0
102
RTVSPost2010PropOp35
 70
     1
102
RTVSPost2010Prop36
280
     0
102
RTVSPost2010PropOp36
 70
     1
102
RTVSPost2010Prop37
 90
       50
102
RTVSPost2010PropOp37
 70
     1
102
RTVSPost2010Prop38
140
0.0
102
RTVSPost2010PropOp38
 70
     1
102
RTVSPost2010Prop39
140
1.0
102
RTVSPost2010PropOp39
 70
     1
102
RTVSPost2010Prop40
 90
        0
102
RTVSPost2010PropOp40
 70
     1
102
RTVSPost2010Prop41ColorIndex
 90
       18
102
RTVSPost2010Prop41ColorRGB
 90
        0
102
RTVSPost2010PropOp41
 70
     1
102
RTVSPost2010Prop42
 90
       50
102
RTVSPost2010PropOp42
 70
     1
102
RTVSPost2010Prop43
 90
        3
102
RTVSPost2010PropOp43
 70
     1
102
RTVSPost2010Prop44ColorIndex
 90
        5
102
RTVSPost2010Prop44ColorRGB
 90
      255
102
RTVSPost2010PropOp44
 70
     1
102
RTVSPost2010Prop45
280
     0
102
RTVSPost2010PropOp45
 70
     1
102
RTVSPost2010Prop46
 90
       50
102
RTVSPost2010PropOp46
 70
     1
102
RTVSPost2010Prop47
 90
       50
102
RTVSPost2010PropOp47
 70
     1
102
RTVSPost2010Prop48
 90
       50
102
RTVSPost2010PropOp48
 70
     1
102
RTVSPost2010Prop49
280
     0
102
RTVSPost2010PropOp49
 70
     1
102
RTVSPost2010Prop50
 90
       50
102
RTVSPost2010PropOp50
 70
     1
102
RTVSPost2010Prop51ColorIndex
 90
      256
102
RTVSPost2010Prop51ColorRGB
 90
-16777216
102
RTVSPost2010PropOp51
 70
     0
102
RTVSPost2010Prop52
140
1.0
102
RTVSPost2010PropOp52
 70
     0
102
RTVSPost2010Prop53
 90
        2
102
RTVSPost2010PropOp53
 70
     1
102
RTVSPost2010Prop54
  1
strokes_ogs.tif
102
RTVSPost2010PropOp54
 70
     1
102
RTVSPost2010Prop55
280
     0
102
RTVSPost2010PropOp55
 70
     1
102
RTVSPost2010Prop56
140
1.0
102
RTVSPost2010PropOp56
 70
     1
102
RTVSPost2010Prop57
140
1.0
102
RTVSPost2010PropOp57
 70
     1
  0
XRECORD
  5
1EB
102
{ACAD_REACTORS
330
1EA
102
}
330
1EA
100
AcDbXrecord
280
     1
102
RTVSPropertyOp0
 70
     1
102
RTVSPropertyOp1
 70
     1
102
RTVSPropertyOp2
 70
     1
102
RTVSPropertyOp3
 70
     1
102
RTVSPropertyOp4
 70
     1
102
RTVSPropertyOp5
 70
     1
102
RTVSPropertyOp6
 70
     1
102
RTVSPropertyOp7
 70
     1
102
RTVSPropertyOp8
 70
     1
102
RTVSPropertyOp9
 70
     1
102
RTVSPropertyOp10
 70
     1
102
RTVSPropertyOp11
 70
     1
102
RTVSPropertyOp12
 70
     1
102
RTVSPropertyOp13
 70
     1
102
RTVSPropertyOp14
 70
     1
102
RTVSPropertyOp15
 70
     1
102
RTVSPropertyOp16
 70
     1
102
RTVSPropertyOp17
 70
     1
102
RTVSPropertyOp18
 70
     1
102
RTVSPropertyOp19
 70
     1
102
RTVSPropertyOp20
 70
     1
102
RTVSPropertyOp21
 70
     1
102
RTVSPropertyOp22
 70
     1
102
RTVSPropertyOp23
 70
     1
102
RTVSPropertyOp24
 70
     1
102
RTVSPropertyOp25
 70
     1
102
RTVSPropertyOp26
 70
     1
102
RTVSPropertyOp27
 70
     1
102
RTVSPropertyOp28
 70
     1
102
RTVSPropertyOp29
 70
     1
102
RTVSPropertyOp30
 70
     1
102
RTVSPropertyOp31
 70
     1
102
RTVSPropertyOp32
 70
     1
102
RTVSPropertyOp33
 70
     1
102
RTVSPropertyOp34
 70
     1
102
RTVSPropertyOp35
 70
     1
102
RTVSPropertyOp36
 70
     1
102
RTVSPropertyOp37
 70
     1
102
RTVSPropertyOp38
 70
     1
102
RTVSPropertyOp39
 70
     1
102
RTVSPropertyOp40
 70
     1
102
RTVSPropertyOp41
 70
     1
102
RTVSPropertyOp42
 70
     1
102
RTVSPropertyOp43
 70
     1
102
RTVSPropertyOp44
 70
     1
102
RTVSPropertyOp45
 70
     1
102
RTVSPropertyOp46
 70
     1
102
RTVSPropertyOp47
 70
     1
102
RTVSPropertyOp48
 70
     1
102
RTVSPropertyOp49
 70
     1
102
RTVSPropertyOp50
 70
     1
102
RTVSPropertyOp51
 70
     0
102
RTVSPropertyOp52
 70
     0
102
RTVSPropertyOp53
 70
     1
102
RTVSPropertyOp54
 70
     1
102
RTVSPropertyOp55
 70
     1
102
RTVSPropertyOp56
 70
     1
102
RTVSPropertyOp57
 70
     1
102
RTVSPost2010Prop28
280
     0
102
RTVSPost2010PropOp28
 70
     1
102
RTVSPost2010Prop29
280
     1
102
RTVSPost2010PropOp29
 70
     1
102
RTVSPost2010Prop30
280
     1
102
RTVSPost2010PropOp30
 70
     1
102
RTVSPost2010Prop31
280
     0
102
RTVSPost2010PropOp31
 70
     1
102
RTVSPost2010Prop32
280
     0
102
RTVSPost2010PropOp32
 70
     1
102
RTVSPost2010Prop33
280
     0
102
RTVSPost2010PropOp33
 70
     1
102
RTVSPost2010Prop34
280
     0
102
RTVSPost2010PropOp34
 70
     1
102
RTVSPost2010Prop35
280
     0
102
RTVSPost2010PropOp35
 70
     1
102
RTVSPost2010Prop36
280
     0
102
RTVSPost2010PropOp36
 70
     1
102
RTVSPost2010Prop37
 90
       50
102
RTVSPost2010PropOp37
 70
     1
102
RTVSPost2010Prop38
140
0.0
102
RTVSPost2010PropOp38
 70
     1
102
RTVSPost2010Prop39
140
1.0
102
RTVSPost2010PropOp39
 70
     1
102
RTVSPost2010Prop40
 90
        0
102
RTVSPost2010PropOp40
 70
     1
102
RTVSPost2010Prop41ColorIndex
 90
       18
102
RTVSPost2010Prop41ColorRGB
 90
        0
102
RTVSPost2010PropOp41
 70
     1
102
RTVSPost2010Prop42
 90
       50
102
RTVSPost2010PropOp42
 70
     1
102
RTVSPost2010Prop43
 90
        3
102
RTVSPost2010PropOp43
 70
     1
102
RTVSPost2010Prop44ColorIndex
 90
        5
102
RTVSPost2010Prop44ColorRGB
 90
      255
102
RTVSPost2010PropOp44
 70
     1
102
RTVSPost2010Prop45
280
     0
102
RTVSPost2010PropOp45
 70
     1
102
RTVSPost2010Prop46
 90
       50
102
RTVSPost2010PropOp46
 70
     1
102
RTVSPost2010Prop47
 90
       50
102
RTVSPost2010PropOp47
 70
     1
102
RTVSPost2010Prop48
 90
       50
102
RTVSPost2010PropOp48
 70
     1
102
RTVSPost2010Prop49
280
     0
102
RTVSPost2010PropOp49
 70
     1
102
RTVSPost2010Prop50
 90
       50
102
RTVSPost2010PropOp50
 70
     1
102
RTVSPost2010Prop51ColorIndex
 90
      256
102
RTVSPost2010Prop51ColorRGB
 90
-16777216
102
RTVSPost2010PropOp51
 70
     0
102
RTVSPost2010Prop52
140
1.0
102
RTVSPost2010PropOp52
 70
     0
102
RTVSPost2010Prop53
 90
        2
102
RTVSPost2010PropOp53
 70
     1
102
RTVSPost2010Prop54
  1
strokes_ogs.tif
102
RTVSPost2010PropOp54
 70
     1
102
RTVSPost2010Prop55
280
     0
102
RTVSPost2010PropOp55
 70
     1
102
RTVSPost2010Prop56
140
1.0
102
RTVSPost2010PropOp56
 70
     1
102
RTVSPost2010Prop57
140
1.0
102
RTVSPost2010PropOp57
 70
     1
  0
XRECORD
  5
1FF
102
{ACAD_REACTORS
330
1FE
102
}
330
1FE
100
AcDbXrecord
280
     1
102
RTVSPropertyOp0
 70
     0
102
RTVSPropertyOp1
 70
     0
102
RTVSPropertyOp2
 70
     0
102
RTVSPropertyOp3
 70
     0
102
RTVSPropertyOp4
 70
     0
102
RTVSPropertyOp5
 70
     0
102
RTVSPropertyOp6
 70
     0
102
RTVSPropertyOp7
 70
     0
102
RTVSPropertyOp8
 70
     0
102
RTVSPropertyOp9
 70
     0
102
RTVSPropertyOp10
 70
     0
102
RTVSPropertyOp11
 70
     0
102
RTVSPropertyOp12
 70
     0
102
RTVSPropertyOp13
 70
     0
102
RTVSPropertyOp14
 70
     2
102
RTVSPropertyOp15
 70
     0
102
RTVSPropertyOp16
 70
     0
102
RTVSPropertyOp17
 70
     0
102
RTVSPropertyOp18
 70
     0
102
RTVSPropertyOp19
 70
     0
102
RTVSPropertyOp20
 70
     0
102
RTVSPropertyOp21
 70
     0
102
RTVSPropertyOp22
 70
     0
102
RTVSPropertyOp23
 70
     0
102
RTVSPropertyOp24
 70
     0
102
RTVSPropertyOp25
 70
     0
102
RTVSPropertyOp26
 70
     0
102
RTVSPropertyOp27
 70
     0
102
RTVSPropertyOp28
 70
     0
102
RTVSPropertyOp29
 70
     0
102
RTVSPropertyOp30
 70
     0
102
RTVSPropertyOp31
 70
     0
102
RTVSPropertyOp32
 70
     0
102
RTVSPropertyOp33
 70
     0
102
RTVSPropertyOp34
 70
     0
102
RTVSPropertyOp35
 70
     0
102
RTVSPropertyOp36
 70
     0
102
RTVSPropertyOp37
 70
     0
102
RTVSPropertyOp38
 70
     0
102
RTVSPropertyOp39
 70
     0
102
RTVSPropertyOp40
 70
     0
102
RTVSPropertyOp41
 70
     0
102
RTVSPropertyOp42
 70
     0
102
RTVSPropertyOp43
 70
     0
102
RTVSPropertyOp44
 70
     0
102
RTVSPropertyOp45
 70
     0
102
RTVSPropertyOp46
 70
     0
102
RTVSPropertyOp47
 70
     0
102
RTVSPropertyOp48
 70
     0
102
RTVSPropertyOp49
 70
     0
102
RTVSPropertyOp50
 70
     0
102
RTVSPropertyOp51
 70
     0
102
RTVSPropertyOp52
 70
     0
102
RTVSPropertyOp53
 70
     0
102
RTVSPropertyOp54
 70
     0
102
RTVSPropertyOp55
 70
     0
102
RTVSPropertyOp56
 70
     0
102
RTVSPropertyOp57
 70
     0
102
RTVSPost2010Prop28
280
     0
102
RTVSPost2010PropOp28
 70
     0
102
RTVSPost2010Prop29
280
     1
102
RTVSPost2010PropOp29
 70
     0
102
RTVSPost2010Prop30
280
     1
102
RTVSPost2010PropOp30
 70
     0
102
RTVSPost2010Prop31
280
     0
102
RTVSPost2010PropOp31
 70
     0
102
RTVSPost2010Prop32
280
     0
102
RTVSPost2010PropOp32
 70
     0
102
RTVSPost2010Prop33
280
     0
102
RTVSPost2010PropOp33
 70
     0
102
RTVSPost2010Prop34
280
     0
102
RTVSPost2010PropOp34
 70
     0
102
RTVSPost2010Prop35
280
     0
102
RTVSPost2010PropOp35
 70
     0
102
RTVSPost2010Prop36
280
     0
102
RTVSPost2010PropOp36
 70
     0
102
RTVSPost2010Prop37
 90
       50
102
RTVSPost2010PropOp37
 70
     0
102
RTVSPost2010Prop38
140
0.0
102
RTVSPost2010PropOp38
 70
     0
102
RTVSPost2010Prop39
140
1.0
102
RTVSPost2010PropOp39
 70
     0
102
RTVSPost2010Prop40
 90
        0
102
RTVSPost2010PropOp40
 70
     0
102
RTVSPost2010Prop41ColorIndex
 90
       18
102
RTVSPost2010Prop41ColorRGB
 90
        0
102
RTVSPost2010PropOp41
 70
     0
102
RTVSPost2010Prop42
 90
       50
102
RTVSPost2010PropOp42
 70
     0
102
RTVSPost2010Prop43
 90
        3
102
RTVSPost2010PropOp43
 70
     0
102
RTVSPost2010Prop44ColorIndex
 90
        5
102
RTVSPost2010Prop44ColorRGB
 90
      255
102
RTVSPost2010PropOp44
 70
     0
102
RTVSPost2010Prop45
280
     0
102
RTVSPost2010PropOp45
 70
     0
102
RTVSPost2010Prop46
 90
       50
102
RTVSPost2010PropOp46
 70
     0
102
RTVSPost2010Prop47
 90
       50
102
RTVSPost2010PropOp47
 70
     0
102
RTVSPost2010Prop48
 90
       50
102
RTVSPost2010PropOp48
 70
     0
102
RTVSPost2010Prop49
280
     0
102
RTVSPost2010PropOp49
 70
     0
102
RTVSPost2010Prop50
 90
       50
102
RTVSPost2010PropOp50
 70
     0
102
RTVSPost2010Prop51ColorIndex
 90
      256
102
RTVSPost2010Prop51ColorRGB
 90
-16777216
102
RTVSPost2010PropOp51
 70
     0
102
RTVSPost2010Prop52
140
1.0
102
RTVSPost2010PropOp52
 70
     0
102
RTVSPost2010Prop53
 90
        2
102
RTVSPost2010PropOp53
 70
     0
102
RTVSPost2010Prop54
  1
strokes_ogs.tif
102
RTVSPost2010PropOp54
 70
     0
102
RTVSPost2010Prop55
280
     0
102
RTVSPost2010PropOp55
 70
     0
102
RTVSPost2010Prop56
140
1.0
102
RTVSPost2010PropOp56
 70
     0
102
RTVSPost2010Prop57
140
1.0
102
RTVSPost2010PropOp57
 70
     0
  0
XRECORD
  5
1F9
102
{ACAD_REACTORS
330
1F8
102
}
330
1F8
100
AcDbXrecord
280
     1
102
RTVSPropertyOp0
 70
     1
102
RTVSPropertyOp1
 70
     1
102
RTVSPropertyOp2
 70
     1
102
RTVSPropertyOp3
 70
     1
102
RTVSPropertyOp4
 70
     1
102
RTVSPropertyOp5
 70
     1
102
RTVSPropertyOp6
 70
     1
102
RTVSPropertyOp7
 70
     1
102
RTVSPropertyOp8
 70
     1
102
RTVSPropertyOp9
 70
     1
102
RTVSPropertyOp10
 70
     1
102
RTVSPropertyOp11
 70
     1
102
RTVSPropertyOp12
 70
     1
102
RTVSPropertyOp13
 70
     1
102
RTVSPropertyOp14
 70
     1
102
RTVSPropertyOp15
 70
     1
102
RTVSPropertyOp16
 70
     1
102
RTVSPropertyOp17
 70
     1
102
RTVSPropertyOp18
 70
     1
102
RTVSPropertyOp19
 70
     1
102
RTVSPropertyOp20
 70
     1
102
RTVSPropertyOp21
 70
     1
102
RTVSPropertyOp22
 70
     1
102
RTVSPropertyOp23
 70
     1
102
RTVSPropertyOp24
 70
     1
102
RTVSPropertyOp25
 70
     1
102
RTVSPropertyOp26
 70
     1
102
RTVSPropertyOp27
 70
     1
102
RTVSPropertyOp28
 70
     1
102
RTVSPropertyOp29
 70
     1
102
RTVSPropertyOp30
 70
     1
102
RTVSPropertyOp31
 70
     1
102
RTVSPropertyOp32
 70
     1
102
RTVSPropertyOp33
 70
     1
102
RTVSPropertyOp34
 70
     1
102
RTVSPropertyOp35
 70
     1
102
RTVSPropertyOp36
 70
     1
102
RTVSPropertyOp37
 70
     1
102
RTVSPropertyOp38
 70
     1
102
RTVSPropertyOp39
 70
     1
102
RTVSPropertyOp40
 70
     1
102
RTVSPropertyOp41
 70
     1
102
RTVSPropertyOp42
 70
     1
102
RTVSPropertyOp43
 70
     1
102
RTVSPropertyOp44
 70
     1
102
RTVSPropertyOp45
 70
     1
102
RTVSPropertyOp46
 70
     1
102
RTVSPropertyOp47
 70
     1
102
RTVSPropertyOp48
 70
     1
102
RTVSPropertyOp49
 70
     1
102
RTVSPropertyOp50
 70
     1
102
RTVSPropertyOp51
 70
     0
102
RTVSPropertyOp52
 70
     0
102
RTVSPropertyOp53
 70
     1
102
RTVSPropertyOp54
 70
     1
102
RTVSPropertyOp55
 70
     1
102
RTVSPropertyOp56
 70
     1
102
RTVSPropertyOp57
 70
     1
102
RTVSPost2010Prop28
280
     0
102
RTVSPost2010PropOp28
 70
     1
102
RTVSPost2010Prop29
280
     1
102
RTVSPost2010PropOp29
 70
     1
102
RTVSPost2010Prop30
280
     1
102
RTVSPost2010PropOp30
 70
     1
102
RTVSPost2010Prop31
280
     0
102
RTVSPost2010PropOp31
 70
     1
102
RTVSPost2010Prop32
280
     0
102
RTVSPost2010PropOp32
 70
     1
102
RTVSPost2010Prop33
280
     0
102
RTVSPost2010PropOp33
 70
     1
102
RTVSPost2010Prop34
280
     0
102
RTVSPost2010PropOp34
 70
     1
102
RTVSPost2010Prop35
280
     0
102
RTVSPost2010PropOp35
 70
     1
102
RTVSPost2010Prop36
280
     0
102
RTVSPost2010PropOp36
 70
     1
102
RTVSPost2010Prop37
 90
       50
102
RTVSPost2010PropOp37
 70
     1
102
RTVSPost2010Prop38
140
0.0
102
RTVSPost2010PropOp38
 70
     1
102
RTVSPost2010Prop39
140
1.0
102
RTVSPost2010PropOp39
 70
     1
102
RTVSPost2010Prop40
 90
        0
102
RTVSPost2010PropOp40
 70
     1
102
RTVSPost2010Prop41ColorIndex
 90
       18
102
RTVSPost2010Prop41ColorRGB
 90
        0
102
RTVSPost2010PropOp41
 70
     1
102
RTVSPost2010Prop42
 90
       50
102
RTVSPost2010PropOp42
 70
     1
102
RTVSPost2010Prop43
 90
        3
102
RTVSPost2010PropOp43
 70
     1
102
RTVSPost2010Prop44ColorIndex
 90
        5
102
RTVSPost2010Prop44ColorRGB
 90
      255
102
RTVSPost2010PropOp44
 70
     1
102
RTVSPost2010Prop45
280
     0
102
RTVSPost2010PropOp45
 70
     1
102
RTVSPost2010Prop46
 90
       50
102
RTVSPost2010PropOp46
 70
     1
102
RTVSPost2010Prop47
 90
       50
102
RTVSPost2010PropOp47
 70
     1
102
RTVSPost2010Prop48
 90
       50
102
RTVSPost2010PropOp48
 70
     1
102
RTVSPost2010Prop49
280
     0
102
RTVSPost2010PropOp49
 70
     1
102
RTVSPost2010Prop50
 90
       50
102
RTVSPost2010PropOp50
 70
     1
102
RTVSPost2010Prop51ColorIndex
 90
      256
102
RTVSPost2010Prop51ColorRGB
 90
-16777216
102
RTVSPost2010PropOp51
 70
     0
102
RTVSPost2010Prop52
140
1.0
102
RTVSPost2010PropOp52
 70
     0
102
RTVSPost2010Prop53
 90
        2
102
RTVSPost2010PropOp53
 70
     1
102
RTVSPost2010Prop54
  1
strokes_ogs.tif
102
RTVSPost2010PropOp54
 70
     1
102
RTVSPost2010Prop55
280
     0
102
RTVSPost2010PropOp55
 70
     1
102
RTVSPost2010Prop56
140
1.0
102
RTVSPost2010PropOp56
 70
     1
102
RTVSPost2010Prop57
140
1.0
102
RTVSPost2010PropOp57
 70
     1
  0
XRECORD
  5
201
102
{ACAD_REACTORS
330
200
102
}
330
200
100
AcDbXrecord
280
     1
102
RTVSPropertyOp0
 70
     0
102
RTVSPropertyOp1
 70
     0
102
RTVSPropertyOp2
 70
     0
102
RTVSPropertyOp3
 70
     0
102
RTVSPropertyOp4
 70
     0
102
RTVSPropertyOp5
 70
     0
102
RTVSPropertyOp6
 70
     0
102
RTVSPropertyOp7
 70
     0
102
RTVSPropertyOp8
 70
     0
102
RTVSPropertyOp9
 70
     0
102
RTVSPropertyOp10
 70
     0
102
RTVSPropertyOp11
 70
     0
102
RTVSPropertyOp12
 70
     0
102
RTVSPropertyOp13
 70
     0
102
RTVSPropertyOp14
 70
     2
102
RTVSPropertyOp15
 70
     0
102
RTVSPropertyOp16
 70
     0
102
RTVSPropertyOp17
 70
     0
102
RTVSPropertyOp18
 70
     0
102
RTVSPropertyOp19
 70
     0
102
RTVSPropertyOp20
 70
     0
102
RTVSPropertyOp21
 70
     0
102
RTVSPropertyOp22
 70
     0
102
RTVSPropertyOp23
 70
     0
102
RTVSPropertyOp24
 70
     0
102
RTVSPropertyOp25
 70
     0
102
RTVSPropertyOp26
 70
     0
102
RTVSPropertyOp27
 70
     0
102
RTVSPropertyOp28
 70
     0
102
RTVSPropertyOp29
 70
     0
102
RTVSPropertyOp30
 70
     0
102
RTVSPropertyOp31
 70
     0
102
RTVSPropertyOp32
 70
     0
102
RTVSPropertyOp33
 70
     0
102
RTVSPropertyOp34
 70
     0
102
RTVSPropertyOp35
 70
     0
102
RTVSPropertyOp36
 70
     0
102
RTVSPropertyOp37
 70
     0
102
RTVSPropertyOp38
 70
     0
102
RTVSPropertyOp39
 70
     0
102
RTVSPropertyOp40
 70
     0
102
RTVSPropertyOp41
 70
     0
102
RTVSPropertyOp42
 70
     0
102
RTVSPropertyOp43
 70
     0
102
RTVSPropertyOp44
 70
     0
102
RTVSPropertyOp45
 70
     0
102
RTVSPropertyOp46
 70
     0
102
RTVSPropertyOp47
 70
     0
102
RTVSPropertyOp48
 70
     0
102
RTVSPropertyOp49
 70
     0
102
RTVSPropertyOp50
 70
     0
102
RTVSPropertyOp51
 70
     0
102
RTVSPropertyOp52
 70
     0
102
RTVSPropertyOp53
 70
     0
102
RTVSPropertyOp54
 70
     0
102
RTVSPropertyOp55
 70
     0
102
RTVSPropertyOp56
 70
     0
102
RTVSPropertyOp57
 70
     0
102
RTVSPost2010Prop28
280
     0
102
RTVSPost2010PropOp28
 70
     0
102
RTVSPost2010Prop29
280
     1
102
RTVSPost2010PropOp29
 70
     0
102
RTVSPost2010Prop30
280
     1
102
RTVSPost2010PropOp30
 70
     0
102
RTVSPost2010Prop31
280
     0
102
RTVSPost2010PropOp31
 70
     0
102
RTVSPost2010Prop32
280
     0
102
RTVSPost2010PropOp32
 70
     0
102
RTVSPost2010Prop33
280
     0
102
RTVSPost2010PropOp33
 70
     0
102
RTVSPost2010Prop34
280
     0
102
RTVSPost2010PropOp34
 70
     0
102
RTVSPost2010Prop35
280
     0
102
RTVSPost2010PropOp35
 70
     0
102
RTVSPost2010Prop36
280
     0
102
RTVSPost2010PropOp36
 70
     0
102
RTVSPost2010Prop37
 90
       50
102
RTVSPost2010PropOp37
 70
     0
102
RTVSPost2010Prop38
140
0.0
102
RTVSPost2010PropOp38
 70
     0
102
RTVSPost2010Prop39
140
1.0
102
RTVSPost2010PropOp39
 70
     0
102
RTVSPost2010Prop40
 90
        0
102
RTVSPost2010PropOp40
 70
     0
102
RTVSPost2010Prop41ColorIndex
 90
       18
102
RTVSPost2010Prop41ColorRGB
 90
        0
102
RTVSPost2010PropOp41
 70
     0
102
RTVSPost2010Prop42
 90
       50
102
RTVSPost2010PropOp42
 70
     0
102
RTVSPost2010Prop43
 90
        3
102
RTVSPost2010PropOp43
 70
     0
102
RTVSPost2010Prop44ColorIndex
 90
        5
102
RTVSPost2010Prop44ColorRGB
 90
      255
102
RTVSPost2010PropOp44
 70
     0
102
RTVSPost2010Prop45
280
     0
102
RTVSPost2010PropOp45
 70
     0
102
RTVSPost2010Prop46
 90
       50
102
RTVSPost2010PropOp46
 70
     0
102
RTVSPost2010Prop47
 90
       50
102
RTVSPost2010PropOp47
 70
     0
102
RTVSPost2010Prop48
 90
       50
102
RTVSPost2010PropOp48
 70
     0
102
RTVSPost2010Prop49
280
     0
102
RTVSPost2010PropOp49
 70
     0
102
RTVSPost2010Prop50
 90
       50
102
RTVSPost2010PropOp50
 70
     0
102
RTVSPost2010Prop51ColorIndex
 90
      256
102
RTVSPost2010Prop51ColorRGB
 90
-16777216
102
RTVSPost2010PropOp51
 70
     0
102
RTVSPost2010Prop52
140
1.0
102
RTVSPost2010PropOp52
 70
     0
102
RTVSPost2010Prop53
 90
        2
102
RTVSPost2010PropOp53
 70
     0
102
RTVSPost2010Prop54
  1
strokes_ogs.tif
102
RTVSPost2010PropOp54
 70
     0
102
RTVSPost2010Prop55
280
     0
102
RTVSPost2010PropOp55
 70
     0
102
RTVSPost2010Prop56
140
1.0
102
RTVSPost2010PropOp56
 70
     0
102
RTVSPost2010Prop57
140
1.0
102
RTVSPost2010PropOp57
 70
     0
  0
XRECORD
  5
1EF
102
{ACAD_REACTORS
330
1EE
102
}
330
1EE
100
AcDbXrecord
280
     1
102
RTVSPropertyOp0
 70
     1
102
RTVSPropertyOp1
 70
     1
102
RTVSPropertyOp2
 70
     1
102
RTVSPropertyOp3
 70
     1
102
RTVSPropertyOp4
 70
     1
102
RTVSPropertyOp5
 70
     1
102
RTVSPropertyOp6
 70
     1
102
RTVSPropertyOp7
 70
     1
102
RTVSPropertyOp8
 70
     1
102
RTVSPropertyOp9
 70
     1
102
RTVSPropertyOp10
 70
     1
102
RTVSPropertyOp11
 70
     1
102
RTVSPropertyOp12
 70
     1
102
RTVSPropertyOp13
 70
     1
102
RTVSPropertyOp14
 70
     1
102
RTVSPropertyOp15
 70
     1
102
RTVSPropertyOp16
 70
     1
102
RTVSPropertyOp17
 70
     1
102
RTVSPropertyOp18
 70
     1
102
RTVSPropertyOp19
 70
     1
102
RTVSPropertyOp20
 70
     1
102
RTVSPropertyOp21
 70
     1
102
RTVSPropertyOp22
 70
     1
102
RTVSPropertyOp23
 70
     1
102
RTVSPropertyOp24
 70
     1
102
RTVSPropertyOp25
 70
     1
102
RTVSPropertyOp26
 70
     1
102
RTVSPropertyOp27
 70
     1
102
RTVSPropertyOp28
 70
     1
102
RTVSPropertyOp29
 70
     1
102
RTVSPropertyOp30
 70
     1
102
RTVSPropertyOp31
 70
     1
102
RTVSPropertyOp32
 70
     1
102
RTVSPropertyOp33
 70
     1
102
RTVSPropertyOp34
 70
     1
102
RTVSPropertyOp35
 70
     1
102
RTVSPropertyOp36
 70
     1
102
RTVSPropertyOp37
 70
     1
102
RTVSPropertyOp38
 70
     1
102
RTVSPropertyOp39
 70
     1
102
RTVSPropertyOp40
 70
     1
102
RTVSPropertyOp41
 70
     1
102
RTVSPropertyOp42
 70
     1
102
RTVSPropertyOp43
 70
     1
102
RTVSPropertyOp44
 70
     1
102
RTVSPropertyOp45
 70
     1
102
RTVSPropertyOp46
 70
     1
102
RTVSPropertyOp47
 70
     1
102
RTVSPropertyOp48
 70
     1
102
RTVSPropertyOp49
 70
     1
102
RTVSPropertyOp50
 70
     1
102
RTVSPropertyOp51
 70
     0
102
RTVSPropertyOp52
 70
     0
102
RTVSPropertyOp53
 70
     1
102
RTVSPropertyOp54
 70
     1
102
RTVSPropertyOp55
 70
     1
102
RTVSPropertyOp56
 70
     1
102
RTVSPropertyOp57
 70
     1
102
RTVSPost2010Prop28
280
     0
102
RTVSPost2010PropOp28
 70
     1
102
RTVSPost2010Prop29
280
     1
102
RTVSPost2010PropOp29
 70
     1
102
RTVSPost2010Prop30
280
     1
102
RTVSPost2010PropOp30
 70
     1
102
RTVSPost2010Prop31
280
     0
102
RTVSPost2010PropOp31
 70
     1
102
RTVSPost2010Prop32
280
     0
102
RTVSPost2010PropOp32
 70
     1
102
RTVSPost2010Prop33
280
     0
102
RTVSPost2010PropOp33
 70
     1
102
RTVSPost2010Prop34
280
     0
102
RTVSPost2010PropOp34
 70
     1
102
RTVSPost2010Prop35
280
     0
102
RTVSPost2010PropOp35
 70
     1
102
RTVSPost2010Prop36
280
     0
102
RTVSPost2010PropOp36
 70
     1
102
RTVSPost2010Prop37
 90
       50
102
RTVSPost2010PropOp37
 70
     1
102
RTVSPost2010Prop38
140
0.0
102
RTVSPost2010PropOp38
 70
     1
102
RTVSPost2010Prop39
140
1.0
102
RTVSPost2010PropOp39
 70
     1
102
RTVSPost2010Prop40
 90
        0
102
RTVSPost2010PropOp40
 70
     1
102
RTVSPost2010Prop41ColorIndex
 90
       18
102
RTVSPost2010Prop41ColorRGB
 90
        0
102
RTVSPost2010PropOp41
 70
     1
102
RTVSPost2010Prop42
 90
       50
102
RTVSPost2010PropOp42
 70
     1
102
RTVSPost2010Prop43
 90
        3
102
RTVSPost2010PropOp43
 70
     1
102
RTVSPost2010Prop44ColorIndex
 90
        5
102
RTVSPost2010Prop44ColorRGB
 90
      255
102
RTVSPost2010PropOp44
 70
     1
102
RTVSPost2010Prop45
280
     0
102
RTVSPost2010PropOp45
 70
     1
102
RTVSPost2010Prop46
 90
       50
102
RTVSPost2010PropOp46
 70
     1
102
RTVSPost2010Prop47
 90
       50
102
RTVSPost2010PropOp47
 70
     1
102
RTVSPost2010Prop48
 90
       50
102
RTVSPost2010PropOp48
 70
     1
102
RTVSPost2010Prop49
280
     0
102
RTVSPost2010PropOp49
 70
     1
102
RTVSPost2010Prop50
 90
       50
102
RTVSPost2010PropOp50
 70
     1
102
RTVSPost2010Prop51ColorIndex
 90
      256
102
RTVSPost2010Prop51ColorRGB
 90
-16777216
102
RTVSPost2010PropOp51
 70
     0
102
RTVSPost2010Prop52
140
1.0
102
RTVSPost2010PropOp52
 70
     0
102
RTVSPost2010Prop53
 90
        2
102
RTVSPost2010PropOp53
 70
     1
102
RTVSPost2010Prop54
  1
strokes_ogs.tif
102
RTVSPost2010PropOp54
 70
     1
102
RTVSPost2010Prop55
280
     0
102
RTVSPost2010PropOp55
 70
     1
102
RTVSPost2010Prop56
140
1.0
102
RTVSPost2010PropOp56
 70
     1
102
RTVSPost2010Prop57
140
1.0
102
RTVSPost2010PropOp57
 70
     1
  0
XRECORD
  5
20D
102
{ACAD_REACTORS
330
20C
102
}
330
20C
100
AcDbXrecord
280
     1
102
RTVSPropertyOp0
 70
     1
102
RTVSPropertyOp1
 70
     1
102
RTVSPropertyOp2
 70
     1
102
RTVSPropertyOp3
 70
     1
102
RTVSPropertyOp4
 70
     1
102
RTVSPropertyOp5
 70
     1
102
RTVSPropertyOp6
 70
     1
102
RTVSPropertyOp7
 70
     1
102
RTVSPropertyOp8
 70
     1
102
RTVSPropertyOp9
 70
     1
102
RTVSPropertyOp10
 70
     1
102
RTVSPropertyOp11
 70
     1
102
RTVSPropertyOp12
 70
     1
102
RTVSPropertyOp13
 70
     1
102
RTVSPropertyOp14
 70
     1
102
RTVSPropertyOp15
 70
     1
102
RTVSPropertyOp16
 70
     1
102
RTVSPropertyOp17
 70
     1
102
RTVSPropertyOp18
 70
     1
102
RTVSPropertyOp19
 70
     1
102
RTVSPropertyOp20
 70
     1
102
RTVSPropertyOp21
 70
     1
102
RTVSPropertyOp22
 70
     1
102
RTVSPropertyOp23
 70
     1
102
RTVSPropertyOp24
 70
     1
102
RTVSPropertyOp25
 70
     1
102
RTVSPropertyOp26
 70
     1
102
RTVSPropertyOp27
 70
     1
102
RTVSPropertyOp28
 70
     1
102
RTVSPropertyOp29
 70
     1
102
RTVSPropertyOp30
 70
     1
102
RTVSPropertyOp31
 70
     1
102
RTVSPropertyOp32
 70
     1
102
RTVSPropertyOp33
 70
     1
102
RTVSPropertyOp34
 70
     1
102
RTVSPropertyOp35
 70
     1
102
RTVSPropertyOp36
 70
     1
102
RTVSPropertyOp37
 70
     1
102
RTVSPropertyOp38
 70
     1
102
RTVSPropertyOp39
 70
     1
102
RTVSPropertyOp40
 70
     1
102
RTVSPropertyOp41
 70
     1
102
RTVSPropertyOp42
 70
     1
102
RTVSPropertyOp43
 70
     1
102
RTVSPropertyOp44
 70
     1
102
RTVSPropertyOp45
 70
     1
102
RTVSPropertyOp46
 70
     1
102
RTVSPropertyOp47
 70
     1
102
RTVSPropertyOp48
 70
     1
102
RTVSPropertyOp49
 70
     1
102
RTVSPropertyOp50
 70
     1
102
RTVSPropertyOp51
 70
     0
102
RTVSPropertyOp52
 70
     0
102
RTVSPropertyOp53
 70
     1
102
RTVSPropertyOp54
 70
     1
102
RTVSPropertyOp55
 70
     1
102
RTVSPropertyOp56
 70
     1
102
RTVSPropertyOp57
 70
     1
102
RTVSPost2010Prop28
280
     0
102
RTVSPost2010PropOp28
 70
     1
102
RTVSPost2010Prop29
280
     1
102
RTVSPost2010PropOp29
 70
     1
102
RTVSPost2010Prop30
280
     1
102
RTVSPost2010PropOp30
 70
     1
102
RTVSPost2010Prop31
280
     0
102
RTVSPost2010PropOp31
 70
     1
102
RTVSPost2010Prop32
280
     0
102
RTVSPost2010PropOp32
 70
     1
102
RTVSPost2010Prop33
280
     0
102
RTVSPost2010PropOp33
 70
     1
102
RTVSPost2010Prop34
280
     0
102
RTVSPost2010PropOp34
 70
     1
102
RTVSPost2010Prop35
280
     0
102
RTVSPost2010PropOp35
 70
     1
102
RTVSPost2010Prop36
280
     0
102
RTVSPost2010PropOp36
 70
     1
102
RTVSPost2010Prop37
 90
       50
102
RTVSPost2010PropOp37
 70
     1
102
RTVSPost2010Prop38
140
0.0
102
RTVSPost2010PropOp38
 70
     1
102
RTVSPost2010Prop39
140
1.0
102
RTVSPost2010PropOp39
 70
     1
102
RTVSPost2010Prop40
 90
        0
102
RTVSPost2010PropOp40
 70
     1
102
RTVSPost2010Prop41ColorIndex
 90
       18
102
RTVSPost2010Prop41ColorRGB
 90
        0
102
RTVSPost2010PropOp41
 70
     1
102
RTVSPost2010Prop42
 90
       50
102
RTVSPost2010PropOp42
 70
     1
102
RTVSPost2010Prop43
 90
        3
102
RTVSPost2010PropOp43
 70
     1
102
RTVSPost2010Prop44ColorIndex
 90
        5
102
RTVSPost2010Prop44ColorRGB
 90
      255
102
RTVSPost2010PropOp44
 70
     1
102
RTVSPost2010Prop45
280
     0
102
RTVSPost2010PropOp45
 70
     1
102
RTVSPost2010Prop46
 90
       50
102
RTVSPost2010PropOp46
 70
     1
102
RTVSPost2010Prop47
 90
       50
102
RTVSPost2010PropOp47
 70
     1
102
RTVSPost2010Prop48
 90
       50
102
RTVSPost2010PropOp48
 70
     1
102
RTVSPost2010Prop49
280
     0
102
RTVSPost2010PropOp49
 70
     1
102
RTVSPost2010Prop50
 90
       50
102
RTVSPost2010PropOp50
 70
     1
102
RTVSPost2010Prop51ColorIndex
 90
      256
102
RTVSPost2010Prop51ColorRGB
 90
-16777216
102
RTVSPost2010PropOp51
 70
     0
102
RTVSPost2010Prop52
140
1.0
102
RTVSPost2010PropOp52
 70
     0
102
RTVSPost2010Prop53
 90
        2
102
RTVSPost2010PropOp53
 70
     1
102
RTVSPost2010Prop54
  1
strokes_ogs.tif
102
RTVSPost2010PropOp54
 70
     1
102
RTVSPost2010Prop55
280
     0
102
RTVSPost2010PropOp55
 70
     1
102
RTVSPost2010Prop56
140
1.0
102
RTVSPost2010PropOp56
 70
     1
102
RTVSPost2010Prop57
140
1.0
102
RTVSPost2010PropOp57
 70
     1
  0
XRECORD
  5
20B
102
{ACAD_REACTORS
330
20A
102
}
330
20A
100
AcDbXrecord
280
     1
102
RTVSPropertyOp0
 70
     1
102
RTVSPropertyOp1
 70
     1
102
RTVSPropertyOp2
 70
     1
102
RTVSPropertyOp3
 70
     1
102
RTVSPropertyOp4
 70
     1
102
RTVSPropertyOp5
 70
     1
102
RTVSPropertyOp6
 70
     1
102
RTVSPropertyOp7
 70
     1
102
RTVSPropertyOp8
 70
     1
102
RTVSPropertyOp9
 70
     1
102
RTVSPropertyOp10
 70
     1
102
RTVSPropertyOp11
 70
     1
102
RTVSPropertyOp12
 70
     1
102
RTVSPropertyOp13
 70
     1
102
RTVSPropertyOp14
 70
     1
102
RTVSPropertyOp15
 70
     1
102
RTVSPropertyOp16
 70
     1
102
RTVSPropertyOp17
 70
     1
102
RTVSPropertyOp18
 70
     1
102
RTVSPropertyOp19
 70
     1
102
RTVSPropertyOp20
 70
     1
102
RTVSPropertyOp21
 70
     1
102
RTVSPropertyOp22
 70
     1
102
RTVSPropertyOp23
 70
     1
102
RTVSPropertyOp24
 70
     1
102
RTVSPropertyOp25
 70
     1
102
RTVSPropertyOp26
 70
     1
102
RTVSPropertyOp27
 70
     1
102
RTVSPropertyOp28
 70
     1
102
RTVSPropertyOp29
 70
     1
102
RTVSPropertyOp30
 70
     1
102
RTVSPropertyOp31
 70
     1
102
RTVSPropertyOp32
 70
     1
102
RTVSPropertyOp33
 70
     1
102
RTVSPropertyOp34
 70
     1
102
RTVSPropertyOp35
 70
     1
102
RTVSPropertyOp36
 70
     1
102
RTVSPropertyOp37
 70
     1
102
RTVSPropertyOp38
 70
     1
102
RTVSPropertyOp39
 70
     1
102
RTVSPropertyOp40
 70
     1
102
RTVSPropertyOp41
 70
     1
102
RTVSPropertyOp42
 70
     1
102
RTVSPropertyOp43
 70
     1
102
RTVSPropertyOp44
 70
     1
102
RTVSPropertyOp45
 70
     1
102
RTVSPropertyOp46
 70
     1
102
RTVSPropertyOp47
 70
     1
102
RTVSPropertyOp48
 70
     1
102
RTVSPropertyOp49
 70
     1
102
RTVSPropertyOp50
 70
     1
102
RTVSPropertyOp51
 70
     0
102
RTVSPropertyOp52
 70
     0
102
RTVSPropertyOp53
 70
     1
102
RTVSPropertyOp54
 70
     1
102
RTVSPropertyOp55
 70
     1
102
RTVSPropertyOp56
 70
     1
102
RTVSPropertyOp57
 70
     1
102
RTVSPost2010Prop28
280
     0
102
RTVSPost2010PropOp28
 70
     1
102
RTVSPost2010Prop29
280
     1
102
RTVSPost2010PropOp29
 70
     1
102
RTVSPost2010Prop30
280
     1
102
RTVSPost2010PropOp30
 70
     1
102
RTVSPost2010Prop31
280
     0
102
RTVSPost2010PropOp31
 70
     1
102
RTVSPost2010Prop32
280
     0
102
RTVSPost2010PropOp32
 70
     1
102
RTVSPost2010Prop33
280
     0
102
RTVSPost2010PropOp33
 70
     1
102
RTVSPost2010Prop34
280
     0
102
RTVSPost2010PropOp34
 70
     1
102
RTVSPost2010Prop35
280
     0
102
RTVSPost2010PropOp35
 70
     1
102
RTVSPost2010Prop36
280
     0
102
RTVSPost2010PropOp36
 70
     1
102
RTVSPost2010Prop37
 90
       50
102
RTVSPost2010PropOp37
 70
     1
102
RTVSPost2010Prop38
140
0.0
102
RTVSPost2010PropOp38
 70
     1
102
RTVSPost2010Prop39
140
1.0
102
RTVSPost2010PropOp39
 70
     1
102
RTVSPost2010Prop40
 90
        0
102
RTVSPost2010PropOp40
 70
     1
102
RTVSPost2010Prop41ColorIndex
 90
       18
102
RTVSPost2010Prop41ColorRGB
 90
        0
102
RTVSPost2010PropOp41
 70
     1
102
RTVSPost2010Prop42
 90
       50
102
RTVSPost2010PropOp42
 70
     1
102
RTVSPost2010Prop43
 90
        3
102
RTVSPost2010PropOp43
 70
     1
102
RTVSPost2010Prop44ColorIndex
 90
        5
102
RTVSPost2010Prop44ColorRGB
 90
      255
102
RTVSPost2010PropOp44
 70
     1
102
RTVSPost2010Prop45
280
     0
102
RTVSPost2010PropOp45
 70
     1
102
RTVSPost2010Prop46
 90
       50
102
RTVSPost2010PropOp46
 70
     1
102
RTVSPost2010Prop47
 90
       50
102
RTVSPost2010PropOp47
 70
     1
102
RTVSPost2010Prop48
 90
       50
102
RTVSPost2010PropOp48
 70
     1
102
RTVSPost2010Prop49
280
     0
102
RTVSPost2010PropOp49
 70
     1
102
RTVSPost2010Prop50
 90
       50
102
RTVSPost2010PropOp50
 70
     1
102
RTVSPost2010Prop51ColorIndex
 90
      256
102
RTVSPost2010Prop51ColorRGB
 90
-16777216
102
RTVSPost2010PropOp51
 70
     0
102
RTVSPost2010Prop52
140
1.0
102
RTVSPost2010PropOp52
 70
     0
102
RTVSPost2010Prop53
 90
        2
102
RTVSPost2010PropOp53
 70
     1
102
RTVSPost2010Prop54
  1
strokes_ogs.tif
102
RTVSPost2010PropOp54
 70
     1
102
RTVSPost2010Prop55
280
     0
102
RTVSPost2010PropOp55
 70
     1
102
RTVSPost2010Prop56
140
1.0
102
RTVSPost2010PropOp56
 70
     1
102
RTVSPost2010Prop57
140
1.0
102
RTVSPost2010PropOp57
 70
     1
  0
XRECORD
  5
205
102
{ACAD_REACTORS
330
204
102
}
330
204
100
AcDbXrecord
280
     1
102
RTVSPropertyOp0
 70
     1
102
RTVSPropertyOp1
 70
     1
102
RTVSPropertyOp2
 70
     1
102
RTVSPropertyOp3
 70
     1
102
RTVSPropertyOp4
 70
     1
102
RTVSPropertyOp5
 70
     1
102
RTVSPropertyOp6
 70
     1
102
RTVSPropertyOp7
 70
     1
102
RTVSPropertyOp8
 70
     1
102
RTVSPropertyOp9
 70
     1
102
RTVSPropertyOp10
 70
     1
102
RTVSPropertyOp11
 70
     1
102
RTVSPropertyOp12
 70
     1
102
RTVSPropertyOp13
 70
     1
102
RTVSPropertyOp14
 70
     1
102
RTVSPropertyOp15
 70
     1
102
RTVSPropertyOp16
 70
     1
102
RTVSPropertyOp17
 70
     1
102
RTVSPropertyOp18
 70
     1
102
RTVSPropertyOp19
 70
     1
102
RTVSPropertyOp20
 70
     1
102
RTVSPropertyOp21
 70
     1
102
RTVSPropertyOp22
 70
     1
102
RTVSPropertyOp23
 70
     1
102
RTVSPropertyOp24
 70
     1
102
RTVSPropertyOp25
 70
     1
102
RTVSPropertyOp26
 70
     1
102
RTVSPropertyOp27
 70
     1
102
RTVSPropertyOp28
 70
     1
102
RTVSPropertyOp29
 70
     1
102
RTVSPropertyOp30
 70
     1
102
RTVSPropertyOp31
 70
     1
102
RTVSPropertyOp32
 70
     1
102
RTVSPropertyOp33
 70
     1
102
RTVSPropertyOp34
 70
     1
102
RTVSPropertyOp35
 70
     1
102
RTVSPropertyOp36
 70
     1
102
RTVSPropertyOp37
 70
     1
102
RTVSPropertyOp38
 70
     1
102
RTVSPropertyOp39
 70
     1
102
RTVSPropertyOp40
 70
     1
102
RTVSPropertyOp41
 70
     1
102
RTVSPropertyOp42
 70
     1
102
RTVSPropertyOp43
 70
     1
102
RTVSPropertyOp44
 70
     1
102
RTVSPropertyOp45
 70
     1
102
RTVSPropertyOp46
 70
     1
102
RTVSPropertyOp47
 70
     1
102
RTVSPropertyOp48
 70
     1
102
RTVSPropertyOp49
 70
     1
102
RTVSPropertyOp50
 70
     1
102
RTVSPropertyOp51
 70
     0
102
RTVSPropertyOp52
 70
     0
102
RTVSPropertyOp53
 70
     1
102
RTVSPropertyOp54
 70
     1
102
RTVSPropertyOp55
 70
     1
102
RTVSPropertyOp56
 70
     1
102
RTVSPropertyOp57
 70
     1
102
RTVSPost2010Prop28
280
     0
102
RTVSPost2010PropOp28
 70
     1
102
RTVSPost2010Prop29
280
     1
102
RTVSPost2010PropOp29
 70
     1
102
RTVSPost2010Prop30
280
     1
102
RTVSPost2010PropOp30
 70
     1
102
RTVSPost2010Prop31
280
     0
102
RTVSPost2010PropOp31
 70
     1
102
RTVSPost2010Prop32
280
     0
102
RTVSPost2010PropOp32
 70
     1
102
RTVSPost2010Prop33
280
     0
102
RTVSPost2010PropOp33
 70
     1
102
RTVSPost2010Prop34
280
     0
102
RTVSPost2010PropOp34
 70
     1
102
RTVSPost2010Prop35
280
     0
102
RTVSPost2010PropOp35
 70
     1
102
RTVSPost2010Prop36
280
     0
102
RTVSPost2010PropOp36
 70
     1
102
RTVSPost2010Prop37
 90
       50
102
RTVSPost2010PropOp37
 70
     1
102
RTVSPost2010Prop38
140
0.0
102
RTVSPost2010PropOp38
 70
     1
102
RTVSPost2010Prop39
140
1.0
102
RTVSPost2010PropOp39
 70
     1
102
RTVSPost2010Prop40
 90
        0
102
RTVSPost2010PropOp40
 70
     1
102
RTVSPost2010Prop41ColorIndex
 90
       18
102
RTVSPost2010Prop41ColorRGB
 90
        0
102
RTVSPost2010PropOp41
 70
     1
102
RTVSPost2010Prop42
 90
       50
102
RTVSPost2010PropOp42
 70
     1
102
RTVSPost2010Prop43
 90
        3
102
RTVSPost2010PropOp43
 70
     1
102
RTVSPost2010Prop44ColorIndex
 90
        5
102
RTVSPost2010Prop44ColorRGB
 90
      255
102
RTVSPost2010PropOp44
 70
     1
102
RTVSPost2010Prop45
280
     0
102
RTVSPost2010PropOp45
 70
     1
102
RTVSPost2010Prop46
 90
       50
102
RTVSPost2010PropOp46
 70
     1
102
RTVSPost2010Prop47
 90
       50
102
RTVSPost2010PropOp47
 70
     1
102
RTVSPost2010Prop48
 90
       50
102
RTVSPost2010PropOp48
 70
     1
102
RTVSPost2010Prop49
280
     0
102
RTVSPost2010PropOp49
 70
     1
102
RTVSPost2010Prop50
 90
       50
102
RTVSPost2010PropOp50
 70
     1
102
RTVSPost2010Prop51ColorIndex
 90
      256
102
RTVSPost2010Prop51ColorRGB
 90
-16777216
102
RTVSPost2010PropOp51
 70
     0
102
RTVSPost2010Prop52
140
1.0
102
RTVSPost2010PropOp52
 70
     0
102
RTVSPost2010Prop53
 90
        2
102
RTVSPost2010PropOp53
 70
     1
102
RTVSPost2010Prop54
  1
strokes_ogs.tif
102
RTVSPost2010PropOp54
 70
     1
102
RTVSPost2010Prop55
280
     0
102
RTVSPost2010PropOp55
 70
     1
102
RTVSPost2010Prop56
140
1.0
102
RTVSPost2010PropOp56
 70
     1
102
RTVSPost2010Prop57
140
1.0
102
RTVSPost2010PropOp57
 70
     1
  0
XRECORD
  5
207
102
{ACAD_REACTORS
330
206
102
}
330
206
100
AcDbXrecord
280
     1
102
RTVSPropertyOp0
 70
     1
102
RTVSPropertyOp1
 70
     1
102
RTVSPropertyOp2
 70
     1
102
RTVSPropertyOp3
 70
     1
102
RTVSPropertyOp4
 70
     1
102
RTVSPropertyOp5
 70
     1
102
RTVSPropertyOp6
 70
     1
102
RTVSPropertyOp7
 70
     1
102
RTVSPropertyOp8
 70
     1
102
RTVSPropertyOp9
 70
     1
102
RTVSPropertyOp10
 70
     1
102
RTVSPropertyOp11
 70
     1
102
RTVSPropertyOp12
 70
     1
102
RTVSPropertyOp13
 70
     1
102
RTVSPropertyOp14
 70
     1
102
RTVSPropertyOp15
 70
     1
102
RTVSPropertyOp16
 70
     1
102
RTVSPropertyOp17
 70
     1
102
RTVSPropertyOp18
 70
     1
102
RTVSPropertyOp19
 70
     1
102
RTVSPropertyOp20
 70
     1
102
RTVSPropertyOp21
 70
     1
102
RTVSPropertyOp22
 70
     1
102
RTVSPropertyOp23
 70
     1
102
RTVSPropertyOp24
 70
     1
102
RTVSPropertyOp25
 70
     1
102
RTVSPropertyOp26
 70
     1
102
RTVSPropertyOp27
 70
     1
102
RTVSPropertyOp28
 70
     1
102
RTVSPropertyOp29
 70
     1
102
RTVSPropertyOp30
 70
     1
102
RTVSPropertyOp31
 70
     1
102
RTVSPropertyOp32
 70
     1
102
RTVSPropertyOp33
 70
     1
102
RTVSPropertyOp34
 70
     1
102
RTVSPropertyOp35
 70
     1
102
RTVSPropertyOp36
 70
     1
102
RTVSPropertyOp37
 70
     1
102
RTVSPropertyOp38
 70
     1
102
RTVSPropertyOp39
 70
     1
102
RTVSPropertyOp40
 70
     1
102
RTVSPropertyOp41
 70
     1
102
RTVSPropertyOp42
 70
     1
102
RTVSPropertyOp43
 70
     1
102
RTVSPropertyOp44
 70
     1
102
RTVSPropertyOp45
 70
     1
102
RTVSPropertyOp46
 70
     1
102
RTVSPropertyOp47
 70
     1
102
RTVSPropertyOp48
 70
     1
102
RTVSPropertyOp49
 70
     1
102
RTVSPropertyOp50
 70
     1
102
RTVSPropertyOp51
 70
     0
102
RTVSPropertyOp52
 70
     0
102
RTVSPropertyOp53
 70
     1
102
RTVSPropertyOp54
 70
     1
102
RTVSPropertyOp55
 70
     1
102
RTVSPropertyOp56
 70
     1
102
RTVSPropertyOp57
 70
     1
102
RTVSPost2010Prop28
280
     0
102
RTVSPost2010PropOp28
 70
     1
102
RTVSPost2010Prop29
280
     1
102
RTVSPost2010PropOp29
 70
     1
102
RTVSPost2010Prop30
280
     1
102
RTVSPost2010PropOp30
 70
     1
102
RTVSPost2010Prop31
280
     0
102
RTVSPost2010PropOp31
 70
     1
102
RTVSPost2010Prop32
280
     0
102
RTVSPost2010PropOp32
 70
     1
102
RTVSPost2010Prop33
280
     0
102
RTVSPost2010PropOp33
 70
     1
102
RTVSPost2010Prop34
280
     0
102
RTVSPost2010PropOp34
 70
     1
102
RTVSPost2010Prop35
280
     0
102
RTVSPost2010PropOp35
 70
     1
102
RTVSPost2010Prop36
280
     0
102
RTVSPost2010PropOp36
 70
     1
102
RTVSPost2010Prop37
 90
       50
102
RTVSPost2010PropOp37
 70
     1
102
RTVSPost2010Prop38
140
0.0
102
RTVSPost2010PropOp38
 70
     1
102
RTVSPost2010Prop39
140
1.0
102
RTVSPost2010PropOp39
 70
     1
102
RTVSPost2010Prop40
 90
        0
102
RTVSPost2010PropOp40
 70
     1
102
RTVSPost2010Prop41ColorIndex
 90
       18
102
RTVSPost2010Prop41ColorRGB
 90
        0
102
RTVSPost2010PropOp41
 70
     1
102
RTVSPost2010Prop42
 90
       50
102
RTVSPost2010PropOp42
 70
     1
102
RTVSPost2010Prop43
 90
        3
102
RTVSPost2010PropOp43
 70
     1
102
RTVSPost2010Prop44ColorIndex
 90
        5
102
RTVSPost2010Prop44ColorRGB
 90
      255
102
RTVSPost2010PropOp44
 70
     1
102
RTVSPost2010Prop45
280
     0
102
RTVSPost2010PropOp45
 70
     1
102
RTVSPost2010Prop46
 90
       50
102
RTVSPost2010PropOp46
 70
     1
102
RTVSPost2010Prop47
 90
       50
102
RTVSPost2010PropOp47
 70
     1
102
RTVSPost2010Prop48
 90
       50
102
RTVSPost2010PropOp48
 70
     1
102
RTVSPost2010Prop49
280
     0
102
RTVSPost2010PropOp49
 70
     1
102
RTVSPost2010Prop50
 90
       50
102
RTVSPost2010PropOp50
 70
     1
102
RTVSPost2010Prop51ColorIndex
 90
      256
102
RTVSPost2010Prop51ColorRGB
 90
-16777216
102
RTVSPost2010PropOp51
 70
     0
102
RTVSPost2010Prop52
140
1.0
102
RTVSPost2010PropOp52
 70
     0
102
RTVSPost2010Prop53
 90
        2
102
RTVSPost2010PropOp53
 70
     1
102
RTVSPost2010Prop54
  1
strokes_ogs.tif
102
RTVSPost2010PropOp54
 70
     1
102
RTVSPost2010Prop55
280
     0
102
RTVSPost2010PropOp55
 70
     1
102
RTVSPost2010Prop56
140
1.0
102
RTVSPost2010PropOp56
 70
     1
102
RTVSPost2010Prop57
140
1.0
102
RTVSPost2010PropOp57
 70
     1
  0
XRECORD
  5
1F7
102
{ACAD_REACTORS
330
1F6
102
}
330
1F6
100
AcDbXrecord
280
     1
102
RTVSPropertyOp0
 70
     1
102
RTVSPropertyOp1
 70
     1
102
RTVSPropertyOp2
 70
     1
102
RTVSPropertyOp3
 70
     1
102
RTVSPropertyOp4
 70
     1
102
RTVSPropertyOp5
 70
     1
102
RTVSPropertyOp6
 70
     1
102
RTVSPropertyOp7
 70
     1
102
RTVSPropertyOp8
 70
     1
102
RTVSPropertyOp9
 70
     1
102
RTVSPropertyOp10
 70
     1
102
RTVSPropertyOp11
 70
     1
102
RTVSPropertyOp12
 70
     1
102
RTVSPropertyOp13
 70
     1
102
RTVSPropertyOp14
 70
     1
102
RTVSPropertyOp15
 70
     1
102
RTVSPropertyOp16
 70
     1
102
RTVSPropertyOp17
 70
     1
102
RTVSPropertyOp18
 70
     1
102
RTVSPropertyOp19
 70
     1
102
RTVSPropertyOp20
 70
     1
102
RTVSPropertyOp21
 70
     1
102
RTVSPropertyOp22
 70
     1
102
RTVSPropertyOp23
 70
     1
102
RTVSPropertyOp24
 70
     1
102
RTVSPropertyOp25
 70
     1
102
RTVSPropertyOp26
 70
     1
102
RTVSPropertyOp27
 70
     1
102
RTVSPropertyOp28
 70
     1
102
RTVSPropertyOp29
 70
     1
102
RTVSPropertyOp30
 70
     1
102
RTVSPropertyOp31
 70
     1
102
RTVSPropertyOp32
 70
     1
102
RTVSPropertyOp33
 70
     1
102
RTVSPropertyOp34
 70
     1
102
RTVSPropertyOp35
 70
     1
102
RTVSPropertyOp36
 70
     1
102
RTVSPropertyOp37
 70
     1
102
RTVSPropertyOp38
 70
     1
102
RTVSPropertyOp39
 70
     1
102
RTVSPropertyOp40
 70
     1
102
RTVSPropertyOp41
 70
     1
102
RTVSPropertyOp42
 70
     1
102
RTVSPropertyOp43
 70
     1
102
RTVSPropertyOp44
 70
     1
102
RTVSPropertyOp45
 70
     1
102
RTVSPropertyOp46
 70
     1
102
RTVSPropertyOp47
 70
     1
102
RTVSPropertyOp48
 70
     1
102
RTVSPropertyOp49
 70
     1
102
RTVSPropertyOp50
 70
     1
102
RTVSPropertyOp51
 70
     0
102
RTVSPropertyOp52
 70
     0
102
RTVSPropertyOp53
 70
     1
102
RTVSPropertyOp54
 70
     1
102
RTVSPropertyOp55
 70
     1
102
RTVSPropertyOp56
 70
     1
102
RTVSPropertyOp57
 70
     1
102
RTVSPost2010Prop28
280
     0
102
RTVSPost2010PropOp28
 70
     1
102
RTVSPost2010Prop29
280
     1
102
RTVSPost2010PropOp29
 70
     1
102
RTVSPost2010Prop30
280
     1
102
RTVSPost2010PropOp30
 70
     1
102
RTVSPost2010Prop31
280
     0
102
RTVSPost2010PropOp31
 70
     1
102
RTVSPost2010Prop32
280
     0
102
RTVSPost2010PropOp32
 70
     1
102
RTVSPost2010Prop33
280
     0
102
RTVSPost2010PropOp33
 70
     1
102
RTVSPost2010Prop34
280
     0
102
RTVSPost2010PropOp34
 70
     1
102
RTVSPost2010Prop35
280
     0
102
RTVSPost2010PropOp35
 70
     1
102
RTVSPost2010Prop36
280
     0
102
RTVSPost2010PropOp36
 70
     1
102
RTVSPost2010Prop37
 90
       50
102
RTVSPost2010PropOp37
 70
     1
102
RTVSPost2010Prop38
140
0.0
102
RTVSPost2010PropOp38
 70
     1
102
RTVSPost2010Prop39
140
1.0
102
RTVSPost2010PropOp39
 70
     1
102
RTVSPost2010Prop40
 90
        0
102
RTVSPost2010PropOp40
 70
     1
102
RTVSPost2010Prop41ColorIndex
 90
       18
102
RTVSPost2010Prop41ColorRGB
 90
        0
102
RTVSPost2010PropOp41
 70
     1
102
RTVSPost2010Prop42
 90
       50
102
RTVSPost2010PropOp42
 70
     1
102
RTVSPost2010Prop43
 90
        3
102
RTVSPost2010PropOp43
 70
     1
102
RTVSPost2010Prop44ColorIndex
 90
        5
102
RTVSPost2010Prop44ColorRGB
 90
      255
102
RTVSPost2010PropOp44
 70
     1
102
RTVSPost2010Prop45
280
     0
102
RTVSPost2010PropOp45
 70
     1
102
RTVSPost2010Prop46
 90
       50
102
RTVSPost2010PropOp46
 70
     1
102
RTVSPost2010Prop47
 90
       50
102
RTVSPost2010PropOp47
 70
     1
102
RTVSPost2010Prop48
 90
       50
102
RTVSPost2010PropOp48
 70
     1
102
RTVSPost2010Prop49
280
     0
102
RTVSPost2010PropOp49
 70
     1
102
RTVSPost2010Prop50
 90
       50
102
RTVSPost2010PropOp50
 70
     1
102
RTVSPost2010Prop51ColorIndex
 90
      256
102
RTVSPost2010Prop51ColorRGB
 90
-16777216
102
RTVSPost2010PropOp51
 70
     0
102
RTVSPost2010Prop52
140
1.0
102
RTVSPost2010PropOp52
 70
     0
102
RTVSPost2010Prop53
 90
        2
102
RTVSPost2010PropOp53
 70
     1
102
RTVSPost2010Prop54
  1
strokes_ogs.tif
102
RTVSPost2010PropOp54
 70
     1
102
RTVSPost2010Prop55
280
     0
102
RTVSPost2010PropOp55
 70
     1
102
RTVSPost2010Prop56
140
1.0
102
RTVSPost2010PropOp56
 70
     1
102
RTVSPost2010Prop57
140
1.0
102
RTVSPost2010PropOp57
 70
     1
  0
XRECORD
  5
1E9
102
{ACAD_REACTORS
330
1E8
102
}
330
1E8
100
AcDbXrecord
280
     1
102
RTVSPropertyOp0
 70
     1
102
RTVSPropertyOp1
 70
     1
102
RTVSPropertyOp2
 70
     1
102
RTVSPropertyOp3
 70
     1
102
RTVSPropertyOp4
 70
     1
102
RTVSPropertyOp5
 70
     1
102
RTVSPropertyOp6
 70
     1
102
RTVSPropertyOp7
 70
     1
102
RTVSPropertyOp8
 70
     1
102
RTVSPropertyOp9
 70
     1
102
RTVSPropertyOp10
 70
     1
102
RTVSPropertyOp11
 70
     1
102
RTVSPropertyOp12
 70
     1
102
RTVSPropertyOp13
 70
     1
102
RTVSPropertyOp14
 70
     1
102
RTVSPropertyOp15
 70
     1
102
RTVSPropertyOp16
 70
     1
102
RTVSPropertyOp17
 70
     1
102
RTVSPropertyOp18
 70
     1
102
RTVSPropertyOp19
 70
     1
102
RTVSPropertyOp20
 70
     1
102
RTVSPropertyOp21
 70
     1
102
RTVSPropertyOp22
 70
     1
102
RTVSPropertyOp23
 70
     1
102
RTVSPropertyOp24
 70
     1
102
RTVSPropertyOp25
 70
     1
102
RTVSPropertyOp26
 70
     1
102
RTVSPropertyOp27
 70
     1
102
RTVSPropertyOp28
 70
     1
102
RTVSPropertyOp29
 70
     1
102
RTVSPropertyOp30
 70
     1
102
RTVSPropertyOp31
 70
     1
102
RTVSPropertyOp32
 70
     1
102
RTVSPropertyOp33
 70
     1
102
RTVSPropertyOp34
 70
     1
102
RTVSPropertyOp35
 70
     1
102
RTVSPropertyOp36
 70
     1
102
RTVSPropertyOp37
 70
     1
102
RTVSPropertyOp38
 70
     1
102
RTVSPropertyOp39
 70
     1
102
RTVSPropertyOp40
 70
     1
102
RTVSPropertyOp41
 70
     1
102
RTVSPropertyOp42
 70
     1
102
RTVSPropertyOp43
 70
     1
102
RTVSPropertyOp44
 70
     1
102
RTVSPropertyOp45
 70
     1
102
RTVSPropertyOp46
 70
     1
102
RTVSPropertyOp47
 70
     1
102
RTVSPropertyOp48
 70
     1
102
RTVSPropertyOp49
 70
     1
102
RTVSPropertyOp50
 70
     1
102
RTVSPropertyOp51
 70
     0
102
RTVSPropertyOp52
 70
     0
102
RTVSPropertyOp53
 70
     1
102
RTVSPropertyOp54
 70
     1
102
RTVSPropertyOp55
 70
     1
102
RTVSPropertyOp56
 70
     1
102
RTVSPropertyOp57
 70
     1
102
RTVSPost2010Prop28
280
     0
102
RTVSPost2010PropOp28
 70
     1
102
RTVSPost2010Prop29
280
     1
102
RTVSPost2010PropOp29
 70
     1
102
RTVSPost2010Prop30
280
     1
102
RTVSPost2010PropOp30
 70
     1
102
RTVSPost2010Prop31
280
     0
102
RTVSPost2010PropOp31
 70
     1
102
RTVSPost2010Prop32
280
     0
102
RTVSPost2010PropOp32
 70
     1
102
RTVSPost2010Prop33
280
     0
102
RTVSPost2010PropOp33
 70
     1
102
RTVSPost2010Prop34
280
     0
102
RTVSPost2010PropOp34
 70
     1
102
RTVSPost2010Prop35
280
     0
102
RTVSPost2010PropOp35
 70
     1
102
RTVSPost2010Prop36
280
     0
102
RTVSPost2010PropOp36
 70
     1
102
RTVSPost2010Prop37
 90
       50
102
RTVSPost2010PropOp37
 70
     1
102
RTVSPost2010Prop38
140
0.0
102
RTVSPost2010PropOp38
 70
     1
102
RTVSPost2010Prop39
140
1.0
102
RTVSPost2010PropOp39
 70
     1
102
RTVSPost2010Prop40
 90
        0
102
RTVSPost2010PropOp40
 70
     1
102
RTVSPost2010Prop41ColorIndex
 90
       18
102
RTVSPost2010Prop41ColorRGB
 90
        0
102
RTVSPost2010PropOp41
 70
     1
102
RTVSPost2010Prop42
 90
       50
102
RTVSPost2010PropOp42
 70
     1
102
RTVSPost2010Prop43
 90
        3
102
RTVSPost2010PropOp43
 70
     1
102
RTVSPost2010Prop44ColorIndex
 90
        5
102
RTVSPost2010Prop44ColorRGB
 90
      255
102
RTVSPost2010PropOp44
 70
     1
102
RTVSPost2010Prop45
280
     0
102
RTVSPost2010PropOp45
 70
     1
102
RTVSPost2010Prop46
 90
       50
102
RTVSPost2010PropOp46
 70
     1
102
RTVSPost2010Prop47
 90
       50
102
RTVSPost2010PropOp47
 70
     1
102
RTVSPost2010Prop48
 90
       50
102
RTVSPost2010PropOp48
 70
     1
102
RTVSPost2010Prop49
280
     0
102
RTVSPost2010PropOp49
 70
     1
102
RTVSPost2010Prop50
 90
       50
102
RTVSPost2010PropOp50
 70
     1
102
RTVSPost2010Prop51ColorIndex
 90
      256
102
RTVSPost2010Prop51ColorRGB
 90
-16777216
102
RTVSPost2010PropOp51
 70
     0
102
RTVSPost2010Prop52
140
1.0
102
RTVSPost2010PropOp52
 70
     0
102
RTVSPost2010Prop53
 90
        2
102
RTVSPost2010PropOp53
 70
     1
102
RTVSPost2010Prop54
  1
strokes_ogs.tif
102
RTVSPost2010PropOp54
 70
     1
102
RTVSPost2010Prop55
280
     0
102
RTVSPost2010PropOp55
 70
     1
102
RTVSPost2010Prop56
140
1.0
102
RTVSPost2010PropOp56
 70
     1
102
RTVSPost2010Prop57
140
1.0
102
RTVSPost2010PropOp57
 70
     1
  0
XRECORD
  5
209
102
{ACAD_REACTORS
330
208
102
}
330
208
100
AcDbXrecord
280
     1
102
RTVSPropertyOp0
 70
     1
102
RTVSPropertyOp1
 70
     1
102
RTVSPropertyOp2
 70
     1
102
RTVSPropertyOp3
 70
     1
102
RTVSPropertyOp4
 70
     1
102
RTVSPropertyOp5
 70
     1
102
RTVSPropertyOp6
 70
     1
102
RTVSPropertyOp7
 70
     1
102
RTVSPropertyOp8
 70
     1
102
RTVSPropertyOp9
 70
     1
102
RTVSPropertyOp10
 70
     1
102
RTVSPropertyOp11
 70
     1
102
RTVSPropertyOp12
 70
     1
102
RTVSPropertyOp13
 70
     1
102
RTVSPropertyOp14
 70
     1
102
RTVSPropertyOp15
 70
     1
102
RTVSPropertyOp16
 70
     1
102
RTVSPropertyOp17
 70
     1
102
RTVSPropertyOp18
 70
     1
102
RTVSPropertyOp19
 70
     1
102
RTVSPropertyOp20
 70
     1
102
RTVSPropertyOp21
 70
     1
102
RTVSPropertyOp22
 70
     1
102
RTVSPropertyOp23
 70
     1
102
RTVSPropertyOp24
 70
     1
102
RTVSPropertyOp25
 70
     1
102
RTVSPropertyOp26
 70
     1
102
RTVSPropertyOp27
 70
     1
102
RTVSPropertyOp28
 70
     1
102
RTVSPropertyOp29
 70
     1
102
RTVSPropertyOp30
 70
     1
102
RTVSPropertyOp31
 70
     1
102
RTVSPropertyOp32
 70
     1
102
RTVSPropertyOp33
 70
     1
102
RTVSPropertyOp34
 70
     1
102
RTVSPropertyOp35
 70
     1
102
RTVSPropertyOp36
 70
     1
102
RTVSPropertyOp37
 70
     1
102
RTVSPropertyOp38
 70
     1
102
RTVSPropertyOp39
 70
     1
102
RTVSPropertyOp40
 70
     1
102
RTVSPropertyOp41
 70
     1
102
RTVSPropertyOp42
 70
     1
102
RTVSPropertyOp43
 70
     1
102
RTVSPropertyOp44
 70
     1
102
RTVSPropertyOp45
 70
     1
102
RTVSPropertyOp46
 70
     1
102
RTVSPropertyOp47
 70
     1
102
RTVSPropertyOp48
 70
     1
102
RTVSPropertyOp49
 70
     1
102
RTVSPropertyOp50
 70
     1
102
RTVSPropertyOp51
 70
     0
102
RTVSPropertyOp52
 70
     0
102
RTVSPropertyOp53
 70
     1
102
RTVSPropertyOp54
 70
     1
102
RTVSPropertyOp55
 70
     1
102
RTVSPropertyOp56
 70
     1
102
RTVSPropertyOp57
 70
     1
102
RTVSPost2010Prop28
280
     0
102
RTVSPost2010PropOp28
 70
     1
102
RTVSPost2010Prop29
280
     1
102
RTVSPost2010PropOp29
 70
     1
102
RTVSPost2010Prop30
280
     1
102
RTVSPost2010PropOp30
 70
     1
102
RTVSPost2010Prop31
280
     0
102
RTVSPost2010PropOp31
 70
     1
102
RTVSPost2010Prop32
280
     0
102
RTVSPost2010PropOp32
 70
     1
102
RTVSPost2010Prop33
280
     0
102
RTVSPost2010PropOp33
 70
     1
102
RTVSPost2010Prop34
280
     0
102
RTVSPost2010PropOp34
 70
     1
102
RTVSPost2010Prop35
280
     0
102
RTVSPost2010PropOp35
 70
     1
102
RTVSPost2010Prop36
280
     0
102
RTVSPost2010PropOp36
 70
     1
102
RTVSPost2010Prop37
 90
       50
102
RTVSPost2010PropOp37
 70
     1
102
RTVSPost2010Prop38
140
0.0
102
RTVSPost2010PropOp38
 70
     1
102
RTVSPost2010Prop39
140
1.0
102
RTVSPost2010PropOp39
 70
     1
102
RTVSPost2010Prop40
 90
        0
102
RTVSPost2010PropOp40
 70
     1
102
RTVSPost2010Prop41ColorIndex
 90
       18
102
RTVSPost2010Prop41ColorRGB
 90
        0
102
RTVSPost2010PropOp41
 70
     1
102
RTVSPost2010Prop42
 90
       50
102
RTVSPost2010PropOp42
 70
     1
102
RTVSPost2010Prop43
 90
        3
102
RTVSPost2010PropOp43
 70
     1
102
RTVSPost2010Prop44ColorIndex
 90
        5
102
RTVSPost2010Prop44ColorRGB
 90
      255
102
RTVSPost2010PropOp44
 70
     1
102
RTVSPost2010Prop45
280
     0
102
RTVSPost2010PropOp45
 70
     1
102
RTVSPost2010Prop46
 90
       50
102
RTVSPost2010PropOp46
 70
     1
102
RTVSPost2010Prop47
 90
       50
102
RTVSPost2010PropOp47
 70
     1
102
RTVSPost2010Prop48
 90
       50
102
RTVSPost2010PropOp48
 70
     1
102
RTVSPost2010Prop49
280
     0
102
RTVSPost2010PropOp49
 70
     1
102
RTVSPost2010Prop50
 90
       50
102
RTVSPost2010PropOp50
 70
     1
102
RTVSPost2010Prop51ColorIndex
 90
      256
102
RTVSPost2010Prop51ColorRGB
 90
-16777216
102
RTVSPost2010PropOp51
 70
     0
102
RTVSPost2010Prop52
140
1.0
102
RTVSPost2010PropOp52
 70
     0
102
RTVSPost2010Prop53
 90
        2
102
RTVSPost2010PropOp53
 70
     1
102
RTVSPost2010Prop54
  1
strokes_ogs.tif
102
RTVSPost2010PropOp54
 70
     1
102
RTVSPost2010Prop55
280
     0
102
RTVSPost2010PropOp55
 70
     1
102
RTVSPost2010Prop56
140
1.0
102
RTVSPost2010PropOp56
 70
     1
102
RTVSPost2010Prop57
140
1.0
102
RTVSPost2010PropOp57
 70
     1
  0
ENDSEC
  0
EOF
